  0
SECTION
  2
HEADER
  9
$ACADVER
  1
AC1015
  9
$ACADMAINTVER
 70
    20
  9
$DWGCODEPAGE
  3
ANSI_932
  9
$INSBASE
 10
0.0
 20
0.0
 30
0.0
  9
$EXTMIN
 10
-19.26284375907214
 20
49.00000000000003
 30
0.0
  9
$EXTMAX
 10
1132.737156240927
 20
867.0
 30
0.0
  9
$LIMMIN
 10
0.0
 20
0.0
  9
$LIMMAX
 10
420.0
 20
297.0
  9
$ORTHOMODE
 70
     0
  9
$REGENMODE
 70
     1
  9
$FILLMODE
 70
     1
  9
$QTEXTMODE
 70
     0
  9
$MIRRTEXT
 70
     0
  9
$LTSCALE
 40
3.0
  9
$ATTMODE
 70
     1
  9
$TEXTSIZE
 40
3.0
  9
$TRACEWID
 40
1.0
  9
$TEXTSTYLE
  7
ｺﾞｼｯｸ（縦）
  9
$CLAYER
  8
0
  9
$CELTYPE
  6
ByLayer
  9
$CECOLOR
 62
   256
  9
$CELTSCALE
 40
0.2
  9
$DISPSILH
 70
     0
  9
$DIMSCALE
 40
2.1
  9
$DIMASZ
 40
1.5
  9
$DIMEXO
 40
1.5
  9
$DIMDLI
 40
7.0
  9
$DIMRND
 40
0.0
  9
$DIMDLE
 40
0.0
  9
$DIMEXE
 40
1.0
  9
$DIMTP
 40
0.0
  9
$DIMTM
 40
0.0
  9
$DIMTXT
 40
3.0
  9
$DIMCEN
 40
0.0
  9
$DIMTSZ
 40
0.0
  9
$DIMTOL
 70
     0
  9
$DIMLIM
 70
     0
  9
$DIMTIH
 70
     0
  9
$DIMTOH
 70
     0
  9
$DIMSE1
 70
     0
  9
$DIMSE2
 70
     0
  9
$DIMTAD
 70
     1
  9
$DIMZIN
 70
     8
  9
$DIMBLK
  1
Open30
  9
$DIMASO
 70
     1
  9
$DIMSHO
 70
     1
  9
$DIMPOST
  1

  9
$DIMAPOST
  1

  9
$DIMALT
 70
     0
  9
$DIMALTD
 70
     3
  9
$DIMALTF
 40
0.03937007874016
  9
$DIMLFAC
 40
1.0
  9
$DIMTOFL
 70
     1
  9
$DIMTVP
 40
0.0
  9
$DIMTIX
 70
     0
  9
$DIMSOXD
 70
     0
  9
$DIMSAH
 70
     0
  9
$DIMBLK1
  1

  9
$DIMBLK2
  1

  9
$DIMSTYLE
  2
DIM
  9
$DIMCLRD
 70
     4
  9
$DIMCLRE
 70
     4
  9
$DIMCLRT
 70
     7
  9
$DIMTFAC
 40
1.0
  9
$DIMGAP
 40
1.0
  9
$DIMJUST
 70
     0
  9
$DIMSD1
 70
     0
  9
$DIMSD2
 70
     0
  9
$DIMTOLJ
 70
     0
  9
$DIMTZIN
 70
     8
  9
$DIMALTZ
 70
     0
  9
$DIMALTTZ
 70
     0
  9
$DIMUPT
 70
     0
  9
$DIMDEC
 70
     2
  9
$DIMTDEC
 70
     2
  9
$DIMALTU
 70
     2
  9
$DIMALTTD
 70
     3
  9
$DIMTXSTY
  7
DIM
  9
$DIMAUNIT
 70
     0
  9
$DIMADEC
 70
     2
  9
$DIMALTRND
 40
0.0
  9
$DIMAZIN
 70
     2
  9
$DIMDSEP
 70
    46
  9
$DIMATFIT
 70
     3
  9
$DIMFRAC
 70
     0
  9
$DIMLDRBLK
  1
Open30
  9
$DIMLUNIT
 70
     2
  9
$DIMLWD
 70
    20
  9
$DIMLWE
 70
    20
  9
$DIMTMOVE
 70
     0
  9
$LUNITS
 70
     2
  9
$LUPREC
 70
     4
  9
$SKETCHINC
 40
1.0
  9
$FILLETRAD
 40
0.2
  9
$AUNITS
 70
     0
  9
$AUPREC
 70
     0
  9
$MENU
  1
.
  9
$ELEVATION
 40
0.0
  9
$PELEVATION
 40
0.0
  9
$THICKNESS
 40
0.0
  9
$LIMCHECK
 70
     0
  9
$CHAMFERA
 40
10.0
  9
$CHAMFERB
 40
10.0
  9
$CHAMFERC
 40
20.0
  9
$CHAMFERD
 40
0.0
  9
$SKPOLY
 70
     0
  9
$TDCREATE
 40
2452888.428849190
  9
$TDUCREATE
 40
2452888.053849190
  9
$TDUPDATE
 40
2458304.573263311
  9
$TDUUPDATE
 40
2458304.198263311
  9
$TDINDWG
 40
0.6430321065
  9
$TDUSRTIMER
 40
0.6430321065
  9
$USRTIMER
 70
     1
  9
$ANGBASE
 50
0.0
  9
$ANGDIR
 70
     0
  9
$PDMODE
 70
     0
  9
$PDSIZE
 40
0.0
  9
$PLINEWID
 40
0.0
  9
$SPLFRAME
 70
     0
  9
$SPLINETYPE
 70
     6
  9
$SPLINESEGS
 70
     8
  9
$HANDSEED
  5
2FFB7
  9
$SURFTAB1
 70
     6
  9
$SURFTAB2
 70
     6
  9
$SURFTYPE
 70
     6
  9
$SURFU
 70
     6
  9
$SURFV
 70
     6
  9
$UCSBASE
  2

  9
$UCSNAME
  2

  9
$UCSORG
 10
0.0
 20
0.0
 30
0.0
  9
$UCSXDIR
 10
1.0
 20
0.0
 30
0.0
  9
$UCSYDIR
 10
0.0
 20
1.0
 30
0.0
  9
$UCSORTHOREF
  2

  9
$UCSORTHOVIEW
 70
     0
  9
$UCSORGTOP
 10
0.0
 20
0.0
 30
0.0
  9
$UCSORGBOTTOM
 10
0.0
 20
0.0
 30
0.0
  9
$UCSORGLEFT
 10
0.0
 20
0.0
 30
0.0
  9
$UCSORGRIGHT
 10
0.0
 20
0.0
 30
0.0
  9
$UCSORGFRONT
 10
0.0
 20
0.0
 30
0.0
  9
$UCSORGBACK
 10
0.0
 20
0.0
 30
0.0
  9
$PUCSBASE
  2

  9
$PUCSNAME
  2

  9
$PUCSORG
 10
0.0
 20
0.0
 30
0.0
  9
$PUCSXDIR
 10
1.0
 20
0.0
 30
0.0
  9
$PUCSYDIR
 10
0.0
 20
1.0
 30
0.0
  9
$PUCSORTHOREF
  2

  9
$PUCSORTHOVIEW
 70
     0
  9
$PUCSORGTOP
 10
0.0
 20
0.0
 30
0.0
  9
$PUCSORGBOTTOM
 10
0.0
 20
0.0
 30
0.0
  9
$PUCSORGLEFT
 10
0.0
 20
0.0
 30
0.0
  9
$PUCSORGRIGHT
 10
0.0
 20
0.0
 30
0.0
  9
$PUCSORGFRONT
 10
0.0
 20
0.0
 30
0.0
  9
$PUCSORGBACK
 10
0.0
 20
0.0
 30
0.0
  9
$USERI1
 70
     0
  9
$USERI2
 70
     0
  9
$USERI3
 70
     0
  9
$USERI4
 70
     0
  9
$USERI5
 70
     0
  9
$USERR1
 40
0.0
  9
$USERR2
 40
0.0
  9
$USERR3
 40
0.0
  9
$USERR4
 40
0.0
  9
$USERR5
 40
0.0
  9
$WORLDVIEW
 70
     1
  9
$SHADEDGE
 70
     3
  9
$SHADEDIF
 70
    70
  9
$TILEMODE
 70
     1
  9
$MAXACTVP
 70
    64
  9
$PINSBASE
 10
0.0
 20
0.0
 30
0.0
  9
$PLIMCHECK
 70
     0
  9
$PEXTMIN
 10
1.000000000000000E+20
 20
1.000000000000000E+20
 30
1.000000000000000E+20
  9
$PEXTMAX
 10
-1.000000000000000E+20
 20
-1.000000000000000E+20
 30
-1.000000000000000E+20
  9
$PLIMMIN
 10
0.0
 20
0.0
  9
$PLIMMAX
 10
420.0
 20
297.0
  9
$UNITMODE
 70
     0
  9
$VISRETAIN
 70
     1
  9
$PLINEGEN
 70
     0
  9
$PSLTSCALE
 70
     0
  9
$TREEDEPTH
 70
  3020
  9
$CMLSTYLE
  2
Standard
  9
$CMLJUST
 70
     0
  9
$CMLSCALE
 40
20.0
  9
$PROXYGRAPHICS
 70
     1
  9
$MEASUREMENT
 70
     1
  9
$CELWEIGHT
370
    -1
  9
$ENDCAPS
280
     0
  9
$JOINSTYLE
280
     0
  9
$LWDISPLAY
290
     0
  9
$INSUNITS
 70
     4
  9
$HYPERLINKBASE
  1

  9
$STYLESHEET
  1
印刷用.ctb
  9
$XEDIT
290
     1
  9
$CEPSNTYPE
380
     0
  9
$PSTYLEMODE
290
     1
  9
$FINGERPRINTGUID
  2
{9AEAB59C-DF80-11D7-8237-004026CDA8AB}
  9
$VERSIONGUID
  2
{72E26926-F9E2-4E27-AB2D-784EDCEE586E}
  9
$EXTNAMES
290
     1
  9
$PSVPSCALE
 40
0.0
  9
$OLESTARTUP
290
     0
  0
ENDSEC
  0
SECTION
  2
CLASSES
  0
CLASS
  1
ACDBDICTIONARYWDFLT
  2
AcDbDictionaryWithDefault
  3
ObjectDBX Classes
 90
        0
280
     0
281
     0
  0
CLASS
  1
ACDBPLACEHOLDER
  2
AcDbPlaceHolder
  3
ObjectDBX Classes
 90
        0
280
     0
281
     0
  0
CLASS
  1
LAYOUT
  2
AcDbLayout
  3
ObjectDBX Classes
 90
        0
280
     0
281
     0
  0
CLASS
  1
MATERIAL
  2
AcDbMaterial
  3
ObjectDBX Classes
 90
     1153
280
     0
281
     0
  0
CLASS
  1
VISUALSTYLE
  2
AcDbVisualStyle
  3
ObjectDBX Classes
 90
     4095
280
     0
281
     0
  0
CLASS
  1
TABLESTYLE
  2
AcDbTableStyle
  3
ObjectDBX Classes
 90
     4095
280
     0
281
     0
  0
CLASS
  1
SCALE
  2
AcDbScale
  3
ObjectDBX Classes
 90
     1153
280
     0
281
     0
  0
CLASS
  1
MLEADERSTYLE
  2
AcDbMLeaderStyle
  3
ACDB_MLEADERSTYLE_CLASS
 90
     4095
280
     0
281
     0
  0
CLASS
  1
SORTENTSTABLE
  2
AcDbSortentsTable
  3
ObjectDBX Classes
 90
        0
280
     0
281
     0
  0
CLASS
  1
CELLSTYLEMAP
  2
AcDbCellStyleMap
  3
ObjectDBX Classes
 90
     1152
280
     0
281
     0
  0
CLASS
  1
DICTIONARYVAR
  2
AcDbDictionaryVar
  3
ObjectDBX Classes
 90
        0
280
     0
281
     0
  0
CLASS
  1
WIPEOUT
  2
AcDbWipeout
  3
"WipeOut|Product Desc: Object Enabler for WipeOut entity                        |Company: Autodesk, Inc.                        |WEB Address: www.autodesk.com"
 90
    34943
280
     0
281
     1
  0
CLASS
  1
WIPEOUTVARIABLES
  2
AcDbWipeoutVariables
  3
"WipeOut|Product Desc:     WipeOut Dbx Application|Company:          Autodesk, Inc.|WEB Address:      www.autodesk.com"
 90
        0
280
     0
281
     0
  0
CLASS
  1
ACDB_TEXTOBJECTCONTEXTDATA_CLASS
  2
AcDbTextObjectContextData
  3
ObjectDBX Classes
 90
    33921
280
     0
281
     0
  0
CLASS
  1
EXACXREFPANELOBJECT
  2
ExAcXREFPanelObject
  3
EXAC_ESW
 90
    33793
280
     0
281
     0
  0
CLASS
  1
NPOCOLLECTION
  2
AcDbImpNonPersistentObjectsCollection
  3
ObjectDBX Classes
 90
    33921
280
     0
281
     0
  0
ENDSEC
  0
SECTION
  2
TABLES
  0
TABLE
  2
VPORT
  5
8
102
{ACAD_XDICTIONARY
360
A6B1
102
}
330
0
100
AcDbSymbolTable
 70
     1
  0
VPORT
  5
2BF3A
330
8
100
AcDbSymbolTableRecord
100
AcDbViewportTableRecord
  2
*Active
 70
     0
 10
0.0
 20
0.0
 11
1.0
 21
1.0
 12
556.6932203171723
 22
433.5391387184355
 13
0.0
 23
0.0
 14
10.0
 24
10.0
 15
10.0
 25
10.0
 16
0.0
 26
0.0
 36
1.0
 17
0.0
 27
0.0
 37
0.0
 40
873.6438149507824
 41
2.317440401505646
 42
50.0
 43
0.0
 44
0.0
 50
0.0
 51
0.0
 71
     0
 72
   100
 73
     1
 74
     3
 75
     0
 76
     0
 77
     0
 78
     0
281
     0
 65
     1
110
0.0
120
0.0
130
0.0
111
1.0
121
0.0
131
0.0
112
0.0
122
1.0
132
0.0
 79
     0
146
0.0
  0
ENDTAB
  0
TABLE
  2
LTYPE
  5
5
330
0
100
AcDbSymbolTable
 70
     5
  0
LTYPE
  5
14
330
5
100
AcDbSymbolTableRecord
100
AcDbLinetypeTableRecord
  2
ByBlock
 70
     0
  3

 72
    65
 73
     0
 40
0.0
  0
LTYPE
  5
15
330
5
100
AcDbSymbolTableRecord
100
AcDbLinetypeTableRecord
  2
ByLayer
 70
     0
  3

 72
    65
 73
     0
 40
0.0
  0
LTYPE
  5
16
330
5
100
AcDbSymbolTableRecord
100
AcDbLinetypeTableRecord
  2
Continuous
 70
     0
  3
Solid line
 72
    65
 73
     0
 40
0.0
  0
LTYPE
  5
19D
330
5
100
AcDbSymbolTableRecord
100
AcDbLinetypeTableRecord
  2
ACAD_ISO04W100
 70
     0
  3
ISO long-dash dot ____ . ____ . ____ . ____ . _
 72
    65
 73
     4
 40
30.0
 49
24.0
 74
     0
 49
-3.0
 74
     0
 49
0.0
 74
     0
 49
-3.0
 74
     0
  0
LTYPE
  5
19E
330
5
100
AcDbSymbolTableRecord
100
AcDbLinetypeTableRecord
  2
ACAD_ISO02W100
 70
     0
  3
ISO dash __ __ __ __ __ __ __ __ __ __ __ __ __
 72
    65
 73
     2
 40
15.0
 49
12.0
 74
     0
 49
-3.0
 74
     0
  0
LTYPE
  5
2AAAA
330
5
100
AcDbSymbolTableRecord
100
AcDbLinetypeTableRecord
  2
HIDDEN
 70
     0
  3
_ _ _ _ _ _ _ _ _ _ _ _ _ _ _ _ _ _ _ _ _ _ _
 72
    65
 73
     2
 40
0.375
 49
0.25
 74
     0
 49
-0.125
 74
     0
  0
LTYPE
  5
2AAAB
330
5
100
AcDbSymbolTableRecord
100
AcDbLinetypeTableRecord
  2
HIDDEN2
 70
     0
  3
_ _ _ _ _ _ _ _ _ _ _ _ _ _ _ _ _ _ _ _ _ _ _ _
 72
    65
 73
     2
 40
0.1875
 49
0.125
 74
     0
 49
-0.0625
 74
     0
  0
ENDTAB
  0
TABLE
  2
LAYER
  5
2
102
{ACAD_XDICTIONARY
360
6C5
102
}
330
0
100
AcDbSymbolTable
 70
    12
  0
LAYER
  5
10
102
{ACAD_XDICTIONARY
360
9F26
102
}
330
2
100
AcDbSymbolTableRecord
100
AcDbLayerTableRecord
  2
0
 70
     0
 62
     7
  6
Continuous
370
    25
390
F
  0
LAYER
  5
32
102
{ACAD_XDICTIONARY
360
9F2A
102
}
330
2
100
AcDbSymbolTableRecord
100
AcDbLayerTableRecord
  2
002
 70
     0
 62
     6
  6
Continuous
370
    35
390
F
  0
LAYER
  5
33
102
{ACAD_XDICTIONARY
360
9F2C
102
}
330
2
100
AcDbSymbolTableRecord
100
AcDbLayerTableRecord
  2
003
 70
     0
 62
     2
  6
Continuous
370
    25
390
F
  0
LAYER
  5
1A4
102
{ACAD_XDICTIONARY
360
9F32
102
}
330
2
100
AcDbSymbolTableRecord
100
AcDbLayerTableRecord
  2
006
 70
     0
 62
     4
  6
ACAD_ISO04W100
370
    20
390
F
  0
LAYER
  5
1A5
102
{ACAD_XDICTIONARY
360
9F34
102
}
330
2
100
AcDbSymbolTableRecord
100
AcDbLayerTableRecord
  2
007
 70
     0
 62
     4
  6
ACAD_ISO02W100
370
    20
390
F
  0
LAYER
  5
1A8
330
2
100
AcDbSymbolTableRecord
100
AcDbLayerTableRecord
  2
Defpoints
 70
     0
 62
   151
  6
Continuous
290
     0
370
    25
390
F
  0
LAYER
  5
2B1
102
{ACAD_XDICTIONARY
360
9F3A
102
}
330
2
100
AcDbSymbolTableRecord
100
AcDbLayerTableRecord
  2
010
 70
     0
 62
     4
  6
Continuous
370
    20
390
F
  0
LAYER
  5
11A3A
330
2
100
AcDbSymbolTableRecord
100
AcDbLayerTableRecord
  2
0000躯体
 70
     0
 62
   253
  6
Continuous
370
    -3
390
F
1001
AcAecLayerStandard
1000

1000

  0
LAYER
  5
11A59
330
2
100
AcDbSymbolTableRecord
100
AcDbLayerTableRecord
  2
0000寸法
 70
     0
 62
   255
  6
Continuous
370
    20
390
F
1001
AcAecLayerStandard
1000

1000

  0
LAYER
  5
2AAAC
330
2
100
AcDbSymbolTableRecord
100
AcDbLayerTableRecord
  2
HOSOSEN
 70
     0
 62
     8
  6
Continuous
370
     5
390
F
  0
LAYER
  5
2AAAD
330
2
100
AcDbSymbolTableRecord
100
AcDbLayerTableRecord
  2
HASEN
 70
     0
 62
     4
  6
HIDDEN2
370
    15
390
F
  0
LAYER
  5
2AAAF
330
2
100
AcDbSymbolTableRecord
100
AcDbLayerTableRecord
  2
FUTOSEN
 70
     0
 62
     3
  6
Continuous
370
    20
390
F
  0
ENDTAB
  0
TABLE
  2
STYLE
  5
3
330
0
100
AcDbSymbolTable
 70
     6
  0
STYLE
  5
11
330
3
100
AcDbSymbolTableRecord
100
AcDbTextStyleTableRecord
  2
Standard
 70
     0
 40
0.0
 41
1.0
 50
0.0
 71
     0
 42
2.5
  3
txt
  4

  0
STYLE
  5
34
330
3
100
AcDbSymbolTableRecord
100
AcDbTextStyleTableRecord
  2
DIM
 70
     0
 40
0.0
 41
0.75
 50
0.0
 71
     0
 42
60.0
  3
romans.shx
  4
extfont.shx
  0
STYLE
  5
35
330
3
100
AcDbSymbolTableRecord
100
AcDbTextStyleTableRecord
  2
AT_VECTOR
 70
     0
 40
0.0
 41
1.0
 50
0.0
 71
     0
 42
3.0
  3
romans.shx
  4
extfont.shx
  0
STYLE
  5
18343
330
3
100
AcDbSymbolTableRecord
100
AcDbTextStyleTableRecord
  2
ｺﾞｼｯｸ（横）
 70
     0
 40
0.0
 41
1.0
 50
0.0
 71
     0
 42
3.0
  3

  4

1001
ACAD
1000
MS PGothic
1071
    32818
  0
STYLE
  5
1834F
330
3
100
AcDbSymbolTableRecord
100
AcDbTextStyleTableRecord
  2
ｺﾞｼｯｸ（縦）
 70
     0
 40
0.0
 41
1.0
 50
0.0
 71
     0
 42
3.0
  3

  4

1001
ACAD
1000
@MS PGothic
1071
    32818
  0
STYLE
  5
2AAB0
330
3
100
AcDbSymbolTableRecord
100
AcDbTextStyleTableRecord
  2
LIFE
 70
     0
 40
0.0
 41
0.8
 50
0.0
 71
     0
 42
8.0
  3
romans.shx
  4
extfont.shx
  0
ENDTAB
  0
TABLE
  2
VIEW
  5
6
330
0
100
AcDbSymbolTable
 70
     0
  0
ENDTAB
  0
TABLE
  2
UCS
  5
7
330
0
100
AcDbSymbolTable
 70
     0
  0
ENDTAB
  0
TABLE
  2
APPID
  5
9
330
0
100
AcDbSymbolTable
 70
    28
  0
APPID
  5
12
330
9
100
AcDbSymbolTableRecord
100
AcDbRegAppTableRecord
  2
ACAD
 70
     0
  0
APPID
  5
9CB2
330
9
100
AcDbSymbolTableRecord
100
AcDbRegAppTableRecord
  2
ACAD_MLEADERVER
 70
     0
  0
APPID
  5
9D67
330
9
100
AcDbSymbolTableRecord
100
AcDbRegAppTableRecord
  2
ACAD_PSEXT
 70
     0
  0
APPID
  5
9D68
330
9
100
AcDbSymbolTableRecord
100
AcDbRegAppTableRecord
  2
ACAD_DSTYLE_DIMJAG
 70
     0
  0
APPID
  5
9D69
330
9
100
AcDbSymbolTableRecord
100
AcDbRegAppTableRecord
  2
ACAD_DSTYLE_DIMTALN
 70
     0
  0
APPID
  5
9F0E
330
9
100
AcDbSymbolTableRecord
100
AcDbRegAppTableRecord
  2
ACAD_EXEMPT_FROM_CAD_STANDARDS
 70
     0
  0
APPID
  5
A7A1
330
9
100
AcDbSymbolTableRecord
100
AcDbRegAppTableRecord
  2
AcAecLayerStandard
 70
     0
  0
APPID
  5
A7A2
330
9
100
AcDbSymbolTableRecord
100
AcDbRegAppTableRecord
  2
ACAD_DSTYLE_DIMJOGGED_JOGANGLE_SYMBOL
 70
     0
  0
APPID
  5
CA00
330
9
100
AcDbSymbolTableRecord
100
AcDbRegAppTableRecord
  2
ACAD_DSTYLE_DIMRADIAL_EXTENSION
 70
     0
  0
APPID
  5
CA01
330
9
100
AcDbSymbolTableRecord
100
AcDbRegAppTableRecord
  2
ACAD_DSTYLE_DIMTEXT_FILL
 70
     0
  0
APPID
  5
CF93
330
9
100
AcDbSymbolTableRecord
100
AcDbRegAppTableRecord
  2
GENIUS_GENODEF_13
 70
     0
  0
APPID
  5
CF94
330
9
100
AcDbSymbolTableRecord
100
AcDbRegAppTableRecord
  2
GENIUS_GENOBJ-N-FIL_13
 70
     0
  0
APPID
  5
CF95
330
9
100
AcDbSymbolTableRecord
100
AcDbRegAppTableRecord
  2
GENIUS_GENOBJ-N-HTC_13
 70
     0
  0
APPID
  5
CF96
330
9
100
AcDbSymbolTableRecord
100
AcDbRegAppTableRecord
  2
GENIUS_GENHATCH_13
 70
     0
  0
APPID
  5
CF97
330
9
100
AcDbSymbolTableRecord
100
AcDbRegAppTableRecord
  2
GENIUS_GENREC_14
 70
     0
  0
APPID
  5
CF98
330
9
100
AcDbSymbolTableRecord
100
AcDbRegAppTableRecord
  2
GENIUS_GENOBJ-N-REC_13
 70
     0
  0
APPID
  5
CF99
330
9
100
AcDbSymbolTableRecord
100
AcDbRegAppTableRecord
  2
YALIB
 70
     0
  0
APPID
  5
CF9A
330
9
100
AcDbSymbolTableRecord
100
AcDbRegAppTableRecord
  2
MYHANDLE
 70
     0
  0
APPID
  5
CF9B
330
9
100
AcDbSymbolTableRecord
100
AcDbRegAppTableRecord
  2
GROUP
 70
     0
  0
APPID
  5
CF9C
330
9
100
AcDbSymbolTableRecord
100
AcDbRegAppTableRecord
  2
YOBJCUT10114081642
 70
     0
  0
APPID
  5
CF9D
330
9
100
AcDbSymbolTableRecord
100
AcDbRegAppTableRecord
  2
YOBJCUT10114103941
 70
     0
  0
APPID
  5
CF9E
330
9
100
AcDbSymbolTableRecord
100
AcDbRegAppTableRecord
  2
YOBJCUT10114103945
 70
     0
  0
APPID
  5
F5BD
330
9
100
AcDbSymbolTableRecord
100
AcDbRegAppTableRecord
  2
YOBJCUT10209125520
 70
     0
  0
APPID
  5
F5BE
330
9
100
AcDbSymbolTableRecord
100
AcDbRegAppTableRecord
  2
YOBJCUT10209131805
 70
     0
  0
APPID
  5
F5BF
330
9
100
AcDbSymbolTableRecord
100
AcDbRegAppTableRecord
  2
AEC_XDATA_BOUND_SPACE
 70
     0
  0
APPID
  5
F5C0
330
9
100
AcDbSymbolTableRecord
100
AcDbRegAppTableRecord
  2
APCAD3_KATACH
 70
     0
  0
APPID
  5
17D29
330
9
100
AcDbSymbolTableRecord
100
AcDbRegAppTableRecord
  2
AcadAnnotative
 70
     0
  0
APPID
  5
18344
330
9
100
AcDbSymbolTableRecord
100
AcDbRegAppTableRecord
  2
AcadAnnoPO
 70
     0
  0
ENDTAB
  0
TABLE
  2
DIMSTYLE
  5
A
330
0
100
AcDbSymbolTable
 70
     2
100
AcDbDimStyleTable
 71
     2
340
38
340
1A9
  0
DIMSTYLE
105
38
102
{ACAD_REACTORS
330
272B2
330
2A8E3
330
2A925
330
2F5AF
330
2F5B0
330
2F5B1
330
2F602
330
2F607
330
2F657
330
2F658
330
2F659
330
272C8
330
2FD73
102
}
330
A
100
AcDbSymbolTableRecord
100
AcDbDimStyleTableRecord
  2
DIM
 70
     0
 41
1.5
 42
1.5
 43
7.0
 44
1.0
 73
     0
 74
     0
 77
     1
 78
     8
140
3.0
141
0.0
143
0.03937007874016
147
1.0
171
     3
172
     1
176
     4
177
     4
178
     7
271
     2
272
     2
274
     3
283
     0
284
     8
340
34
341
2B
342
2B
371
    20
372
    20
  0
DIMSTYLE
105
1A9
330
A
100
AcDbSymbolTableRecord
100
AcDbDimStyleTableRecord
  2
Standard
 70
     0
340
11
  0
ENDTAB
  0
TABLE
  2
BLOCK_RECORD
  5
1
330
0
100
AcDbSymbolTable
 70
    15
  0
BLOCK_RECORD
  5
1F
102
{ACAD_XDICTIONARY
360
9EA6
102
}
330
1
100
AcDbSymbolTableRecord
100
AcDbBlockTableRecord
  2
*Model_Space
340
22
  0
BLOCK_RECORD
  5
1B
330
1
100
AcDbSymbolTableRecord
100
AcDbBlockTableRecord
  2
*Paper_Space
340
1E
  0
BLOCK_RECORD
  5
23
330
1
100
AcDbSymbolTableRecord
100
AcDbBlockTableRecord
  2
*Paper_Space0
340
26
  0
BLOCK_RECORD
  5
2B
330
1
100
AcDbSymbolTableRecord
100
AcDbBlockTableRecord
  2
_Open30
340
0
102
{BLKREFS
331
28EF6
331
28EF7
331
28EFF
331
28F00
331
2A902
331
2A903
331
2FC7A
331
2FC7B
331
2FC83
331
2FC84
331
2FC8C
331
2FC8D
331
2FCEF
331
2FCF0
331
2FCF8
331
2FCF9
331
2FD01
331
2FD02
331
2FD0C
331
2FD0D
331
2FD17
331
2FD18
331
2FDA7
331
2FDA8
331
2FDB2
331
2FDB3
102
}
  0
BLOCK_RECORD
  5
272B3
330
1
100
AcDbSymbolTableRecord
100
AcDbBlockTableRecord
  2
*D2
340
0
  0
BLOCK_RECORD
  5
272C9
330
1
100
AcDbSymbolTableRecord
100
AcDbBlockTableRecord
  2
*D3
340
0
  0
BLOCK_RECORD
  5
2A8E4
330
1
100
AcDbSymbolTableRecord
100
AcDbBlockTableRecord
  2
*D4
340
0
  0
BLOCK_RECORD
  5
2A926
330
1
100
AcDbSymbolTableRecord
100
AcDbBlockTableRecord
  2
*D5
340
0
  0
BLOCK_RECORD
  5
2F6B4
330
1
100
AcDbSymbolTableRecord
100
AcDbBlockTableRecord
  2
*D6
340
0
  0
BLOCK_RECORD
  5
2F6C0
330
1
100
AcDbSymbolTableRecord
100
AcDbBlockTableRecord
  2
*D7
340
0
  0
BLOCK_RECORD
  5
2F6CC
330
1
100
AcDbSymbolTableRecord
100
AcDbBlockTableRecord
  2
*D8
340
0
  0
BLOCK_RECORD
  5
2F6D8
330
1
100
AcDbSymbolTableRecord
100
AcDbBlockTableRecord
  2
*D9
340
0
  0
BLOCK_RECORD
  5
2F6E4
330
1
100
AcDbSymbolTableRecord
100
AcDbBlockTableRecord
  2
*D10
340
0
  0
BLOCK_RECORD
  5
2F6F0
330
1
100
AcDbSymbolTableRecord
100
AcDbBlockTableRecord
  2
*D11
340
0
  0
BLOCK_RECORD
  5
2F6FC
330
1
100
AcDbSymbolTableRecord
100
AcDbBlockTableRecord
  2
*D12
340
0
  0
BLOCK_RECORD
  5
2F70A
330
1
100
AcDbSymbolTableRecord
100
AcDbBlockTableRecord
  2
*D13
340
0
  0
BLOCK_RECORD
  5
2FD74
330
1
100
AcDbSymbolTableRecord
100
AcDbBlockTableRecord
  2
*D14
340
0
  0
ENDTAB
  0
ENDSEC
  0
SECTION
  2
BLOCKS
  0
BLOCK
  5
20
330
1F
100
AcDbEntity
  8
0
100
AcDbBlockBegin
  2
*Model_Space
 70
     0
 10
0.0
 20
0.0
 30
0.0
  3
*Model_Space
  1

  0
ENDBLK
  5
21
330
1F
100
AcDbEntity
  8
0
100
AcDbBlockEnd
  0
BLOCK
  5
1C
330
1B
100
AcDbEntity
 67
     1
  8
0
100
AcDbBlockBegin
  2
*Paper_Space
 70
     0
 10
0.0
 20
0.0
 30
0.0
  3
*Paper_Space
  1

  0
ENDBLK
  5
1D
330
1B
100
AcDbEntity
 67
     1
  8
0
100
AcDbBlockEnd
  0
BLOCK
  5
24
330
23
100
AcDbEntity
 67
     1
  8
0
100
AcDbBlockBegin
  2
*Paper_Space0
 70
     0
 10
0.0
 20
0.0
 30
0.0
  3
*Paper_Space0
  1

  0
ENDBLK
  5
25
330
23
100
AcDbEntity
 67
     1
  8
0
100
AcDbBlockEnd
  0
BLOCK
  5
2F
330
2B
100
AcDbEntity
  8
0
100
AcDbBlockBegin
  2
_Open30
 70
     0
 10
0.0
 20
0.0
 30
0.0
  3
_Open30
  1

  0
LINE
  5
2C
330
2B
100
AcDbEntity
  8
0
  6
ByBlock
 62
     0
370
    -2
100
AcDbLine
 10
-1.0
 20
0.26794919
 30
0.0
 11
0.0
 21
0.0
 31
0.0
  0
LINE
  5
2D
330
2B
100
AcDbEntity
  8
0
  6
ByBlock
 62
     0
370
    -2
100
AcDbLine
 10
0.0
 20
0.0
 30
0.0
 11
-1.0
 21
-0.26794919
 31
0.0
  0
LINE
  5
2E
330
2B
100
AcDbEntity
  8
0
  6
ByBlock
 62
     0
370
    -2
100
AcDbLine
 10
0.0
 20
0.0
 30
0.0
 11
-1.0
 21
0.0
 31
0.0
  0
ENDBLK
  5
30
330
2B
100
AcDbEntity
  8
0
100
AcDbBlockEnd
  0
BLOCK
  5
272B4
330
272B3
100
AcDbEntity
  8
0
 48
0.2
100
AcDbBlockBegin
  2
*D2
 70
     1
 10
0.0
 20
0.0
 30
0.0
  3
*D2
  1

  0
LINE
  5
28EF3
330
272B3
100
AcDbEntity
  8
003
 62
     4
 48
0.2
370
    20
100
AcDbLine
 10
973.0908128471735
 20
485.7439010538277
 30
0.0
 11
973.0908128471735
 21
449.0823118498255
 31
0.0
  0
LINE
  5
28EF4
330
272B3
100
AcDbEntity
  8
003
 62
     4
 48
0.2
370
    20
100
AcDbLine
 10
793.0908128471736
 20
485.7439010538277
 30
0.0
 11
793.0908128471736
 21
449.0823118498255
 31
0.0
  0
LINE
  5
28EF5
330
272B3
100
AcDbEntity
  8
003
 62
     4
 48
0.2
370
    20
100
AcDbLine
 10
969.9408128471736
 20
451.1823118498255
 30
0.0
 11
796.2408128471736
 21
451.1823118498255
 31
0.0
  0
INSERT
  5
28EF6
330
272B3
100
AcDbEntity
  8
003
 62
     4
 48
0.2
370
    20
100
AcDbBlockReference
  2
_Open30
 10
973.0908128471735
 20
451.1823118498255
 30
0.0
 41
3.15
 42
3.15
 43
3.15
  0
INSERT
  5
28EF7
330
272B3
100
AcDbEntity
  8
003
 62
     4
 48
0.2
370
    20
100
AcDbBlockReference
  2
_Open30
 10
793.0908128471736
 20
451.1823118498255
 30
0.0
 41
3.15
 42
3.15
 43
3.15
 50
180.0
  0
MTEXT
  5
28EF8
330
272B3
100
AcDbEntity
  8
003
 62
     7
 48
0.2
100
AcDbMText
 10
883.0908128471735
 20
456.4323118498255
 30
0.0
 40
6.3
 41
0.0
 71
     5
 72
     1
  1
開口W
  7
DIM
 73
     1
 44
1.0
1001
ACAD
1000
MTEXTBEGIN
1070
    73
1070
     1
1070
    44
1040
1.0
1070
    74
1070
     0
1000
MTEXTEND
1000
ACAD_MTEXT_BBRT
1070
    91
1071
        3
1070
    46
1040
1.1
1070
    64
1071
-1027028792
1070
    65
1000

1070
    66
1000

1070
   442
1071
 16648621
1000
ACAD_MTEXT_BERT
  0
POINT
  5
28EF9
330
272B3
100
AcDbEntity
  8
Defpoints
 62
     0
 48
0.2
100
AcDbPoint
 10
973.0908128471735
 20
488.8939010538276
 30
0.0
  0
POINT
  5
28EFA
330
272B3
100
AcDbEntity
  8
Defpoints
 62
     0
 48
0.2
100
AcDbPoint
 10
793.0908128471736
 20
488.8939010538276
 30
0.0
  0
POINT
  5
28EFB
330
272B3
100
AcDbEntity
  8
Defpoints
 62
     0
 48
0.2
100
AcDbPoint
 10
793.0908128471736
 20
451.1823118498255
 30
0.0
  0
ENDBLK
  5
272B5
330
272B3
100
AcDbEntity
  8
0
 48
0.2
100
AcDbBlockEnd
  0
BLOCK
  5
272CA
330
272C9
100
AcDbEntity
  8
0
 48
0.2
100
AcDbBlockBegin
  2
*D3
 70
     1
 10
0.0
 20
0.0
 30
0.0
  3
*D3
  1

  0
LINE
  5
28EFC
330
272C9
100
AcDbEntity
  8
003
 62
     4
 48
0.2
370
    20
100
AcDbLine
 10
877.4408128471735
 20
508.8939010538277
 30
0.0
 11
864.682821630978
 21
508.8939010538277
 31
0.0
  0
LINE
  5
28EFD
330
272C9
100
AcDbEntity
  8
003
 62
     4
 48
0.2
370
    20
100
AcDbLine
 10
877.4408128471735
 20
528.8939010538277
 30
0.0
 11
864.682821630978
 21
528.8939010538277
 31
0.0
  0
LINE
  5
28EFE
330
272C9
100
AcDbEntity
  8
003
 62
     4
 48
0.2
370
    20
100
AcDbLine
 10
866.782821630978
 20
512.0439010538277
 30
0.0
 11
866.782821630978
 21
525.7439010538278
 31
0.0
  0
INSERT
  5
28EFF
330
272C9
100
AcDbEntity
  8
003
 62
     4
 48
0.2
370
    20
100
AcDbBlockReference
  2
_Open30
 10
866.782821630978
 20
508.8939010538277
 30
0.0
 41
3.15
 42
3.15
 43
3.15
 50
270.0
  0
INSERT
  5
28F00
330
272C9
100
AcDbEntity
  8
003
 62
     4
 48
0.2
370
    20
100
AcDbBlockReference
  2
_Open30
 10
866.782821630978
 20
528.8939010538277
 30
0.0
 41
3.15
 42
3.15
 43
3.15
 50
90.0
  0
MTEXT
  5
28F01
330
272C9
100
AcDbEntity
  8
003
 62
     7
 48
0.2
100
AcDbMText
 10
861.5328216309778
 20
518.8939010538279
 30
0.0
 40
6.3
 41
0.0
 71
     5
 72
     1
  1
20
  7
DIM
 11
0.0000000000000001
 21
1.0
 31
0.0
 73
     1
 44
1.0
1001
ACAD
1000
MTEXTBEGIN
1070
    73
1070
     1
1070
    44
1040
1.0
1070
    74
1070
     0
1000
MTEXTEND
1000
ACAD_MTEXT_BBRT
1070
    91
1071
        3
1070
    46
1040
1.1
1070
    64
1071
-1027028792
1070
    65
1000

1070
    66
1000

1070
   442
1071
 16648581
1000
ACAD_MTEXT_BERT
  0
POINT
  5
28F02
330
272C9
100
AcDbEntity
  8
Defpoints
 62
     0
 48
0.2
100
AcDbPoint
 10
880.5908128471735
 20
508.8939010538277
 30
0.0
  0
POINT
  5
28F03
330
272C9
100
AcDbEntity
  8
Defpoints
 62
     0
 48
0.2
100
AcDbPoint
 10
880.5908128471735
 20
528.8939010538277
 30
0.0
  0
POINT
  5
28F04
330
272C9
100
AcDbEntity
  8
Defpoints
 62
     0
 48
0.2
100
AcDbPoint
 10
866.782821630978
 20
528.8939010538277
 30
0.0
  0
ENDBLK
  5
272CB
330
272C9
100
AcDbEntity
  8
0
 48
0.2
100
AcDbBlockEnd
  0
BLOCK
  5
2A8F0
330
2A8E4
100
AcDbEntity
  8
0
 48
0.2
100
AcDbBlockBegin
  2
*D4
 70
     1
 10
0.0
 20
0.0
 30
0.0
  3
*D4
  1

  0
LINE
  5
2A8FD
330
2A8E4
100
AcDbEntity
  8
003
 62
     4
 48
0.2
370
    20
100
AcDbLine
 10
794.0908128471733
 20
505.743901053828
 30
0.0
 11
794.0908128471733
 21
463.6691042476407
 31
0.0
  0
LINE
  5
2A8FE
330
2A8E4
100
AcDbEntity
  8
003
 62
     4
 48
0.2
370
    20
100
AcDbLine
 10
793.0908128471736
 20
505.743901053828
 30
0.0
 11
793.0908128471736
 21
463.6691042476407
 31
0.0
  0
LINE
  5
2A8FF
330
2A8E4
100
AcDbEntity
  8
003
 62
     4
 48
0.2
370
    20
100
AcDbLine
 10
797.2408128471734
 20
465.7691042476407
 30
0.0
 11
800.3908128471733
 21
465.7691042476407
 31
0.0
  0
LINE
  5
2A900
330
2A8E4
100
AcDbEntity
  8
003
 62
     4
 48
0.2
370
    20
100
AcDbLine
 10
789.9408128471736
 20
465.7691042476407
 30
0.0
 11
717.0258128471736
 21
465.7691042476407
 31
0.0
  0
LINE
  5
2A901
330
2A8E4
100
AcDbEntity
  8
003
 62
     4
 48
0.2
370
    20
100
AcDbLine
 10
794.0908128471733
 20
465.7691042476407
 30
0.0
 11
793.0908128471736
 21
465.7691042476407
 31
0.0
  0
INSERT
  5
2A902
330
2A8E4
100
AcDbEntity
  8
003
 62
     4
 48
0.2
370
    20
100
AcDbBlockReference
  2
_Open30
 10
794.0908128471733
 20
465.7691042476407
 30
0.0
 41
3.15
 42
3.15
 43
3.15
 50
180.0
  0
INSERT
  5
2A903
330
2A8E4
100
AcDbEntity
  8
003
 62
     4
 48
0.2
370
    20
100
AcDbBlockReference
  2
_Open30
 10
793.0908128471736
 20
465.7691042476407
 30
0.0
 41
3.15
 42
3.15
 43
3.15
  0
MTEXT
  5
2A904
330
2A8E4
100
AcDbEntity
  8
003
 62
     7
 48
0.2
100
AcDbMText
 10
751.9083128471736
 20
471.0191042476407
 30
0.0
 40
6.3
 41
0.0
 71
     5
 72
     1
  1
1～2mm隙間が空きます
  7
DIM
 73
     1
 44
1.0
1001
ACAD
1000
MTEXTBEGIN
1070
    73
1070
     1
1070
    44
1040
1.0
1070
    74
1070
     0
1000
MTEXTEND
  0
POINT
  5
2A905
330
2A8E4
100
AcDbEntity
  8
Defpoints
 62
     0
 48
0.2
100
AcDbPoint
 10
794.0908128471733
 20
508.893901053828
 30
0.0
  0
POINT
  5
2A906
330
2A8E4
100
AcDbEntity
  8
Defpoints
 62
     0
 48
0.2
100
AcDbPoint
 10
793.0908128471736
 20
508.893901053828
 30
0.0
  0
POINT
  5
2A907
330
2A8E4
100
AcDbEntity
  8
Defpoints
 62
     0
 48
0.2
100
AcDbPoint
 10
793.0908128471736
 20
465.7691042476407
 30
0.0
  0
ENDBLK
  5
2A8F1
330
2A8E4
100
AcDbEntity
  8
0
 48
0.2
100
AcDbBlockEnd
  0
BLOCK
  5
2A932
330
2A926
100
AcDbEntity
  8
0
 48
0.2
100
AcDbBlockBegin
  2
*D5
 70
     1
 10
0.0
 20
0.0
 30
0.0
  3
*D5
  1

  0
LINE
  5
2FDAD
330
2A926
100
AcDbEntity
  8
003
 62
     4
 48
0.2
370
    20
100
AcDbLine
 10
973.0908128471735
 20
485.7439010538277
 30
0.0
 11
973.0908128471735
 21
463.6691042476407
 31
0.0
  0
LINE
  5
2FDAE
330
2A926
100
AcDbEntity
  8
003
 62
     4
 48
0.2
370
    20
100
AcDbLine
 10
972.0908128471737
 20
505.743901053828
 30
0.0
 11
972.0908128471737
 21
463.6691042476407
 31
0.0
  0
LINE
  5
2FDAF
330
2A926
100
AcDbEntity
  8
003
 62
     4
 48
0.2
370
    20
100
AcDbLine
 10
968.9408128471738
 20
465.7691042476407
 30
0.0
 11
965.7908128471738
 21
465.7691042476407
 31
0.0
  0
LINE
  5
2FDB0
330
2A926
100
AcDbEntity
  8
003
 62
     4
 48
0.2
370
    20
100
AcDbLine
 10
976.2408128471735
 20
465.7691042476407
 30
0.0
 11
1054.689789743329
 21
465.7691042476407
 31
0.0
  0
LINE
  5
2FDB1
330
2A926
100
AcDbEntity
  8
003
 62
     4
 48
0.2
370
    20
100
AcDbLine
 10
972.0908128471737
 20
465.7691042476407
 30
0.0
 11
973.0908128471735
 21
465.7691042476407
 31
0.0
  0
INSERT
  5
2FDB2
330
2A926
100
AcDbEntity
  8
003
 62
     4
 48
0.2
370
    20
100
AcDbBlockReference
  2
_Open30
 10
972.0908128471737
 20
465.7691042476407
 30
0.0
 41
3.15
 42
3.15
 43
3.15
  0
INSERT
  5
2FDB3
330
2A926
100
AcDbEntity
  8
003
 62
     4
 48
0.2
370
    20
100
AcDbBlockReference
  2
_Open30
 10
973.0908128471735
 20
465.7691042476407
 30
0.0
 41
3.15
 42
3.15
 43
3.15
 50
180.0
  0
MTEXT
  5
2FDB4
330
2A926
100
AcDbEntity
  8
003
 62
     7
 48
0.2
100
AcDbMText
 10
1020.122289743329
 20
471.0191042476407
 30
0.0
 40
6.3
 41
0.0
 71
     5
 72
     1
  1
1～2mm隙間が空きます
  7
DIM
 73
     1
 44
1.0
1001
ACAD
1000
MTEXTBEGIN
1070
    73
1070
     1
1070
    44
1040
1.0
1070
    74
1070
     0
1000
MTEXTEND
  0
POINT
  5
2FDB5
330
2A926
100
AcDbEntity
  8
Defpoints
 62
     0
 48
0.2
100
AcDbPoint
 10
973.0908128471735
 20
488.8939010538276
 30
0.0
  0
POINT
  5
2FDB6
330
2A926
100
AcDbEntity
  8
Defpoints
 62
     0
 48
0.2
100
AcDbPoint
 10
972.0908128471737
 20
508.8939010538279
 30
0.0
  0
POINT
  5
2FDB7
330
2A926
100
AcDbEntity
  8
Defpoints
 62
     0
 48
0.2
100
AcDbPoint
 10
972.0908128471737
 20
465.7691042476407
 30
0.0
  0
ENDBLK
  5
2A933
330
2A926
100
AcDbEntity
  8
0
 48
0.2
100
AcDbBlockEnd
  0
BLOCK
  5
2F6B5
330
2F6B4
100
AcDbEntity
  8
0
 48
0.2
100
AcDbBlockBegin
  2
*D6
 70
     1
 10
0.0
 20
0.0
 30
0.0
  3
*D6
  1

  0
LINE
  5
2FC77
330
2F6B4
100
AcDbEntity
  8
003
 62
     4
 48
0.2
370
    20
100
AcDbLine
 10
438.7205574093077
 20
406.3610492146914
 30
0.0
 11
438.7205574093077
 21
385.3295520704973
 31
0.0
  0
LINE
  5
2FC78
330
2F6B4
100
AcDbEntity
  8
003
 62
     4
 48
0.2
370
    20
100
AcDbLine
 10
472.4955481569006
 20
425.861049214691
 30
0.0
 11
472.4955481569005
 21
404.8295520704971
 31
0.0
  0
LINE
  5
2FC79
330
2F6B4
100
AcDbEntity
  8
003
 62
     4
 48
0.2
370
    20
100
AcDbLine
 10
441.4485374312286
 20
389.3294232010937
 30
0.0
 11
469.7675681349796
 21
405.6794232010934
 31
0.0
  0
INSERT
  5
2FC7A
330
2F6B4
100
AcDbEntity
  8
003
 62
     4
 48
0.2
370
    20
100
AcDbBlockReference
  2
_Open30
 10
438.7205574093077
 20
387.7544232010937
 30
0.0
 41
3.15
 42
3.15
 43
3.15
 50
209.9999999999999
  0
INSERT
  5
2FC7B
330
2F6B4
100
AcDbEntity
  8
003
 62
     4
 48
0.2
370
    20
100
AcDbBlockReference
  2
_Open30
 10
472.4955481569006
 20
407.2544232010935
 30
0.0
 41
3.15
 42
3.15
 43
3.15
 50
29.99999999999984
  0
MTEXT
  5
2FC7C
330
2F6B4
100
AcDbEntity
  8
003
 62
     7
 48
0.2
100
AcDbMText
 10
452.9830527831042
 20
402.0510565709619
 30
0.0
 40
6.3
 41
0.0
 71
     5
 72
     1
  1
39
  7
DIM
 11
0.8660254037844399
 21
0.4999999999999976
 31
0.0
 73
     1
 44
1.0
1001
ACAD
1000
MTEXTBEGIN
1070
    73
1070
     1
1070
    44
1040
1.0
1070
    74
1070
     0
1000
MTEXTEND
1000
ACAD_MTEXT_BBRT
1070
    91
1071
        3
1070
    46
1040
1.1
1070
    64
1071
-1027028792
1070
    65
1000

1070
    66
1000

1070
   442
1071
 16386592
1000
ACAD_MTEXT_BERT
  0
POINT
  5
2FC7D
330
2F6B4
100
AcDbEntity
  8
Defpoints
 62
     0
 48
0.2
100
AcDbPoint
 10
438.7205574093077
 20
409.998355910586
 30
0.0
  0
POINT
  5
2FC7E
330
2F6B4
100
AcDbEntity
  8
Defpoints
 62
     0
 48
0.2
100
AcDbPoint
 10
472.4955481569006
 20
429.4983559105856
 30
0.0
  0
POINT
  5
2FC7F
330
2F6B4
100
AcDbEntity
  8
Defpoints
 62
     0
 48
0.2
100
AcDbPoint
 10
472.4955481569006
 20
407.2544232010935
 30
0.0
  0
ENDBLK
  5
2F6B6
330
2F6B4
100
AcDbEntity
  8
0
 48
0.2
100
AcDbBlockEnd
  0
BLOCK
  5
2F6C1
330
2F6C0
100
AcDbEntity
  8
0
 48
0.2
100
AcDbBlockBegin
  2
*D7
 70
     1
 10
0.0
 20
0.0
 30
0.0
  3
*D7
  1

  0
LINE
  5
2FC80
330
2F6C0
100
AcDbEntity
  8
003
 62
     4
 48
0.2
370
    20
100
AcDbLine
 10
573.6730200644148
 20
407.7236321350144
 30
0.0
 11
573.6730200644148
 21
387.3902928074458
 31
0.0
  0
LINE
  5
2FC81
330
2F6C0
100
AcDbEntity
  8
003
 62
     4
 48
0.2
370
    20
100
AcDbLine
 10
608.3140362157924
 20
427.7236321350149
 30
0.0
 11
608.3140362157924
 21
407.3902928074463
 31
0.0
  0
LINE
  5
2FC82
330
2F6C0
100
AcDbEntity
  8
003
 62
     4
 48
0.2
370
    20
100
AcDbLine
 10
576.4010000863359
 20
391.3901639380424
 30
0.0
 11
605.5860561938715
 21
408.2401639380427
 31
0.0
  0
INSERT
  5
2FC83
330
2F6C0
100
AcDbEntity
  8
003
 62
     4
 48
0.2
370
    20
100
AcDbBlockReference
  2
_Open30
 10
573.6730200644148
 20
389.8151639380423
 30
0.0
 41
3.15
 42
3.15
 43
3.15
 50
210.0000000000006
  0
INSERT
  5
2FC84
330
2F6C0
100
AcDbEntity
  8
003
 62
     4
 48
0.2
370
    20
100
AcDbBlockReference
  2
_Open30
 10
608.3140362157924
 20
409.8151639380428
 30
0.0
 41
3.15
 42
3.15
 43
3.15
 50
30.00000000000063
  0
MTEXT
  5
2FC85
330
2F6C0
100
AcDbEntity
  8
003
 62
     7
 48
0.2
100
AcDbMText
 10
588.3685281401035
 20
404.3617973079107
 30
0.0
 40
6.3
 41
0.0
 71
     5
 72
     1
  1
40
  7
DIM
 11
0.8660254037844334
 21
0.5000000000000096
 31
0.0
 73
     1
 44
1.0
1001
ACAD
1000
MTEXTBEGIN
1070
    73
1070
     1
1070
    44
1040
1.0
1070
    74
1070
     0
1000
MTEXTEND
1000
ACAD_MTEXT_BBRT
1070
    91
1071
        3
1070
    46
1040
1.1
1070
    64
1071
-1027028792
1070
    65
1000

1070
    66
1000

1070
   442
1071
 16386587
1000
ACAD_MTEXT_BERT
  0
POINT
  5
2FC86
330
2F6C0
100
AcDbEntity
  8
Defpoints
 62
     0
 48
0.2
100
AcDbPoint
 10
573.6730200644148
 20
411.360938830909
 30
0.0
  0
POINT
  5
2FC87
330
2F6C0
100
AcDbEntity
  8
Defpoints
 62
     0
 48
0.2
100
AcDbPoint
 10
608.3140362157924
 20
431.3609388309096
 30
0.0
  0
POINT
  5
2FC88
330
2F6C0
100
AcDbEntity
  8
Defpoints
 62
     0
 48
0.2
100
AcDbPoint
 10
608.3140362157924
 20
409.8151639380428
 30
0.0
  0
ENDBLK
  5
2F6C2
330
2F6C0
100
AcDbEntity
  8
0
 48
0.2
100
AcDbBlockEnd
  0
BLOCK
  5
2F6CD
330
2F6CC
100
AcDbEntity
  8
0
 48
0.2
100
AcDbBlockBegin
  2
*D8
 70
     1
 10
0.0
 20
0.0
 30
0.0
  3
*D8
  1

  0
LINE
  5
2FC89
330
2F6CC
100
AcDbEntity
  8
003
 62
     4
 48
0.2
370
    20
100
AcDbLine
 10
456.0410654849962
 20
434.6894763394375
 30
0.0
 11
456.0410654849962
 21
423.6543264443468
 31
0.0
  0
LINE
  5
2FC8A
330
2F6CC
100
AcDbEntity
  8
003
 62
     4
 48
0.2
370
    20
100
AcDbLine
 10
438.7205574093077
 20
424.6894763394375
 30
0.0
 11
438.7205574093077
 21
413.6543264443468
 31
0.0
  0
LINE
  5
2FC8B
330
2F6CC
100
AcDbEntity
  8
003
 62
     4
 48
0.2
370
    20
100
AcDbLine
 10
453.3130854630753
 20
424.5041975749432
 30
0.0
 11
441.4485374312287
 21
417.6541975749433
 31
0.0
  0
INSERT
  5
2FC8C
330
2F6CC
100
AcDbEntity
  8
003
 62
     4
 48
0.2
370
    20
100
AcDbBlockReference
  2
_Open30
 10
456.0410654849963
 20
426.0791975749432
 30
0.0
 41
3.15
 42
3.15
 43
3.15
 50
30.00000000000021
  0
INSERT
  5
2FC8D
330
2F6CC
100
AcDbEntity
  8
003
 62
     4
 48
0.2
370
    20
100
AcDbBlockReference
  2
_Open30
 10
438.7205574093078
 20
416.0791975749432
 30
0.0
 41
3.15
 42
3.15
 43
3.15
 50
210.0000000000002
  0
MTEXT
  5
2FC8E
330
2F6CC
100
AcDbEntity
  8
003
 62
     7
 48
0.2
100
AcDbMText
 10
445.9740781868886
 20
426.3291975749432
 30
0.0
 40
6.3
 41
0.0
 71
     5
 72
     1
  1
20
  7
DIM
 11
0.8660254037844367
 21
0.5000000000000034
 31
0.0
 73
     1
 44
1.0
1001
ACAD
1000
MTEXTBEGIN
1070
    73
1070
     1
1070
    44
1040
1.0
1070
    74
1070
     0
1000
MTEXTEND
1000
ACAD_MTEXT_BBRT
1070
    91
1071
        3
1070
    46
1040
1.1
1070
    64
1071
-1027028792
1070
    65
1000

1070
    66
1000

1070
   442
1071
 16714262
1000
ACAD_MTEXT_BERT
  0
POINT
  5
2FC8F
330
2F6CC
100
AcDbEntity
  8
Defpoints
 62
     0
 48
0.2
100
AcDbPoint
 10
456.0410654849962
 20
438.3267830353321
 30
0.0
  0
POINT
  5
2FC90
330
2F6CC
100
AcDbEntity
  8
Defpoints
 62
     0
 48
0.2
100
AcDbPoint
 10
438.7205574093077
 20
428.3267830353322
 30
0.0
  0
POINT
  5
2FC91
330
2F6CC
100
AcDbEntity
  8
Defpoints
 62
     0
 48
0.2
100
AcDbPoint
 10
438.7205574093078
 20
416.0791975749432
 30
0.0
  0
ENDBLK
  5
2F6CE
330
2F6CC
100
AcDbEntity
  8
0
 48
0.2
100
AcDbBlockEnd
  0
BLOCK
  5
2F6D9
330
2F6D8
100
AcDbEntity
  8
0
 48
0.2
100
AcDbBlockBegin
  2
*D9
 70
     1
 10
0.0
 20
0.0
 30
0.0
  3
*D9
  1

  0
LINE
  5
2FCEC
330
2F6D8
100
AcDbEntity
  8
003
 62
     4
 48
0.2
370
    20
100
AcDbLine
 10
279.6640261248953
 20
639.9840894430756
 30
0.0
 11
314.9825730544415
 21
639.9840894430756
 31
0.0
  0
LINE
  5
2FCED
330
2F6D8
100
AcDbEntity
  8
003
 62
     4
 48
0.2
370
    20
100
AcDbLine
 10
279.6640261248953
 20
599.9840894430757
 30
0.0
 11
314.9825730544415
 21
599.9840894430757
 31
0.0
  0
LINE
  5
2FCEE
330
2F6D8
100
AcDbEntity
  8
003
 62
     4
 48
0.2
370
    20
100
AcDbLine
 10
312.8825730544416
 20
636.8340894430756
 30
0.0
 11
312.8825730544416
 21
603.1340894430757
 31
0.0
  0
INSERT
  5
2FCEF
330
2F6D8
100
AcDbEntity
  8
003
 62
     4
 48
0.2
370
    20
100
AcDbBlockReference
  2
_Open30
 10
312.8825730544416
 20
639.9840894430756
 30
0.0
 41
3.15
 42
3.15
 43
3.15
 50
90.0
  0
INSERT
  5
2FCF0
330
2F6D8
100
AcDbEntity
  8
003
 62
     4
 48
0.2
370
    20
100
AcDbBlockReference
  2
_Open30
 10
312.8825730544416
 20
599.9840894430757
 30
0.0
 41
3.15
 42
3.15
 43
3.15
 50
270.0
  0
MTEXT
  5
2FCF1
330
2F6D8
100
AcDbEntity
  8
003
 62
     7
 48
0.2
100
AcDbMText
 10
307.6325730544415
 20
619.9840894430758
 30
0.0
 40
6.3
 41
0.0
 71
     5
 72
     1
  1
40
  7
DIM
 11
0.0000000000000001
 21
1.0
 31
0.0
 73
     1
 44
1.0
1001
ACAD
1000
MTEXTBEGIN
1070
    73
1070
     1
1070
    44
1040
1.0
1070
    74
1070
     0
1000
MTEXTEND
1000
ACAD_MTEXT_BBRT
1070
    91
1071
        3
1070
    46
1040
1.1
1070
    64
1071
-1027028792
1070
    65
1000

1070
    66
1000

1070
   442
1071
 16714197
1000
ACAD_MTEXT_BERT
  0
POINT
  5
2FCF2
330
2F6D8
100
AcDbEntity
  8
Defpoints
 62
     0
 48
0.2
100
AcDbPoint
 10
276.5140261248953
 20
639.9840894430756
 30
0.0
  0
POINT
  5
2FCF3
330
2F6D8
100
AcDbEntity
  8
Defpoints
 62
     0
 48
0.2
100
AcDbPoint
 10
276.5140261248953
 20
599.9840894430757
 30
0.0
  0
POINT
  5
2FCF4
330
2F6D8
100
AcDbEntity
  8
Defpoints
 62
     0
 48
0.2
100
AcDbPoint
 10
312.8825730544416
 20
599.9840894430757
 30
0.0
  0
ENDBLK
  5
2F6DA
330
2F6D8
100
AcDbEntity
  8
0
 48
0.2
100
AcDbBlockEnd
  0
BLOCK
  5
2F6E5
330
2F6E4
100
AcDbEntity
  8
0
 48
0.2
100
AcDbBlockBegin
  2
*D10
 70
     1
 10
0.0
 20
0.0
 30
0.0
  3
*D10
  1

  0
LINE
  5
2FCF5
330
2F6E4
100
AcDbEntity
  8
003
 62
     4
 48
0.2
370
    20
100
AcDbLine
 10
258.0140261248953
 20
641.6340894430758
 30
0.0
 11
258.0140261248953
 21
653.4233923641529
 31
0.0
  0
LINE
  5
2FCF6
330
2F6E4
100
AcDbEntity
  8
003
 62
     4
 48
0.2
370
    20
100
AcDbLine
 10
278.0140261248953
 20
641.6340894430756
 30
0.0
 11
278.0140261248953
 21
653.4233923641529
 31
0.0
  0
LINE
  5
2FCF7
330
2F6E4
100
AcDbEntity
  8
003
 62
     4
 48
0.2
370
    20
100
AcDbLine
 10
261.1640261248953
 20
651.3233923641529
 30
0.0
 11
274.8640261248953
 21
651.3233923641529
 31
0.0
  0
INSERT
  5
2FCF8
330
2F6E4
100
AcDbEntity
  8
003
 62
     4
 48
0.2
370
    20
100
AcDbBlockReference
  2
_Open30
 10
258.0140261248953
 20
651.3233923641529
 30
0.0
 41
3.15
 42
3.15
 43
3.15
 50
180.0
  0
INSERT
  5
2FCF9
330
2F6E4
100
AcDbEntity
  8
003
 62
     4
 48
0.2
370
    20
100
AcDbBlockReference
  2
_Open30
 10
278.0140261248953
 20
651.3233923641529
 30
0.0
 41
3.15
 42
3.15
 43
3.15
  0
MTEXT
  5
2FCFA
330
2F6E4
100
AcDbEntity
  8
003
 62
     7
 48
0.2
100
AcDbMText
 10
268.0140261248953
 20
656.5733923641529
 30
0.0
 40
6.3
 41
0.0
 71
     5
 72
     1
  1
20
  7
DIM
 73
     1
 44
1.0
1001
ACAD
1000
MTEXTBEGIN
1070
    73
1070
     1
1070
    44
1040
1.0
1070
    74
1070
     0
1000
MTEXTEND
  0
POINT
  5
2FCFB
330
2F6E4
100
AcDbEntity
  8
Defpoints
 62
     0
 48
0.2
100
AcDbPoint
 10
258.0140261248953
 20
638.4840894430758
 30
0.0
  0
POINT
  5
2FCFC
330
2F6E4
100
AcDbEntity
  8
Defpoints
 62
     0
 48
0.2
100
AcDbPoint
 10
278.0140261248953
 20
638.4840894430757
 30
0.0
  0
POINT
  5
2FCFD
330
2F6E4
100
AcDbEntity
  8
Defpoints
 62
     0
 48
0.2
100
AcDbPoint
 10
278.0140261248953
 20
651.3233923641529
 30
0.0
  0
ENDBLK
  5
2F6E6
330
2F6E4
100
AcDbEntity
  8
0
 48
0.2
100
AcDbBlockEnd
  0
BLOCK
  5
2F6F1
330
2F6F0
100
AcDbEntity
  8
0
 48
0.2
100
AcDbBlockBegin
  2
*D11
 70
     1
 10
0.0
 20
0.0
 30
0.0
  3
*D11
  1

  0
LINE
  5
2FCFE
330
2F6F0
100
AcDbEntity
  8
003
 62
     4
 48
0.2
370
    20
100
AcDbLine
 10
276.1640261248953
 20
629.9840894430757
 30
0.0
 11
300.2825730544415
 21
629.9840894430757
 31
0.0
  0
LINE
  5
2FCFF
330
2F6F0
100
AcDbEntity
  8
003
 62
     4
 48
0.2
370
    20
100
AcDbLine
 10
276.1640261248953
 20
609.9840894430757
 30
0.0
 11
300.2825730544415
 21
609.9840894430757
 31
0.0
  0
LINE
  5
2FD00
330
2F6F0
100
AcDbEntity
  8
003
 62
     4
 48
0.2
370
    20
100
AcDbLine
 10
298.1825730544415
 20
626.8340894430757
 30
0.0
 11
298.1825730544415
 21
613.1340894430756
 31
0.0
  0
INSERT
  5
2FD01
330
2F6F0
100
AcDbEntity
  8
003
 62
     4
 48
0.2
370
    20
100
AcDbBlockReference
  2
_Open30
 10
298.1825730544415
 20
629.9840894430757
 30
0.0
 41
3.15
 42
3.15
 43
3.15
 50
90.0
  0
INSERT
  5
2FD02
330
2F6F0
100
AcDbEntity
  8
003
 62
     4
 48
0.2
370
    20
100
AcDbBlockReference
  2
_Open30
 10
298.1825730544415
 20
609.9840894430757
 30
0.0
 41
3.15
 42
3.15
 43
3.15
 50
270.0
  0
MTEXT
  5
2FD03
330
2F6F0
100
AcDbEntity
  8
003
 62
     7
 48
0.2
100
AcDbMText
 10
292.9325730544414
 20
619.9840894430758
 30
0.0
 40
6.3
 41
0.0
 71
     5
 72
     1
  1
20
  7
DIM
 11
0.0000000000000001
 21
1.0
 31
0.0
 73
     1
 44
1.0
1001
ACAD
1000
MTEXTBEGIN
1070
    73
1070
     1
1070
    44
1040
1.0
1070
    74
1070
     0
1000
MTEXTEND
1000
ACAD_MTEXT_BBRT
1070
    91
1071
        3
1070
    46
1040
1.1
1070
    64
1071
-1027028792
1070
    65
1000

1070
    66
1000

1070
   442
1071
 16386522
1000
ACAD_MTEXT_BERT
  0
POINT
  5
2FD04
330
2F6F0
100
AcDbEntity
  8
Defpoints
 62
     0
 48
0.2
100
AcDbPoint
 10
273.0140261248953
 20
629.9840894430757
 30
0.0
  0
POINT
  5
2FD05
330
2F6F0
100
AcDbEntity
  8
Defpoints
 62
     0
 48
0.2
100
AcDbPoint
 10
273.0140261248953
 20
609.9840894430757
 30
0.0
  0
POINT
  5
2FD06
330
2F6F0
100
AcDbEntity
  8
Defpoints
 62
     0
 48
0.2
100
AcDbPoint
 10
298.1825730544415
 20
609.9840894430757
 30
0.0
  0
ENDBLK
  5
2F6F2
330
2F6F0
100
AcDbEntity
  8
0
 48
0.2
100
AcDbBlockEnd
  0
BLOCK
  5
2F6FD
330
2F6FC
100
AcDbEntity
  8
0
 48
0.2
100
AcDbBlockBegin
  2
*D12
 70
     1
 10
0.0
 20
0.0
 30
0.0
  3
*D12
  1

  0
LINE
  5
2FD07
330
2F6FC
100
AcDbEntity
  8
003
 62
     4
 48
0.2
370
    20
100
AcDbLine
 10
276.1640261248953
 20
629.9840894430757
 30
0.0
 11
300.2825730544416
 21
629.9840894430757
 31
0.0
  0
LINE
  5
2FD08
330
2F6FC
100
AcDbEntity
  8
003
 62
     4
 48
0.2
370
    20
100
AcDbLine
 10
279.6640261248953
 20
639.9840894430757
 30
0.0
 11
300.2825730544416
 21
639.9840894430757
 31
0.0
  0
LINE
  5
2FD09
330
2F6FC
100
AcDbEntity
  8
003
 62
     4
 48
0.2
370
    20
100
AcDbLine
 10
298.1825730544415
 20
626.8340894430757
 30
0.0
 11
298.1825730544415
 21
623.6840894430757
 31
0.0
  0
LINE
  5
2FD0A
330
2F6FC
100
AcDbEntity
  8
003
 62
     4
 48
0.2
370
    20
100
AcDbLine
 10
298.1825730544416
 20
643.1340894430757
 30
0.0
 11
298.1825730544416
 21
646.2840894430756
 31
0.0
  0
LINE
  5
2FD0B
330
2F6FC
100
AcDbEntity
  8
003
 62
     4
 48
0.2
370
    20
100
AcDbLine
 10
298.1825730544415
 20
629.9840894430757
 30
0.0
 11
298.1825730544415
 21
639.9840894430757
 31
0.0
  0
INSERT
  5
2FD0C
330
2F6FC
100
AcDbEntity
  8
003
 62
     4
 48
0.2
370
    20
100
AcDbBlockReference
  2
_Open30
 10
298.1825730544415
 20
629.9840894430757
 30
0.0
 41
3.15
 42
3.15
 43
3.15
 50
90.0
  0
INSERT
  5
2FD0D
330
2F6FC
100
AcDbEntity
  8
003
 62
     4
 48
0.2
370
    20
100
AcDbBlockReference
  2
_Open30
 10
298.1825730544415
 20
639.9840894430757
 30
0.0
 41
3.15
 42
3.15
 43
3.15
 50
270.0
  0
MTEXT
  5
2FD0E
330
2F6FC
100
AcDbEntity
  8
003
 62
     7
 48
0.2
100
AcDbMText
 10
292.9325730544415
 20
634.9840894430758
 30
0.0
 40
6.3
 41
0.0
 71
     5
 72
     1
  1
10
  7
DIM
 11
0.0000000000000001
 21
1.0
 31
0.0
 73
     1
 44
1.0
1001
ACAD
1000
MTEXTBEGIN
1070
    73
1070
     1
1070
    44
1040
1.0
1070
    74
1070
     0
1000
MTEXTEND
1000
ACAD_MTEXT_BBRT
1070
    91
1071
        3
1070
    46
1040
1.1
1070
    64
1071
-1027028792
1070
    65
1000

1070
    66
1000

1070
   442
1071
 16648671
1000
ACAD_MTEXT_BERT
  0
POINT
  5
2FD0F
330
2F6FC
100
AcDbEntity
  8
Defpoints
 62
     0
 48
0.2
100
AcDbPoint
 10
273.0140261248953
 20
629.9840894430757
 30
0.0
  0
POINT
  5
2FD10
330
2F6FC
100
AcDbEntity
  8
Defpoints
 62
     0
 48
0.2
100
AcDbPoint
 10
276.5140261248953
 20
639.9840894430757
 30
0.0
  0
POINT
  5
2FD11
330
2F6FC
100
AcDbEntity
  8
Defpoints
 62
     0
 48
0.2
100
AcDbPoint
 10
298.1825730544415
 20
639.9840894430757
 30
0.0
  0
ENDBLK
  5
2F6FE
330
2F6FC
100
AcDbEntity
  8
0
 48
0.2
100
AcDbBlockEnd
  0
BLOCK
  5
2F70B
330
2F70A
100
AcDbEntity
  8
0
 48
0.2
100
AcDbBlockBegin
  2
*D13
 70
     1
 10
0.0
 20
0.0
 30
0.0
  3
*D13
  1

  0
LINE
  5
2FD12
330
2F70A
100
AcDbEntity
  8
003
 62
     4
 48
0.2
370
    20
100
AcDbLine
 10
276.1640261248953
 20
609.9840894430757
 30
0.0
 11
300.2825730544416
 21
609.9840894430757
 31
0.0
  0
LINE
  5
2FD13
330
2F70A
100
AcDbEntity
  8
003
 62
     4
 48
0.2
370
    20
100
AcDbLine
 10
279.6640261248953
 20
599.9840894430757
 30
0.0
 11
300.2825730544416
 21
599.9840894430757
 31
0.0
  0
LINE
  5
2FD14
330
2F70A
100
AcDbEntity
  8
003
 62
     4
 48
0.2
370
    20
100
AcDbLine
 10
298.1825730544415
 20
613.1340894430756
 30
0.0
 11
298.1825730544415
 21
616.2840894430757
 31
0.0
  0
LINE
  5
2FD15
330
2F70A
100
AcDbEntity
  8
003
 62
     4
 48
0.2
370
    20
100
AcDbLine
 10
298.1825730544415
 20
596.8340894430757
 30
0.0
 11
298.1825730544415
 21
593.6840894430758
 31
0.0
  0
LINE
  5
2FD16
330
2F70A
100
AcDbEntity
  8
003
 62
     4
 48
0.2
370
    20
100
AcDbLine
 10
298.1825730544415
 20
609.9840894430757
 30
0.0
 11
298.1825730544415
 21
599.9840894430757
 31
0.0
  0
INSERT
  5
2FD17
330
2F70A
100
AcDbEntity
  8
003
 62
     4
 48
0.2
370
    20
100
AcDbBlockReference
  2
_Open30
 10
298.1825730544415
 20
609.9840894430757
 30
0.0
 41
3.15
 42
3.15
 43
3.15
 50
270.0
  0
INSERT
  5
2FD18
330
2F70A
100
AcDbEntity
  8
003
 62
     4
 48
0.2
370
    20
100
AcDbBlockReference
  2
_Open30
 10
298.1825730544415
 20
599.9840894430757
 30
0.0
 41
3.15
 42
3.15
 43
3.15
 50
90.0
  0
MTEXT
  5
2FD19
330
2F70A
100
AcDbEntity
  8
003
 62
     7
 48
0.2
100
AcDbMText
 10
292.9325730544415
 20
604.9840894430758
 30
0.0
 40
6.3
 41
0.0
 71
     5
 72
     1
  1
10
  7
DIM
 11
0.0000000000000001
 21
1.0
 31
0.0
 73
     1
 44
1.0
1001
ACAD
1000
MTEXTBEGIN
1070
    73
1070
     1
1070
    44
1040
1.0
1070
    74
1070
     0
1000
MTEXTEND
1000
ACAD_MTEXT_BBRT
1070
    91
1071
        3
1070
    46
1040
1.1
1070
    64
1071
-1027028792
1070
    65
1000

1070
    66
1000

1070
   442
1071
 16386512
1000
ACAD_MTEXT_BERT
  0
POINT
  5
2FD1A
330
2F70A
100
AcDbEntity
  8
Defpoints
 62
     0
 48
0.2
100
AcDbPoint
 10
273.0140261248953
 20
609.9840894430757
 30
0.0
  0
POINT
  5
2FD1B
330
2F70A
100
AcDbEntity
  8
Defpoints
 62
     0
 48
0.2
100
AcDbPoint
 10
276.5140261248953
 20
599.9840894430757
 30
0.0
  0
POINT
  5
2FD1C
330
2F70A
100
AcDbEntity
  8
Defpoints
 62
     0
 48
0.2
100
AcDbPoint
 10
298.1825730544415
 20
599.9840894430757
 30
0.0
  0
ENDBLK
  5
2F70C
330
2F70A
100
AcDbEntity
  8
0
 48
0.2
100
AcDbBlockEnd
  0
BLOCK
  5
2FD75
330
2FD74
100
AcDbEntity
  8
0
 48
0.2
100
AcDbBlockBegin
  2
*D14
 70
     1
 10
0.0
 20
0.0
 30
0.0
  3
*D14
  1

  0
LINE
  5
2FDA4
330
2FD74
100
AcDbEntity
  8
0
 62
     4
 48
0.2
370
    20
100
AcDbLine
 10
953.0908128471734
 20
543.9539010538275
 30
0.0
 11
953.0908128471734
 21
550.6161777889676
 31
0.0
  0
LINE
  5
2FDA5
330
2FD74
100
AcDbEntity
  8
0
 62
     4
 48
0.2
370
    20
100
AcDbLine
 10
973.0908128471734
 20
543.9539010538275
 30
0.0
 11
973.0908128471734
 21
550.6161777889676
 31
0.0
  0
LINE
  5
2FDA6
330
2FD74
100
AcDbEntity
  8
0
 62
     4
 48
0.2
370
    20
100
AcDbLine
 10
956.2408128471735
 20
548.5161777889676
 30
0.0
 11
969.9408128471732
 21
548.5161777889676
 31
0.0
  0
INSERT
  5
2FDA7
330
2FD74
100
AcDbEntity
  8
0
 62
     4
 48
0.2
370
    20
100
AcDbBlockReference
  2
_Open30
 10
953.0908128471734
 20
548.5161777889676
 30
0.0
 41
3.15
 42
3.15
 43
3.15
 50
180.0
  0
INSERT
  5
2FDA8
330
2FD74
100
AcDbEntity
  8
0
 62
     4
 48
0.2
370
    20
100
AcDbBlockReference
  2
_Open30
 10
973.0908128471734
 20
548.5161777889676
 30
0.0
 41
3.15
 42
3.15
 43
3.15
  0
MTEXT
  5
2FDA9
330
2FD74
100
AcDbEntity
  8
0
 62
     7
 48
0.2
100
AcDbMText
 10
963.0908128471734
 20
553.7661777889676
 30
0.0
 40
6.3
 41
0.0
 71
     5
 72
     1
  1
20
  7
DIM
 73
     1
 44
1.0
1001
ACAD
1000
MTEXTBEGIN
1070
    73
1070
     1
1070
    44
1040
1.0
1070
    74
1070
     0
1000
MTEXTEND
1000
ACAD_MTEXT_BBRT
1070
    91
1071
        3
1070
    46
1040
1.1
1070
    64
1071
-1027028792
1070
    65
1000

1070
    66
1000

1070
   442
1071
 16386507
1000
ACAD_MTEXT_BERT
  0
POINT
  5
2FDAA
330
2FD74
100
AcDbEntity
  8
Defpoints
 62
     0
 48
0.2
100
AcDbPoint
 10
953.0908128471734
 20
540.8039010538275
 30
0.0
  0
POINT
  5
2FDAB
330
2FD74
100
AcDbEntity
  8
Defpoints
 62
     0
 48
0.2
100
AcDbPoint
 10
973.0908128471734
 20
540.8039010538275
 30
0.0
  0
POINT
  5
2FDAC
330
2FD74
100
AcDbEntity
  8
Defpoints
 62
     0
 48
0.2
100
AcDbPoint
 10
973.0908128471734
 20
548.5161777889676
 30
0.0
  0
ENDBLK
  5
2FD76
330
2FD74
100
AcDbEntity
  8
0
 48
0.2
100
AcDbBlockEnd
  0
ENDSEC
  0
SECTION
  2
ENTITIES
  0
LINE
  5
F01B
330
1F
100
AcDbEntity
  8
0000躯体
 48
0.5
100
AcDbLine
 10
68.01402597350409
 20
456.8771056567539
 30
0.0
 11
68.01402597350409
 21
424.7035242618304
 31
0.0
  0
LINE
  5
F01C
330
1F
100
AcDbEntity
  8
0000躯体
 48
0.5
100
AcDbLine
 10
50.01402597350409
 20
449.5043039460283
 30
0.0
 11
68.01402597350409
 21
449.5043039460283
 31
0.0
  0
LINE
  5
11929
330
1F
100
AcDbEntity
  8
0000躯体
 48
0.5
100
AcDbLine
 10
248.0140261248952
 20
549.7540894430759
 30
0.0
 11
248.0140261248952
 21
552.9840894430757
 31
0.0
  0
LINE
  5
1192D
330
1F
100
AcDbEntity
  8
0000躯体
 48
0.5
100
AcDbLine
 10
248.0140261248952
 20
552.9840894430757
 30
0.0
 11
298.0140261248952
 21
552.9840894430757
 31
0.0
  0
LINE
  5
1192E
330
1F
100
AcDbEntity
  8
0000躯体
 48
0.5
100
AcDbLine
 10
298.0140261248952
 20
552.9840894430757
 30
0.0
 11
298.0140261248952
 21
527.9840894430757
 31
0.0
  0
LINE
  5
1192F
330
1F
100
AcDbEntity
  8
0000躯体
 48
0.5
100
AcDbLine
 10
298.0140261248952
 20
527.9840894430757
 30
0.0
 11
288.0140261248952
 21
527.9840894430757
 31
0.0
  0
LINE
  5
11930
330
1F
100
AcDbEntity
  8
0000躯体
 48
0.5
100
AcDbLine
 10
288.0140261248952
 20
527.9840894430757
 30
0.0
 11
288.0140261248952
 21
532.9840894430757
 31
0.0
  0
LINE
  5
11931
330
1F
100
AcDbEntity
  8
0000躯体
 48
0.5
100
AcDbLine
 10
288.0140261248952
 20
532.9840894430757
 30
0.0
 11
275.5140261248952
 21
532.9840894430757
 31
0.0
  0
LINE
  5
11932
330
1F
100
AcDbEntity
  8
0000躯体
 48
0.5
100
AcDbLine
 10
275.5140261248952
 20
532.9840894430757
 30
0.0
 11
275.5140261248952
 21
527.9840894430757
 31
0.0
  0
LINE
  5
11933
330
1F
100
AcDbEntity
  8
0000躯体
 48
0.5
100
AcDbLine
 10
275.5140261248952
 20
527.9840894430757
 30
0.0
 11
231.0140261248952
 21
527.9840894430757
 31
0.0
  0
LINE
  5
11934
330
1F
100
AcDbEntity
  8
0000躯体
 48
0.5
100
AcDbLine
 10
231.0140261248952
 20
527.9840894430757
 30
0.0
 11
231.0140261248952
 21
549.7540894430759
 31
0.0
  0
LINE
  5
11935
330
1F
100
AcDbEntity
  8
0000躯体
 48
0.5
100
AcDbLine
 10
231.0140261248952
 20
549.7540894430759
 30
0.0
 11
248.0140261248952
 21
549.7540894430759
 31
0.0
  0
LINE
  5
11936
330
1F
100
AcDbEntity
  8
0000躯体
 48
0.5
100
AcDbLine
 10
248.0140261248952
 20
549.7540894430759
 30
0.0
 11
248.0140261248952
 21
552.9840894430757
 31
0.0
  0
LINE
  5
1193E
330
1F
100
AcDbEntity
  8
0000躯体
 48
0.5
100
AcDbLine
 10
288.0140261248952
 20
532.9840894430757
 30
0.0
 11
288.0140261248952
 21
424.7035242618304
 31
0.0
  0
LINE
  5
1193F
330
1F
100
AcDbEntity
  8
0000躯体
 48
0.5
100
AcDbLine
 10
278.5140261248951
 20
424.7035242618304
 30
0.0
 11
278.5140261248951
 21
532.9840894430757
 31
0.0
  0
LINE
  5
11940
330
1F
100
AcDbEntity
  8
0000躯体
 48
0.5
100
AcDbLine
 10
278.5140261248951
 20
532.9840894430757
 30
0.0
 11
288.0140261248952
 21
532.9840894430757
 31
0.0
  0
LINE
  5
11943
330
1F
100
AcDbEntity
  8
0000躯体
 48
0.5
100
AcDbLine
 10
228.0140261248952
 20
424.7035242618304
 30
0.0
 11
228.0140261248952
 21
462.4840894430755
 31
0.0
  0
LINE
  5
11944
330
1F
100
AcDbEntity
  8
0000躯体
 48
0.5
100
AcDbLine
 10
228.0140261248952
 20
462.4840894430755
 30
0.0
 11
68.01402612489517
 21
437.4840894430755
 31
0.0
  0
LINE
  5
11945
330
1F
100
AcDbEntity
  8
0000躯体
 48
0.5
100
AcDbLine
 10
228.0140261248952
 20
507.9840894430757
 30
0.0
 11
228.0140261248952
 21
462.4840894430755
 31
0.0
  0
LINE
  5
11946
330
1F
100
AcDbEntity
  8
0000躯体
 48
0.5
100
AcDbLine
 10
253.0140261248952
 20
527.9840894430755
 30
0.0
 11
253.0140261248952
 21
424.7035242618304
 31
0.0
  0
LINE
  5
11948
330
1F
100
AcDbEntity
  8
0000躯体
 48
0.5
100
AcDbLine
 10
231.0140261248952
 20
527.9840894430757
 30
0.0
 11
228.0140261248952
 21
527.9840894430757
 31
0.0
  0
LINE
  5
11968
330
1F
100
AcDbEntity
  8
0000躯体
 48
0.5
100
AcDbLine
 10
228.0140261248952
 20
781.8499053564909
 30
0.0
 11
228.0140261248952
 21
762.9840894430757
 31
0.0
  0
LINE
  5
11969
330
1F
100
AcDbEntity
  8
0000躯体
 48
0.5
100
AcDbLine
 10
228.0140261248952
 20
762.9840894430757
 30
0.0
 11
143.0140261248951
 21
762.9840894430757
 31
0.0
  0
LINE
  5
1196A
330
1F
100
AcDbEntity
  8
0000躯体
 48
0.5
100
AcDbLine
 10
143.0140261248951
 20
762.9840894430757
 30
0.0
 11
143.0140261248951
 21
722.9840894430757
 31
0.0
  0
LINE
  5
1196B
330
1F
100
AcDbEntity
  8
0000躯体
 48
0.5
100
AcDbLine
 10
143.0140261248951
 20
722.9840894430757
 30
0.0
 11
83.01402612489516
 21
722.9840894430757
 31
0.0
  0
LINE
  5
1196C
330
1F
100
AcDbEntity
  8
0000躯体
 48
0.5
100
AcDbLine
 10
83.01402612489516
 20
722.9840894430757
 30
0.0
 11
68.01402612489517
 21
737.9840894430757
 31
0.0
  0
LINE
  5
1196D
330
1F
100
AcDbEntity
  8
0000躯体
 48
0.5
100
AcDbLine
 10
68.01402612489517
 20
737.9840894430757
 30
0.0
 11
68.01402612489517
 21
781.8499053564909
 31
0.0
  0
LINE
  5
1197F
330
1F
100
AcDbEntity
  8
0000躯体
 48
0.5
100
AcDbLine
 10
228.0140261248952
 20
737.9840894430757
 30
0.0
 11
228.0140261248952
 21
762.9840894430757
 31
0.0
  0
LINE
  5
11980
330
1F
100
AcDbEntity
  8
0000躯体
 48
0.5
100
AcDbLine
 10
253.0140261248952
 20
742.9840894430757
 30
0.0
 11
253.0140261248952
 21
781.8499053564909
 31
0.0
  0
LINE
  5
11985
330
1F
100
AcDbEntity
  8
0000躯体
 48
0.5
100
AcDbLine
 10
248.0140261248952
 20
717.9840894430757
 30
0.0
 11
298.0140261248952
 21
717.9840894430757
 31
0.0
  0
LINE
  5
11986
330
1F
100
AcDbEntity
  8
0000躯体
 48
0.5
100
AcDbLine
 10
298.0140261248952
 20
717.9840894430757
 30
0.0
 11
298.014026124895
 21
742.9840894430757
 31
0.0
  0
LINE
  5
11987
330
1F
100
AcDbEntity
  8
0000躯体
 48
0.5
100
AcDbLine
 10
275.5140261248952
 20
742.9840894430757
 30
0.0
 11
233.0140261248952
 21
742.9840894430757
 31
0.0
  0
LINE
  5
11988
330
1F
100
AcDbEntity
  8
0000躯体
 48
0.5
100
AcDbLine
 10
233.0140261248952
 20
742.9840894430757
 30
0.0
 11
233.0140261248952
 21
720.9840894430757
 31
0.0
  0
LINE
  5
11989
330
1F
100
AcDbEntity
  8
0000躯体
 48
0.5
100
AcDbLine
 10
233.0140261248952
 20
720.9840894430757
 30
0.0
 11
248.0140261248952
 21
720.9840894430757
 31
0.0
  0
LINE
  5
1198A
330
1F
100
AcDbEntity
  8
0000躯体
 48
0.5
100
AcDbLine
 10
248.0140261248952
 20
720.9840894430757
 30
0.0
 11
248.0140261248952
 21
717.9840894430757
 31
0.0
  0
LINE
  5
119A2
330
1F
100
AcDbEntity
  8
0000躯体
 48
0.5
100
AcDbLine
 10
288.0140261248952
 20
752.4840894430757
 30
0.0
 11
288.0140261248952
 21
742.9840894430757
 31
0.0
  0
LINE
  5
119E8
330
1F
100
AcDbEntity
  8
0000躯体
 48
0.5
100
AcDbLine
 10
288.0140261248952
 20
742.9840894430757
 30
0.0
 11
288.0140261248952
 21
737.9840894430757
 31
0.0
  0
LINE
  5
119E9
330
1F
100
AcDbEntity
  8
0000躯体
 48
0.5
100
AcDbLine
 10
288.0140261248952
 20
737.9840894430757
 30
0.0
 11
275.5140261248952
 21
737.9840894430757
 31
0.0
  0
LINE
  5
119EA
330
1F
100
AcDbEntity
  8
0000躯体
 48
0.5
100
AcDbLine
 10
275.5140261248952
 20
737.9840894430757
 30
0.0
 11
275.5140261248952
 21
742.9840894430757
 31
0.0
  0
LINE
  5
119EB
330
1F
100
AcDbEntity
  8
0000躯体
 48
0.5
100
AcDbLine
 10
288.0140261248952
 20
737.9840894430757
 30
0.0
 11
288.0140261248952
 21
781.8499053564909
 31
0.0
  0
LINE
  5
119F0
330
1F
100
AcDbEntity
  8
0000躯体
 48
0.5
100
AcDbLine
 10
278.5140261248951
 20
781.8499053564909
 30
0.0
 11
278.5140261248951
 21
737.9840894430757
 31
0.0
  0
LINE
  5
119F1
330
1F
100
AcDbEntity
  8
0000躯体
 48
0.5
100
AcDbLine
 10
278.5140261248951
 20
737.9840894430757
 30
0.0
 11
288.0140261248952
 21
737.9840894430757
 31
0.0
  0
LINE
  5
11A36
330
1F
100
AcDbEntity
  8
0000躯体
 48
0.5
100
AcDbLine
 10
298.014026124895
 20
742.9840894430757
 30
0.0
 11
288.0140261248952
 21
742.9840894430757
 31
0.0
  0
LINE
  5
11A39
330
1F
100
AcDbEntity
  8
0000躯体
 48
0.5
100
AcDbLine
 10
143.0140261248951
 20
723.9840894430757
 30
0.0
 11
158.0140261248951
 21
723.9840894430757
 31
0.0
  0
LINE
  5
15715
330
1F
100
AcDbEntity
  8
0000躯体
  6
Continuous
100
AcDbLine
 10
1034.092243859599
 20
558.8939010538276
 30
0.0
 11
1013.090812847173
 21
558.8939010538276
 31
0.0
  0
LINE
  5
15716
330
1F
100
AcDbEntity
  8
0000躯体
  6
Continuous
100
AcDbLine
 10
1013.090812847173
 20
558.8939010538276
 30
0.0
 11
1013.090812847173
 21
643.8939010538277
 31
0.0
  0
LINE
  5
15717
330
1F
100
AcDbEntity
  8
0000躯体
  6
Continuous
100
AcDbLine
 10
1013.090812847173
 20
643.8939010538277
 30
0.0
 11
973.0908128471735
 21
643.8939010538277
 31
0.0
  0
LINE
  5
15718
330
1F
100
AcDbEntity
  8
0000躯体
  6
Continuous
100
AcDbLine
 10
973.0908128471735
 20
643.8939010538277
 30
0.0
 11
973.0908128471734
 21
703.8939010538276
 31
0.0
  0
LINE
  5
15719
330
1F
100
AcDbEntity
  8
0000躯体
  6
Continuous
100
AcDbLine
 10
973.0908128471735
 20
703.8939010538276
 30
0.0
 11
988.0908128471736
 21
718.8939010538277
 31
0.0
  0
LINE
  5
1571A
330
1F
100
AcDbEntity
  8
0000躯体
  6
Continuous
100
AcDbLine
 10
988.0908128471736
 20
718.8939010538277
 30
0.0
 11
1034.092243859599
 21
718.8939010538277
 31
0.0
  0
LINE
  5
1571B
330
1F
100
AcDbEntity
  8
0000躯体
  6
Continuous
100
AcDbLine
 10
983.0908128471735
 20
558.8939010538276
 30
0.0
 11
1013.090812847173
 21
558.8939010538276
 31
0.0
  0
LINE
  5
1571C
330
1F
100
AcDbEntity
  8
0000躯体
  6
Continuous
100
AcDbLine
 10
1034.092243859599
 20
533.8939010538276
 30
0.0
 11
998.0908128471735
 21
533.8939010538276
 31
0.0
  0
LINE
  5
1571D
330
1F
100
AcDbEntity
  8
0000躯体
  6
Continuous
100
AcDbLine
 10
973.0908128471735
 20
538.8939010538276
 30
0.0
 11
973.0908128471735
 21
488.8939010538276
 31
0.0
  0
LINE
  5
1571E
330
1F
100
AcDbEntity
  8
0000躯体
  6
Continuous
100
AcDbLine
 10
973.0908128471735
 20
488.8939010538276
 30
0.0
 11
998.0908128471735
 21
488.8939010538276
 31
0.0
  0
LINE
  5
1571F
330
1F
100
AcDbEntity
  8
0000躯体
  6
Continuous
100
AcDbLine
 10
998.0908128471735
 20
511.3939010538277
 30
0.0
 11
998.0908128471735
 21
553.8939010538276
 31
0.0
  0
LINE
  5
15720
330
1F
100
AcDbEntity
  8
0000躯体
  6
Continuous
100
AcDbLine
 10
998.0908128471735
 20
553.8939010538276
 30
0.0
 11
976.0908128471735
 21
553.8939010538276
 31
0.0
  0
LINE
  5
15721
330
1F
100
AcDbEntity
  8
0000躯体
  6
Continuous
100
AcDbLine
 10
993.0908128471735
 20
498.8939010538277
 30
0.0
 11
1034.092243859599
 21
498.8939010538277
 31
0.0
  0
LINE
  5
15722
330
1F
100
AcDbEntity
  8
0000躯体
  6
Continuous
100
AcDbLine
 10
998.0908128471735
 20
498.8939010538277
 30
0.0
 11
993.0908128471735
 21
498.8939010538277
 31
0.0
  0
LINE
  5
15723
330
1F
100
AcDbEntity
  8
0000躯体
  6
Continuous
100
AcDbLine
 10
993.0908128471735
 20
498.8939010538277
 30
0.0
 11
993.0908128471735
 21
511.3939010538277
 31
0.0
  0
LINE
  5
15724
330
1F
100
AcDbEntity
  8
0000躯体
  6
Continuous
100
AcDbLine
 10
993.0908128471735
 20
511.3939010538277
 30
0.0
 11
998.0908128471735
 21
511.3939010538277
 31
0.0
  0
LINE
  5
15725
330
1F
100
AcDbEntity
  8
0000躯体
  6
Continuous
100
AcDbLine
 10
1034.092243859599
 20
508.3939010538276
 30
0.0
 11
993.0908128471735
 21
508.3939010538276
 31
0.0
  0
LINE
  5
15726
330
1F
100
AcDbEntity
  8
0000躯体
  6
Continuous
100
AcDbLine
 10
993.0908128471735
 20
508.3939010538276
 30
0.0
 11
993.0908128471735
 21
498.8939010538277
 31
0.0
  0
LINE
  5
15727
330
1F
100
AcDbEntity
  8
0000躯体
  6
Continuous
100
AcDbLine
 10
998.0908128471735
 20
488.8939010538276
 30
0.0
 11
998.0908128471735
 21
498.8939010538277
 31
0.0
  0
LINE
  5
15728
330
1F
100
AcDbEntity
  8
0000躯体
  6
Continuous
100
AcDbLine
 10
976.0908128471735
 20
553.8939010538276
 30
0.0
 11
976.0908128471735
 21
538.8939010538275
 31
0.0
  0
LINE
  5
15729
330
1F
100
AcDbEntity
  8
0000躯体
  6
Continuous
100
AcDbLine
 10
976.0908128471735
 20
538.8939010538275
 30
0.0
 11
973.0908128471735
 21
538.8939010538275
 31
0.0
  0
LINE
  5
1572C
330
1F
100
AcDbEntity
  8
0000躯体
 48
0.5
100
AcDbLine
 10
974.0908128471735
 20
643.8939010538277
 30
0.0
 11
974.0908128471735
 21
628.8939010538277
 31
0.0
  0
LINE
  5
1572D
330
1F
100
AcDbEntity
  8
0000躯体
  6
Continuous
100
AcDbLine
 10
732.0893818347484
 20
558.8939010538276
 30
0.0
 11
753.0908128471736
 21
558.8939010538276
 31
0.0
  0
LINE
  5
1572E
330
1F
100
AcDbEntity
  8
0000躯体
  6
Continuous
100
AcDbLine
 10
753.0908128471736
 20
558.8939010538276
 30
0.0
 11
753.0908128471736
 21
643.8939010538277
 31
0.0
  0
LINE
  5
1572F
330
1F
100
AcDbEntity
  8
0000躯体
  6
Continuous
100
AcDbLine
 10
753.0908128471736
 20
643.8939010538277
 30
0.0
 11
793.0908128471736
 21
643.8939010538277
 31
0.0
  0
LINE
  5
15730
330
1F
100
AcDbEntity
  8
0000躯体
  6
Continuous
100
AcDbLine
 10
793.0908128471736
 20
643.8939010538277
 30
0.0
 11
793.0908128471736
 21
703.8939010538276
 31
0.0
  0
LINE
  5
15731
330
1F
100
AcDbEntity
  8
0000躯体
  6
Continuous
100
AcDbLine
 10
793.0908128471736
 20
703.8939010538276
 30
0.0
 11
778.0908128471736
 21
718.8939010538277
 31
0.0
  0
LINE
  5
15732
330
1F
100
AcDbEntity
  8
0000躯体
  6
Continuous
100
AcDbLine
 10
778.0908128471736
 20
718.8939010538277
 30
0.0
 11
732.0893818347484
 21
718.8939010538277
 31
0.0
  0
LINE
  5
15733
330
1F
100
AcDbEntity
  8
0000躯体
  6
Continuous
100
AcDbLine
 10
783.0908128471736
 20
558.8939010538276
 30
0.0
 11
753.0908128471736
 21
558.8939010538276
 31
0.0
  0
LINE
  5
15734
330
1F
100
AcDbEntity
  8
0000躯体
  6
Continuous
100
AcDbLine
 10
732.0893818347484
 20
533.8939010538276
 30
0.0
 11
768.0908128471736
 21
533.8939010538276
 31
0.0
  0
LINE
  5
15735
330
1F
100
AcDbEntity
  8
0000躯体
  6
Continuous
100
AcDbLine
 10
793.0908128471736
 20
538.8939010538276
 30
0.0
 11
793.0908128471736
 21
488.8939010538276
 31
0.0
  0
LINE
  5
15736
330
1F
100
AcDbEntity
  8
0000躯体
  6
Continuous
100
AcDbLine
 10
793.0908128471736
 20
488.8939010538276
 30
0.0
 11
768.0908128471736
 21
488.8939010538276
 31
0.0
  0
LINE
  5
15737
330
1F
100
AcDbEntity
  8
0000躯体
  6
Continuous
100
AcDbLine
 10
768.0908128471736
 20
511.3939010538277
 30
0.0
 11
768.0908128471736
 21
553.8939010538276
 31
0.0
  0
LINE
  5
15738
330
1F
100
AcDbEntity
  8
0000躯体
  6
Continuous
100
AcDbLine
 10
768.0908128471736
 20
553.8939010538276
 30
0.0
 11
790.0908128471736
 21
553.8939010538276
 31
0.0
  0
LINE
  5
15739
330
1F
100
AcDbEntity
  8
0000躯体
  6
Continuous
100
AcDbLine
 10
773.0908128471736
 20
498.8939010538277
 30
0.0
 11
732.0893818347484
 21
498.8939010538277
 31
0.0
  0
LINE
  5
1573A
330
1F
100
AcDbEntity
  8
0000躯体
  6
Continuous
100
AcDbLine
 10
768.0908128471736
 20
498.8939010538277
 30
0.0
 11
773.0908128471736
 21
498.8939010538277
 31
0.0
  0
LINE
  5
1573B
330
1F
100
AcDbEntity
  8
0000躯体
  6
Continuous
100
AcDbLine
 10
773.0908128471736
 20
498.8939010538277
 30
0.0
 11
773.0908128471736
 21
511.3939010538277
 31
0.0
  0
LINE
  5
1573C
330
1F
100
AcDbEntity
  8
0000躯体
  6
Continuous
100
AcDbLine
 10
773.0908128471736
 20
511.3939010538277
 30
0.0
 11
768.0908128471736
 21
511.3939010538277
 31
0.0
  0
LINE
  5
1573D
330
1F
100
AcDbEntity
  8
0000躯体
  6
Continuous
100
AcDbLine
 10
732.0893818347484
 20
508.3939010538276
 30
0.0
 11
773.0908128471736
 21
508.3939010538276
 31
0.0
  0
LINE
  5
1573E
330
1F
100
AcDbEntity
  8
0000躯体
  6
Continuous
100
AcDbLine
 10
773.0908128471736
 20
508.3939010538276
 30
0.0
 11
773.0908128471736
 21
498.8939010538277
 31
0.0
  0
LINE
  5
1573F
330
1F
100
AcDbEntity
  8
0000躯体
  6
Continuous
100
AcDbLine
 10
768.0908128471736
 20
488.8939010538276
 30
0.0
 11
768.0908128471736
 21
498.8939010538277
 31
0.0
  0
LINE
  5
15740
330
1F
100
AcDbEntity
  8
0000躯体
  6
Continuous
100
AcDbLine
 10
790.0908128471736
 20
553.8939010538276
 30
0.0
 11
790.0908128471736
 21
538.8939010538275
 31
0.0
  0
LINE
  5
15741
330
1F
100
AcDbEntity
  8
0000躯体
  6
Continuous
100
AcDbLine
 10
790.0908128471736
 20
538.8939010538275
 30
0.0
 11
793.0908128471736
 21
538.8939010538275
 31
0.0
  0
LINE
  5
15742
330
1F
100
AcDbEntity
  8
0000躯体
 48
0.5
100
AcDbLine
 10
792.0908128471737
 20
643.8939010538277
 30
0.0
 11
792.0908128471737
 21
628.8939010538277
 31
0.0
  0
LINE
  5
17E2E
330
1F
100
AcDbEntity
  8
0000躯体
 48
0.5
100
AcDbLine
 10
228.0140261248952
 20
742.9840894430757
 30
0.0
 11
233.0140261248952
 21
742.9840894430757
 31
0.0
  0
LINE
  5
17E2F
330
1F
100
AcDbEntity
  8
0000躯体
  6
Continuous
100
AcDbLine
 10
768.0908128471736
 20
558.8939010538276
 30
0.0
 11
768.0908128471736
 21
553.8939010538276
 31
0.0
  0
LINE
  5
17E30
330
1F
100
AcDbEntity
  8
0000躯体
  6
Continuous
100
AcDbLine
 10
998.0908128471735
 20
558.8939010538276
 30
0.0
 11
998.0908128471735
 21
553.8939010538276
 31
0.0
  0
LINE
  5
18110
330
1F
100
AcDbEntity
  8
002
100
AcDbLine
 10
-13.26284375907214
 20
861.0
 30
0.0
 11
1126.737156240927
 21
861.0
 31
0.0
  0
LINE
  5
18111
330
1F
100
AcDbEntity
  8
002
100
AcDbLine
 10
-13.26284375907237
 20
60.0
 30
0.0
 11
1126.737156240927
 21
60.0
 31
0.0
  0
LINE
  5
18112
330
1F
100
AcDbEntity
  8
002
100
AcDbLine
 10
-13.26284375907214
 20
861.0
 30
0.0
 11
-13.26284375907237
 21
60.0
 31
0.0
  0
LINE
  5
18113
330
1F
100
AcDbEntity
  8
002
100
AcDbLine
 10
1126.737156240927
 20
861.0
 30
0.0
 11
1126.737156240927
 21
60.0
 31
0.0
  0
LINE
  5
18114
330
1F
100
AcDbEntity
  8
0
100
AcDbLine
 10
381.2371562409272
 20
81.0
 30
0.0
 11
580.7371562409271
 21
81.0
 31
0.0
  0
LINE
  5
18115
330
1F
100
AcDbEntity
  8
002
100
AcDbLine
 10
-13.26284375907237
 20
102.0
 30
0.0
 11
1126.737156240927
 21
102.0
 31
0.0
  0
TEXT
  5
18116
330
1F
100
AcDbEntity
  8
Defpoints
100
AcDbText
 10
147.5149097513486
 20
76.0
 30
0.0
 40
10.0
  1
ＡＡＡＡＡＡＡＡＡ
  7
ｺﾞｼｯｸ（横）
 11
147.5149097513486
 21
81.0
 31
0.0
100
AcDbText
 73
     2
  0
LINE
  5
18117
330
1F
100
AcDbEntity
  8
0
100
AcDbLine
 10
127.1371562409271
 20
70.5
 30
0.0
 11
-0.6628437590724623
 21
70.5
 31
0.0
  0
LINE
  5
18118
330
1F
100
AcDbEntity
  8
0
100
AcDbLine
 10
127.1371562409271
 20
91.5
 30
0.0
 11
-0.6628437590724623
 21
91.5
 31
0.0
  0
LINE
  5
18119
330
1F
100
AcDbEntity
  8
0
100
AcDbLine
 10
127.1371562409271
 20
81.0
 30
0.0
 11
-0.6628437590724623
 21
81.0
 31
0.0
  0
LINE
  5
1811B
330
1F
100
AcDbEntity
  8
0
100
AcDbLine
 10
-2.762843759072371
 20
102.0
 30
0.0
 11
-2.762843759072371
 21
60.0
 31
0.0
  0
TEXT
  5
1811C
330
1F
100
AcDbEntity
  8
0
100
AcDbText
 10
131.2476676045635
 20
97.5375
 30
0.0
 40
6.299999999999998
  1
工 事 名
 50
270.0
  7
ｺﾞｼｯｸ（縦）
 72
     4
 11
134.4871562409271
 21
81.0
 31
0.0
100
AcDbText
  0
LINE
  5
1811D
330
1F
100
AcDbEntity
  8
0
100
AcDbLine
 10
139.7371562409271
 20
102.0
 30
0.0
 11
139.7371562409271
 21
60.0
 31
0.0
  0
LINE
  5
1811E
330
1F
100
AcDbEntity
  8
0
100
AcDbLine
 10
129.2371562409271
 20
102.0
 30
0.0
 11
129.2371562409271
 21
60.0
 31
0.0
  0
TEXT
  5
1811F
330
1F
100
AcDbEntity
  8
0
100
AcDbText
 10
353.6296100921161
 20
76.79999999999999
 30
0.0
 40
8.4
  1
工事
  7
ｺﾞｼｯｸ（横）
 72
     2
 11
378.0659737284797
 21
81.0
 31
0.0
100
AcDbText
 73
     2
  0
LINE
  5
18121
330
1F
100
AcDbEntity
  8
0
100
AcDbLine
 10
391.7371562409272
 20
102.0
 30
0.0
 11
391.7371562409272
 21
60.0
 31
0.0
  0
LINE
  5
18122
330
1F
100
AcDbEntity
  8
0
100
AcDbLine
 10
381.2371562409272
 20
102.0
 30
0.0
 11
381.2371562409272
 21
60.0
 31
0.0
  0
LINE
  5
18124
330
1F
100
AcDbEntity
  8
0
100
AcDbLine
 10
977.637156240927
 20
91.5
 30
0.0
 11
931.4371562409272
 21
91.5
 31
0.0
  0
TEXT
  5
18125
330
1F
100
AcDbEntity
  8
Defpoints
100
AcDbText
 10
938.9303380591089
 20
62.1
 30
0.0
 40
6.299999999999998
  1
00.00.00
  7
ｺﾞｼｯｸ（横）
 72
     1
 11
954.5371562409272
 21
65.25
 31
0.0
100
AcDbText
 73
     2
  0
LINE
  5
18126
330
1F
100
AcDbEntity
  8
0
100
AcDbLine
 10
977.637156240927
 20
70.5
 30
0.0
 11
931.4371562409272
 21
70.5
 31
0.0
  0
LINE
  5
18127
330
1F
100
AcDbEntity
  8
0
100
AcDbLine
 10
929.3371562409271
 20
81.0
 30
0.0
 11
1126.737156240927
 21
81.0
 31
0.0
  0
TEXT
  5
18128
330
1F
100
AcDbEntity
  8
0
100
AcDbText
 10
567.3083309350337
 20
87.47880713460409
 30
0.0
 40
8.4
  1
殿
  7
ｺﾞｼｯｸ（横）
 72
     1
 11
573.4174218441246
 21
91.67880713460409
 31
0.0
100
AcDbText
 73
     2
  0
LINE
  5
1812A
330
1F
100
AcDbEntity
  8
0
100
AcDbLine
 10
591.2371562409272
 20
102.0
 30
0.0
 11
591.2371562409272
 21
60.0
 31
0.0
  0
LINE
  5
1812B
330
1F
100
AcDbEntity
  8
0
100
AcDbLine
 10
580.7371562409271
 20
102.0
 30
0.0
 11
580.7371562409271
 21
60.0
 31
0.0
  0
TEXT
  5
1812C
330
1F
100
AcDbEntity
  8
0
100
AcDbText
 10
567.3083309350337
 20
66.47880713460408
 30
0.0
 40
8.4
  1
殿
  7
ｺﾞｼｯｸ（横）
 72
     1
 11
573.4174218441246
 21
70.67880713460408
 31
0.0
100
AcDbText
 73
     2
  0
TEXT
  5
1812E
330
1F
100
AcDbEntity
  8
0
100
AcDbText
 10
784.978452695202
 20
62.453750830227
 30
0.0
 40
6.299999999999998
  1
年　　　月　　　日
  7
ｺﾞｼｯｸ（横）
 72
     1
 11
816.9795890588384
 21
65.603750830227
 31
0.0
100
AcDbText
 73
     2
  0
TEXT
  5
1812F
330
1F
100
AcDbEntity
  8
0
100
AcDbText
 10
758.7837471500181
 20
93.59999999999999
 30
0.0
 40
6.299999999999998
  1
お　客　様　受　領　印
  7
ｺﾞｼｯｸ（横）
 72
     1
 11
801.2371562409272
 21
96.75
 31
0.0
100
AcDbText
 73
     2
  0
LINE
  5
18130
330
1F
100
AcDbEntity
  8
0
100
AcDbLine
 10
748.7371562409272
 20
91.5
 30
0.0
 11
929.3371562409271
 21
91.5
 31
0.0
  0
LINE
  5
18131
330
1F
100
AcDbEntity
  8
0
100
AcDbLine
 10
748.7371562409272
 20
102.0
 30
0.0
 11
748.7371562409272
 21
60.0
 31
0.0
  0
LINE
  5
18132
330
1F
100
AcDbEntity
  8
0
100
AcDbLine
 10
853.7371562409273
 20
102.0
 30
0.0
 11
853.7371562409273
 21
60.0
 31
0.0
  0
TEXT
  5
18133
330
1F
100
AcDbEntity
  8
0
100
AcDbText
 10
860.4309062409271
 20
93.59999999999999
 30
0.0
 40
6.299999999999998
  1
担　当
  7
ｺﾞｼｯｸ（横）
 72
     1
 11
872.6371562409271
 21
96.75
 31
0.0
100
AcDbText
 73
     2
  0
LINE
  5
18134
330
1F
100
AcDbEntity
  8
0
100
AcDbLine
 10
929.3371562409271
 20
102.0
 30
0.0
 11
929.3371562409271
 21
60.0
 31
0.0
  0
LINE
  5
18135
330
1F
100
AcDbEntity
  8
0
100
AcDbLine
 10
891.5371562409271
 20
102.0
 30
0.0
 11
891.5371562409271
 21
60.0
 31
0.0
  0
TEXT
  5
18136
330
1F
100
AcDbEntity
  8
Defpoints
100
AcDbText
 10
894.9735198772909
 20
71.55
 30
0.0
 40
8.4
  1
AAAA
  7
ｺﾞｼｯｸ（横）
 72
     1
 11
910.4371562409273
 21
75.75
 31
0.0
100
AcDbText
 73
     2
  0
TEXT
  5
18137
330
1F
100
AcDbEntity
  8
0
100
AcDbText
 10
898.2309062409273
 20
93.59999999999999
 30
0.0
 40
6.299999999999998
  1
作　図
  7
ｺﾞｼｯｸ（横）
 72
     1
 11
910.4371562409273
 21
96.75
 31
0.0
100
AcDbText
 73
     2
  0
TEXT
  5
18138
330
1F
100
AcDbEntity
  8
0
100
AcDbText
 10
1016.131812950899
 20
66.9630905889267
 30
0.0
 40
8.4
  1
株式会社
  7
ｺﾞｼｯｸ（横）
 72
     1
 11
1040.568176587263
 21
71.16309058892671
 31
0.0
100
AcDbText
 73
     2
  0
LINE
  5
1813A
330
1F
100
AcDbEntity
  8
0
100
AcDbLine
 10
983.4060579628202
 20
71.9011475359182
 30
0.0
 11
1001.99297610282
 21
61.89755939591805
 31
0.0
  0
LINE
  5
1813B
330
1F
100
AcDbEntity
  8
0
100
AcDbLine
 10
983.0675522428206
 20
68.91666239591836
 30
0.0
 11
1001.99297610282
 21
79.10243939591805
 31
0.0
  0
LINE
  5
1813C
330
1F
100
AcDbEntity
  8
0
100
AcDbLine
 10
979.7371562409272
 20
102.0
 30
0.0
 11
979.7371562409272
 21
60.0
 31
0.0
  0
TEXT
  5
1813D
330
1F
100
AcDbEntity
  8
Defpoints
100
AcDbText
 10
940.7917016954726
 20
83.1
 30
0.0
 40
6.299999999999998
  1
000000
  7
ｺﾞｼｯｸ（横）
 72
     1
 11
954.5371562409272
 21
86.25
 31
0.0
100
AcDbText
 73
     2
  0
TEXT
  5
1813E
330
1F
100
AcDbEntity
  8
0
100
AcDbText
 10
940.7917016954726
 20
72.59999999999999
 30
0.0
 40
6.299999999999998
  1
作成日
  7
ｺﾞｼｯｸ（横）
 72
     1
 11
954.5371562409272
 21
75.75
 31
0.0
100
AcDbText
 73
     2
  0
TEXT
  5
1813F
330
1F
100
AcDbEntity
  8
0
100
AcDbText
 10
949.2752244227453
 20
93.59999999999999
 30
0.0
 40
6.299999999999998
  1
No
  7
ｺﾞｼｯｸ（横）
 72
     1
 11
954.5371562409272
 21
96.75
 31
0.0
100
AcDbText
 73
     2
  0
LINE
  5
18140
330
1F
100
AcDbEntity
  8
0
100
AcDbLine
 10
990.2371562409271
 20
102.0
 30
0.0
 11
990.2371562409271
 21
81.0
 31
0.0
  0
TEXT
  5
18141
330
1F
100
AcDbEntity
  8
0
100
AcDbText
 10
1012.573519877291
 20
87.3
 30
0.0
 40
8.4
  1
1/3
  7
ｺﾞｼｯｸ（横）
 72
     1
 11
1021.737156240927
 21
91.5
 31
0.0
100
AcDbText
 73
     2
  0
LINE
  5
18142
330
1F
100
AcDbEntity
  8
0
100
AcDbLine
 10
995.8273786228206
 20
62.04924869591764
 30
0.0
 11
1014.75279954282
 21
72.23502569591778
 31
0.0
  0
LINE
  5
18143
330
1F
100
AcDbEntity
  8
0
100
AcDbLine
 10
996.4477274428205
 20
61.71537347591812
 30
0.0
 11
1015.373151302821
 21
71.9011475359182
 31
0.0
  0
LINE
  5
18144
330
1F
100
AcDbEntity
  8
0
100
AcDbLine
 10
996.7862361028204
 20
79.10243939591805
 30
0.0
 11
1015.711657022821
 21
68.91666239591836
 31
0.0
  0
LINE
  5
18145
330
1F
100
AcDbEntity
  8
0
100
AcDbLine
 10
996.1658843428203
 20
78.76856417591785
 30
0.0
 11
1015.091308202821
 21
68.58278717591748
 31
0.0
  0
LINE
  5
18146
330
1F
100
AcDbEntity
  8
0
100
AcDbLine
 10
983.6879040028206
 20
68.58278717591748
 30
0.0
 11
1002.613324922821
 21
78.76856417591785
 31
0.0
  0
TEXT
  5
18147
330
1F
100
AcDbEntity
  8
0
100
AcDbText
 10
993.906870662821
 20
66.09000233591746
 30
0.0
 40
8.819999999999998
  1
ＡＬ
 41
0.6360784961240127
  7
ｺﾞｼｯｸ（横）
 72
     5
 11
1004.87228568282
 21
66.09000233591746
 31
0.0
100
AcDbText
  0
LINE
  5
18148
330
1F
100
AcDbEntity
  8
0
100
AcDbLine
 10
984.0264097228207
 20
72.23502569591778
 30
0.0
 11
1002.95183358282
 21
62.04924869591764
 31
0.0
  0
POINT
  5
18149
330
1F
100
AcDbEntity
  8
0
100
AcDbPoint
 10
999.3896061028207
 20
70.49999939591771
 30
0.0
  0
TEXT
  5
1814A
330
1F
100
AcDbEntity
  8
0
100
AcDbText
 10
1072.101575109979
 20
64.2
 30
0.0
 40
12.6
  1
丸　忠
  7
ｺﾞｼｯｸ（横）
 72
     1
 11
1096.514075109979
 21
70.5
 31
0.0
100
AcDbText
 73
     2
  0
LINE
  5
1814C
330
1F
100
AcDbEntity
  8
0
100
AcDbLine
 10
1053.237156240927
 20
102.0
 30
0.0
 11
1053.237156240927
 21
81.0
 31
0.0
  0
LINE
  5
1814D
330
1F
100
AcDbEntity
  8
0
100
AcDbLine
 10
1063.737156240927
 20
102.0
 30
0.0
 11
1063.737156240927
 21
81.0
 31
0.0
  0
POINT
  5
18154
330
1F
100
AcDbEntity
  8
0000寸法
 48
0.5
100
AcDbPoint
 10
-19.26284375907214
 20
867.0
 30
0.0
  0
TEXT
  5
18353
330
1F
100
AcDbEntity
  8
0
100
AcDbText
 10
-11.3060255772542
 20
93.20624999999999
 30
0.0
 40
6.299999999999998
  1
特　記
 50
270.0
  7
ｺﾞｼｯｸ（縦）
 72
     4
 11
-8.012843759072381
 21
81.0
 31
0.0
100
AcDbText
  0
TEXT
  5
18355
330
1F
100
AcDbEntity
  8
0
100
AcDbText
 10
384.1476676045635
 20
101.3181818181818
 30
0.0
 40
4.5
  1
御設計
 50
270.0
  7
ｺﾞｼｯｸ（縦）
 72
     4
 11
386.4871562409271
 21
91.5
 31
0.0
100
AcDbText
  0
TEXT
  5
18357
330
1F
100
AcDbEntity
  8
0
100
AcDbText
 10
384.1476676045635
 20
80.31818181818181
 30
0.0
 40
4.5
  1
御施行
 50
270.0
  7
ｺﾞｼｯｸ（縦）
 72
     4
 11
386.4871562409271
 21
70.5
 31
0.0
100
AcDbText
  0
TEXT
  5
18358
330
1F
100
AcDbEntity
  8
0
100
AcDbText
 10
582.6402812409273
 20
99.32727272727273
 30
0.0
 40
6.299999999999998
  1
図面名称
 50
270.0
  7
ｺﾞｼｯｸ（縦）
 72
     4
 11
585.9871562409272
 21
81.0
 31
0.0
100
AcDbText
  0
TEXT
  5
1835B
330
1F
100
AcDbEntity
  8
0
100
AcDbText
 10
982.4445426045636
 20
98.77272727272728
 30
0.0
 40
5.0
  1
縮尺
 50
270.0
  7
ｺﾞｼｯｸ（縦）
 72
     4
 11
984.9871562409273
 21
91.5
 31
0.0
100
AcDbText
  0
TEXT
  5
1835D
330
1F
100
AcDbEntity
  8
0
100
AcDbText
 10
1055.930338059109
 20
98.77272727272728
 30
0.0
 40
5.0
  1
図番
 50
270.0
  7
ｺﾞｼｯｸ（縦）
 72
     4
 11
1058.487156240927
 21
91.5
 31
0.0
100
AcDbText
  0
LINE
  5
1FAA1
330
1F
100
AcDbEntity
  8
0
100
AcDbLine
 10
228.0140261248952
 20
552.9840894430757
 30
0.0
 11
228.0140261248952
 21
677.5911114814443
 31
0.0
  0
LINE
  5
1FAA2
330
1F
100
AcDbEntity
  8
0
100
AcDbLine
 10
158.0140261248951
 20
505.904089443076
 30
0.0
 11
158.0140261248951
 21
677.5911114814443
 31
0.0
  0
LINE
  5
1FAA3
330
1F
100
AcDbEntity
  8
0
100
AcDbLine
 10
186.0040261248949
 20
501.6840894430759
 30
0.0
 11
206.0240261248949
 21
501.6840894430759
 31
0.0
  0
LINE
  5
1FAA4
330
1F
100
AcDbEntity
  8
0
100
AcDbLine
 10
178.0240261248949
 20
503.6240894430758
 30
0.0
 11
206.0440261248949
 21
503.6240894430758
 31
0.0
  0
LINE
  5
1FAAD
330
1F
100
AcDbEntity
  8
0
100
AcDbLine
 10
176.0240261248949
 20
497.704089443076
 30
0.0
 11
176.0240261248949
 21
513.6240894430758
 31
0.0
  0
LINE
  5
1FAAE
330
1F
100
AcDbEntity
  8
0
100
AcDbLine
 10
160.0240261248949
 20
495.9840894430757
 30
0.0
 11
160.0240261248949
 21
505.9040894430758
 31
0.0
  0
LINE
  5
1FAAF
330
1F
100
AcDbEntity
  8
0
100
AcDbLine
 10
158.0140261248951
 20
495.7940894430759
 30
0.0
 11
158.0140261248951
 21
505.9040894430758
 31
0.0
  0
LINE
  5
1FAB0
330
1F
100
AcDbEntity
  8
0
100
AcDbLine
 10
160.0240261248949
 20
495.9940894430759
 30
0.0
 11
176.0240261248949
 21
497.704089443076
 31
0.0
  0
LINE
  5
1FAB1
330
1F
100
AcDbEntity
  8
0
100
AcDbLine
 10
158.0140261248951
 20
493.5357779438037
 30
0.0
 11
165.154026124895
 21
494.4191840573408
 31
0.0
  0
LINE
  5
1FAB3
330
1F
100
AcDbEntity
  8
0
100
AcDbLine
 10
169.154026124895
 20
482.9840894430757
 30
0.0
 11
169.154026124895
 21
494.9140894430757
 31
0.0
  0
LINE
  5
1FAC6
330
1F
100
AcDbEntity
  8
0
100
AcDbLine
 10
158.0140261248951
 20
493.5357779438037
 30
0.0
 11
158.0140261248951
 21
495.7940894430759
 31
0.0
  0
LINE
  5
1FAD6
330
1F
100
AcDbEntity
  8
0
100
AcDbLine
 10
182.884026124895
 20
501.6840894430759
 30
0.0
 11
186.0040261248949
 21
501.6840894430759
 31
0.0
  0
LINE
  5
1FAD7
330
1F
100
AcDbEntity
  8
0
100
AcDbLine
 10
183.7440261248952
 20
498.9840894430757
 30
0.0
 11
187.1640261248952
 21
498.9840894430757
 31
0.0
  0
LINE
  5
1FAD8
330
1F
100
AcDbEntity
  8
0
100
AcDbLine
 10
182.6040261248951
 20
497.4840894430757
 30
0.0
 11
187.1640261248952
 21
497.4840894430757
 31
0.0
  0
LINE
  5
1FAD9
330
1F
100
AcDbEntity
  8
0
100
AcDbLine
 10
183.3040261248951
 20
500.3140894430758
 30
0.0
 11
183.7440261248952
 21
498.9840894430757
 31
0.0
  0
ARC
  5
1FADA
330
1F
100
AcDbEntity
  8
0
100
AcDbCircle
 10
179.8340261248951
 20
499.9440894430757
 30
0.0
 40
3.49
100
AcDbArc
 50
6.086351300003053
 51
29.86691599999636
  0
ARC
  5
1FADB
330
1F
100
AcDbEntity
  8
0
100
AcDbCircle
 10
179.654026124895
 20
499.9440894430757
 30
0.0
 40
1.98
100
AcDbArc
 50
355.3567200000061
 51
277.8434200000051
  0
ARC
  5
1FADC
330
1F
100
AcDbEntity
  8
0
100
AcDbCircle
 10
179.8340261248951
 20
499.9440894430757
 30
0.0
 40
3.49
100
AcDbArc
 50
238.2206000000093
 51
273.7812899999978
  0
LINE
  5
1FADD
330
1F
100
AcDbEntity
  8
0
100
AcDbLine
 10
177.9940261248952
 20
495.7640894430759
 30
0.0
 11
177.9940261248952
 21
496.9740894430759
 31
0.0
  0
LINE
  5
1FADE
330
1F
100
AcDbEntity
  8
0
100
AcDbLine
 10
176.0240261248949
 20
495.7640894430759
 30
0.0
 11
177.9940261248952
 21
495.7640894430759
 31
0.0
  0
ARC
  5
1FADF
330
1F
100
AcDbEntity
  8
0
100
AcDbCircle
 10
179.3540261248951
 20
497.164089443076
 30
0.0
 40
1.0
100
AcDbArc
 50
315.4063400000012
 51
54.72757799999691
  0
ARC
  5
1FAE0
330
1F
100
AcDbEntity
  8
0
100
AcDbCircle
 10
182.444026124895
 20
500.3640894430758
 30
0.0
 40
1.0
100
AcDbArc
 50
214.8040100000061
 51
215.2724200000171
  0
LINE
  5
1FAE1
330
1F
100
AcDbEntity
  8
0
100
AcDbLine
 10
181.624026124895
 20
499.7940894430759
 30
0.0
 11
182.6040261248951
 21
497.4840894430757
 31
0.0
  0
LINE
  5
1FAE5
330
1F
100
AcDbEntity
  8
0
100
AcDbLine
 10
187.1640261248952
 20
497.4840894430757
 30
0.0
 11
187.1640261248952
 21
498.9840894430757
 31
0.0
  0
LINE
  5
1FAEA
330
1F
100
AcDbEntity
  8
0
100
AcDbLine
 10
158.0140261248951
 20
505.9040894430758
 30
0.0
 11
160.0240261248949
 21
505.9040894430758
 31
0.0
  0
LINE
  5
1FAEB
330
1F
100
AcDbEntity
  8
0
100
AcDbLine
 10
178.0240261248949
 20
503.6240894430758
 30
0.0
 11
178.0240261248949
 21
513.6240894430758
 31
0.0
  0
LINE
  5
1FAEC
330
1F
100
AcDbEntity
  8
0
100
AcDbLine
 10
176.0240261248949
 20
513.6240894430758
 30
0.0
 11
178.0240261248949
 21
513.6240894430758
 31
0.0
  0
LINE
  5
1FAED
330
1F
100
AcDbEntity
  8
0
100
AcDbLine
 10
226.0140261248952
 20
531.9840894430757
 30
0.0
 11
226.0140261248952
 21
552.9840894430757
 31
0.0
  0
LINE
  5
1FAEE
330
1F
100
AcDbEntity
  8
0
100
AcDbLine
 10
228.0140261248952
 20
531.9840894430757
 30
0.0
 11
228.0140261248952
 21
551.9840894430757
 31
0.0
  0
LINE
  5
1FAEF
330
1F
100
AcDbEntity
  8
0
100
AcDbLine
 10
207.6040261248951
 20
501.6840894430759
 30
0.0
 11
207.6040261248951
 21
512.1740894430757
 31
0.0
  0
LINE
  5
1FAF4
330
1F
100
AcDbEntity
  8
0
100
AcDbLine
 10
203.5640261248951
 20
501.6840894430759
 30
0.0
 11
207.6040261248951
 21
501.6840894430759
 31
0.0
  0
LINE
  5
1FAF5
330
1F
100
AcDbEntity
  8
0
100
AcDbLine
 10
212.0240261248949
 20
520.6240894430758
 30
0.0
 11
226.0240261248949
 21
520.6240894430758
 31
0.0
  0
LINE
  5
1FAF6
330
1F
100
AcDbEntity
  8
0
100
AcDbLine
 10
215.1340261248951
 20
518.5940894430758
 30
0.0
 11
226.0240261248949
 21
518.5940894430758
 31
0.0
  0
LINE
  5
1FAF7
330
1F
100
AcDbEntity
  8
0
100
AcDbLine
 10
208.2440261248952
 20
513.6240894430758
 30
0.0
 11
208.2440261248952
 21
520.6240894430758
 31
0.0
  0
LINE
  5
1FAF8
330
1F
100
AcDbEntity
  8
0
100
AcDbLine
 10
201.9140261248952
 20
512.5640894430758
 30
0.0
 11
208.2440261248952
 21
513.6240894430758
 31
0.0
  0
LINE
  5
1FAF9
330
1F
100
AcDbEntity
  8
0
100
AcDbLine
 10
206.0440261248949
 20
503.6240894430758
 30
0.0
 11
206.0440261248949
 21
511.914089443076
 31
0.0
  0
LINE
  5
1FAFA
330
1F
100
AcDbEntity
  8
0
100
AcDbLine
 10
203.3640261248951
 20
510.2340894430757
 30
0.0
 11
203.3640261248951
 21
511.4640894430757
 31
0.0
  0
LINE
  5
1FAFB
330
1F
100
AcDbEntity
  8
0
100
AcDbLine
 10
201.9140261248952
 20
510.2340894430757
 30
0.0
 11
201.9140261248952
 21
512.5640894430758
 31
0.0
  0
LINE
  5
1FAFC
330
1F
100
AcDbEntity
  8
0
100
AcDbLine
 10
201.9140261248952
 20
510.2340894430757
 30
0.0
 11
203.464026124895
 21
510.2340894430757
 31
0.0
  0
LINE
  5
1FAFD
330
1F
100
AcDbEntity
  8
0
100
AcDbLine
 10
201.9140261248952
 20
510.2340894430757
 30
0.0
 11
203.464026124895
 21
510.2340894430757
 31
0.0
  0
LINE
  5
1FAFE
330
1F
100
AcDbEntity
  8
0
100
AcDbLine
 10
203.3640261248951
 20
511.4640894430757
 30
0.0
 11
206.0440261248949
 21
511.914089443076
 31
0.0
  0
ARC
  5
1FAFF
330
1F
100
AcDbEntity
  8
0
100
AcDbCircle
 10
212.0240261248949
 20
516.9940894430759
 30
0.0
 40
1.98
100
AcDbArc
 50
0.0
 51
279.6051999999979
  0
ARC
  5
1FB00
330
1F
100
AcDbEntity
  8
0
100
AcDbCircle
 10
211.6540261248951
 20
514.3240894430759
 30
0.0
 40
1.0
100
AcDbArc
 50
317.0309100000003
 51
46.21887499999597
  0
LINE
  5
1FB01
330
1F
100
AcDbEntity
  8
0
100
AcDbLine
 10
207.6040261248951
 20
512.1740894430757
 30
0.0
 11
209.214026124895
 21
512.4440894430757
 31
0.0
  0
LINE
  5
1FB02
330
1F
100
AcDbEntity
  8
0
100
AcDbLine
 10
209.214026124895
 20
512.4440894430757
 30
0.0
 11
210.0240261248949
 21
512.5840894430758
 31
0.0
  0
LINE
  5
1FB03
330
1F
100
AcDbEntity
  8
0
100
AcDbLine
 10
210.0240261248949
 20
512.5840894430758
 30
0.0
 11
210.0240261248949
 21
514.2740894430759
 31
0.0
  0
ARC
  5
1FB04
330
1F
100
AcDbEntity
  8
0
100
AcDbCircle
 10
212.0240261248949
 20
517.0840894430758
 30
0.0
 40
3.459999999999999
100
AcDbArc
 50
234.6549700000028
 51
275.9743200000041
  0
ARC
  5
1FB05
330
1F
100
AcDbEntity
  8
0
100
AcDbCircle
 10
214.7640261248952
 20
517.6440894430758
 30
0.0
 40
1.0
100
AcDbArc
 50
220.5391499999991
 51
316.2188699999981
  0
ARC
  5
1FB06
330
1F
100
AcDbEntity
  8
0
100
AcDbCircle
 10
212.0240261248949
 20
517.0840894430758
 30
0.0
 40
3.459999999999999
100
AcDbArc
 50
357.6829299999963
 51
25.89798899998794
  0
LINE
  5
1FB07
330
1F
100
AcDbEntity
  8
0
100
AcDbLine
 10
212.0240261248949
 20
520.6240894430758
 30
0.0
 11
212.0240261248949
 21
530.6240894430758
 31
0.0
  0
LINE
  5
1FB08
330
1F
100
AcDbEntity
  8
0
100
AcDbLine
 10
210.0240261248949
 20
520.6240894430758
 30
0.0
 11
210.0240261248949
 21
530.6240894430758
 31
0.0
  0
LINE
  5
1FB09
330
1F
100
AcDbEntity
  8
0
100
AcDbLine
 10
208.2440261248952
 20
520.6240894430758
 30
0.0
 11
210.0240261248949
 21
520.6240894430758
 31
0.0
  0
LINE
  5
1FB0A
330
1F
100
AcDbEntity
  8
0
100
AcDbLine
 10
210.0240261248949
 20
530.6240894430758
 30
0.0
 11
212.0240261248949
 21
530.6240894430758
 31
0.0
  0
LINE
  5
1FB0B
330
1F
100
AcDbEntity
  8
0
100
AcDbLine
 10
228.0140261248952
 20
507.9840894430757
 30
0.0
 11
228.0140261248952
 21
531.9840894430757
 31
0.0
  0
LINE
  5
1FB0C
330
1F
100
AcDbEntity
  8
0
100
AcDbLine
 10
226.0240261248949
 20
509.4840894430757
 30
0.0
 11
226.0240261248949
 21
518.5940894430758
 31
0.0
  0
LINE
  5
1FB13
330
1F
100
AcDbEntity
  8
0
100
AcDbLine
 10
223.0140261248952
 20
507.9840894430757
 30
0.0
 11
223.0140261248952
 21
509.4840894430757
 31
0.0
  0
LINE
  5
1FB16
330
1F
100
AcDbEntity
  8
0
100
AcDbLine
 10
223.0140261248952
 20
509.4840894430757
 30
0.0
 11
226.0240261248949
 21
509.4840894430757
 31
0.0
  0
LINE
  5
1FB18
330
1F
100
AcDbEntity
  8
0
100
AcDbLine
 10
223.0140261248952
 20
507.9840894430757
 30
0.0
 11
228.0140261248952
 21
507.9840894430757
 31
0.0
  0
LINE
  5
1FB19
330
1F
100
AcDbEntity
  8
0
100
AcDbLine
 10
226.0140261248952
 20
520.6240894430758
 30
0.0
 11
226.0140261248952
 21
533.3840894430758
 31
0.0
  0
LINE
  5
1FB1A
330
1F
100
AcDbEntity
  8
0
100
AcDbLine
 10
228.0140261248952
 20
551.9840894430757
 30
0.0
 11
245.0540261248951
 21
551.9840894430757
 31
0.0
  0
LINE
  5
1FB1B
330
1F
100
AcDbEntity
  8
0
100
AcDbLine
 10
228.0140261248952
 20
552.9840894430757
 30
0.0
 11
248.0140261248952
 21
552.9840894430757
 31
0.0
  0
LINE
  5
1FB1C
330
1F
100
AcDbEntity
  8
0
100
AcDbLine
 10
226.0140261248952
 20
552.9840894430757
 30
0.0
 11
228.0140261248952
 21
552.9840894430757
 31
0.0
  0
LINE
  5
1FB1D
330
1F
100
AcDbEntity
  8
0
100
AcDbLine
 10
248.0140261248952
 20
549.7540894430759
 30
0.0
 11
248.0140261248952
 21
552.9840894430757
 31
0.0
  0
LINE
  5
1FB1E
330
1F
100
AcDbEntity
  8
0
100
AcDbLine
 10
245.0540261248951
 20
551.9840894430757
 30
0.0
 11
246.1140261248951
 21
551.9840894430757
 31
0.0
  0
LINE
  5
1FB1F
330
1F
100
AcDbEntity
  8
0
100
AcDbLine
 10
246.1140261248951
 20
549.7540894430759
 30
0.0
 11
246.1140261248951
 21
551.9840894430757
 31
0.0
  0
LINE
  5
1FB20
330
1F
100
AcDbEntity
  8
0
100
AcDbLine
 10
246.1140261248951
 20
549.7540894430759
 30
0.0
 11
248.0140261248952
 21
549.7540894430759
 31
0.0
  0
LINE
  5
1FD06
330
1F
100
AcDbEntity
  8
0
100
AcDbLine
 10
228.0140261248952
 20
682.5911114814442
 30
0.0
 11
228.0140261248952
 21
702.9840894430757
 31
0.0
  0
LINE
  5
1FD07
330
1F
100
AcDbEntity
  8
0
100
AcDbLine
 10
158.0140261248951
 20
682.5911114814442
 30
0.0
 11
158.0140261248951
 21
702.9840894430757
 31
0.0
  0
LINE
  5
1FD0A
330
1F
100
AcDbEntity
  8
0
100
AcDbLine
 10
213.3240261248951
 20
724.9040894430756
 30
0.0
 11
226.0240261248949
 21
724.9040894430756
 31
0.0
  0
LINE
  5
1FD0B
330
1F
100
AcDbEntity
  8
0
100
AcDbLine
 10
212.0140261248951
 20
722.9840894430757
 30
0.0
 11
226.0140261248952
 21
722.9840894430757
 31
0.0
  0
LINE
  5
1FD0C
330
1F
100
AcDbEntity
  8
0
100
AcDbLine
 10
158.0140261248951
 20
702.9840894430757
 30
0.0
 11
158.0140261248951
 21
737.9840894430757
 31
0.0
  0
LINE
  5
1FD10
330
1F
100
AcDbEntity
  8
0
100
AcDbLine
 10
160.0140261248951
 20
730.9840894430757
 30
0.0
 11
160.0140261248951
 21
736.4840894430757
 31
0.0
  0
LINE
  5
1FD12
330
1F
100
AcDbEntity
  8
0
100
AcDbLine
 10
160.0140261248951
 20
724.9840894430757
 30
0.0
 11
174.9940261248952
 21
724.9840894430757
 31
0.0
  0
LINE
  5
1FD13
330
1F
100
AcDbEntity
  8
0
100
AcDbLine
 10
160.0140261248951
 20
722.9840894430757
 30
0.0
 11
176.0140261248951
 21
722.9840894430757
 31
0.0
  0
LINE
  5
1FD1E
330
1F
100
AcDbEntity
  8
0
100
AcDbLine
 10
160.0140261248951
 20
702.9840894430757
 30
0.0
 11
160.0140261248951
 21
722.9840894430757
 31
0.0
  0
LINE
  5
1FD1F
330
1F
100
AcDbEntity
  8
0
100
AcDbLine
 10
158.0140261248951
 20
702.9840894430757
 30
0.0
 11
160.0140261248951
 21
702.9840894430757
 31
0.0
  0
LINE
  5
1FD2A
330
1F
100
AcDbEntity
  8
0
100
AcDbLine
 10
160.0140261248951
 20
724.9840894430757
 30
0.0
 11
160.0140261248951
 21
732.9840894430757
 31
0.0
  0
LINE
  5
1FD2B
330
1F
100
AcDbEntity
  8
0
100
AcDbLine
 10
181.124026124895
 20
729.0040894430757
 30
0.0
 11
206.7240261248952
 21
729.0040894430757
 31
0.0
  0
LINE
  5
1FD2C
330
1F
100
AcDbEntity
  8
0
100
AcDbLine
 10
182.0140261248951
 20
726.9840894430757
 30
0.0
 11
206.0140261248952
 21
726.9840894430757
 31
0.0
  0
LINE
  5
1FD2D
330
1F
100
AcDbEntity
  8
0
100
AcDbLine
 10
176.0140261248951
 20
702.9840894430757
 30
0.0
 11
176.0140261248951
 21
722.9840894430757
 31
0.0
  0
LINE
  5
1FD2E
330
1F
100
AcDbEntity
  8
0
100
AcDbLine
 10
178.0140261248951
 20
702.9840894430757
 30
0.0
 11
178.0140261248951
 21
722.9840894430757
 31
0.0
  0
LINE
  5
1FD2F
330
1F
100
AcDbEntity
  8
0
100
AcDbLine
 10
176.0140261248951
 20
702.9840894430757
 30
0.0
 11
178.0140261248951
 21
702.9840894430757
 31
0.0
  0
ARC
  5
1FD30
330
1F
100
AcDbEntity
  8
0
100
AcDbCircle
 10
178.0140261248951
 20
726.9840894430757
 30
0.0
 40
3.709999999999999
100
AcDbArc
 50
33.00443600000318
 51
122.5776600000082
  0
LINE
  5
1FD31
330
1F
100
AcDbEntity
  8
0
100
AcDbLine
 10
178.0140261248951
 20
722.9840894430757
 30
0.0
 11
184.0140261248951
 21
722.9840894430757
 31
0.0
  0
ARC
  5
1FD32
330
1F
100
AcDbEntity
  8
0
100
AcDbCircle
 10
176.9840261248949
 20
729.8540894430756
 30
0.0
 40
1.0
100
AcDbArc
 50
165.5475699999941
 51
270.5729299999937
  0
ARC
  5
1FD33
330
1F
100
AcDbEntity
  8
0
100
AcDbCircle
 10
178.0140261248951
 20
726.9840894430757
 30
0.0
 40
3.709999999999999
100
AcDbArc
 50
197.261820000006
 51
212.6609099999908
  0
ARC
  5
1FD34
330
1F
100
AcDbEntity
  8
0
100
AcDbCircle
 10
175.3640261248951
 20
725.4340894430757
 30
0.0
 40
1.0
100
AcDbArc
 50
47.0309140000042
 51
153.17801
  0
ARC
  5
1FD35
330
1F
100
AcDbEntity
  8
0
100
AcDbCircle
 10
178.0140261248951
 20
726.9840894430757
 30
0.0
 40
2.129999999999999
100
AcDbArc
 50
202.599210000001
 51
118.6104599999939
  0
LINE
  5
1FD36
330
1F
100
AcDbEntity
  8
0
100
AcDbLine
 10
182.0140261248951
 20
724.9840894430757
 30
0.0
 11
184.0140261248951
 21
724.9840894430757
 31
0.0
  0
LINE
  5
1FD37
330
1F
100
AcDbEntity
  8
0
100
AcDbLine
 10
182.0140261248951
 20
724.9840894430757
 30
0.0
 11
182.0140261248951
 21
726.9840894430757
 31
0.0
  0
LINE
  5
1FD38
330
1F
100
AcDbEntity
  8
0
100
AcDbLine
 10
184.0140261248951
 20
722.9840894430757
 30
0.0
 11
184.0140261248951
 21
724.9840894430757
 31
0.0
  0
LINE
  5
1FD39
330
1F
100
AcDbEntity
  8
0
100
AcDbLine
 10
212.0140261248951
 20
702.9840894430757
 30
0.0
 11
212.0140261248951
 21
722.9840894430757
 31
0.0
  0
LINE
  5
1FD3A
330
1F
100
AcDbEntity
  8
0
100
AcDbLine
 10
210.0140261248952
 20
702.9840894430757
 30
0.0
 11
210.0140261248952
 21
722.9840894430757
 31
0.0
  0
LINE
  5
1FD3B
330
1F
100
AcDbEntity
  8
0
100
AcDbLine
 10
210.0140261248952
 20
702.9840894430757
 30
0.0
 11
212.0140261248951
 21
702.9840894430757
 31
0.0
  0
ARC
  5
1FD3C
330
1F
100
AcDbEntity
  8
0
100
AcDbCircle
 10
211.3940261248953
 20
729.5840894430756
 30
0.0
 40
1.0
100
AcDbArc
 50
272.2906099999923
 51
46.21887499999597
  0
ARC
  5
1FD3D
330
1F
100
AcDbEntity
  8
0
100
AcDbCircle
 10
210.0140261248952
 20
726.9840894430757
 30
0.0
 40
3.91
100
AcDbArc
 50
56.67538600000565
 51
148.910650000012
  0
ARC
  5
1FD3E
330
1F
100
AcDbEntity
  8
0
100
AcDbCircle
 10
210.0140261248952
 20
726.9840894430757
 30
0.0
 40
3.91
100
AcDbArc
 50
327.854790000005
 51
341.5187299999806
  0
ARC
  5
1FD3F
330
1F
100
AcDbEntity
  8
0
100
AcDbCircle
 10
212.7540261248949
 20
725.4940894430757
 30
0.0
 40
1.0
100
AcDbArc
 50
14.45242800001459
 51
143.1300999999861
  0
LINE
  5
1FD40
330
1F
100
AcDbEntity
  8
0
100
AcDbLine
 10
204.0140261248952
 20
722.9840894430757
 30
0.0
 11
210.0140261248952
 21
722.9840894430757
 31
0.0
  0
LINE
  5
1FD41
330
1F
100
AcDbEntity
  8
0
100
AcDbLine
 10
204.0140261248952
 20
724.9840894430757
 30
0.0
 11
206.0140261248952
 21
724.9840894430757
 31
0.0
  0
LINE
  5
1FD42
330
1F
100
AcDbEntity
  8
0
100
AcDbLine
 10
204.0140261248952
 20
722.9840894430757
 30
0.0
 11
204.0140261248952
 21
724.9840894430757
 31
0.0
  0
LINE
  5
1FD43
330
1F
100
AcDbEntity
  8
0
100
AcDbLine
 10
206.0140261248952
 20
724.9840894430757
 30
0.0
 11
206.0140261248952
 21
726.9840894430757
 31
0.0
  0
ARC
  5
1FD44
330
1F
100
AcDbEntity
  8
0
100
AcDbCircle
 10
210.0140261248952
 20
726.9840894430757
 30
0.0
 40
2.14
100
AcDbArc
 50
48.21124799999438
 51
336.8014000000007
  0
LINE
  5
1FD45
330
1F
100
AcDbEntity
  8
0
100
AcDbLine
 10
158.0140261248951
 20
737.9840894430757
 30
0.0
 11
167.0140261248952
 21
737.9840894430757
 31
0.0
  0
LINE
  5
1FD47
330
1F
100
AcDbEntity
  8
0
100
AcDbLine
 10
167.0140261248952
 20
736.4840894430757
 30
0.0
 11
167.0140261248952
 21
737.9840894430757
 31
0.0
  0
LINE
  5
1FD4B
330
1F
100
AcDbEntity
  8
0
100
AcDbLine
 10
160.0140261248951
 20
736.4840894430757
 30
0.0
 11
167.0140261248952
 21
736.4840894430757
 31
0.0
  0
LINE
  5
1FD51
330
1F
100
AcDbEntity
  8
0
100
AcDbLine
 10
226.0240261248949
 20
724.9040894430756
 30
0.0
 11
226.0240261248949
 21
736.4840894430757
 31
0.0
  0
LINE
  5
1FD54
330
1F
100
AcDbEntity
  8
0
100
AcDbLine
 10
228.0140261248952
 20
737.9840894430757
 30
0.0
 11
228.0140261248952
 21
718.9840894430757
 31
0.0
  0
LINE
  5
1FD55
330
1F
100
AcDbEntity
  8
0
100
AcDbLine
 10
228.0140261248952
 20
717.9840894430757
 30
0.0
 11
248.0140261248952
 21
717.9840894430757
 31
0.0
  0
LINE
  5
1FD56
330
1F
100
AcDbEntity
  8
0
100
AcDbLine
 10
228.0140261248952
 20
718.9840894430757
 30
0.0
 11
246.9540261248952
 21
718.9840894430757
 31
0.0
  0
LINE
  5
1FD57
330
1F
100
AcDbEntity
  8
0
100
AcDbLine
 10
226.0140261248952
 20
704.7040894430757
 30
0.0
 11
226.0140261248952
 21
722.9840894430757
 31
0.0
  0
LINE
  5
1FD58
330
1F
100
AcDbEntity
  8
0
100
AcDbLine
 10
224.0540261248952
 20
702.9840894430757
 30
0.0
 11
228.0140261248952
 21
702.9840894430757
 31
0.0
  0
LINE
  5
1FD59
330
1F
100
AcDbEntity
  8
0
100
AcDbLine
 10
224.0540261248952
 20
702.9840894430757
 30
0.0
 11
224.0540261248952
 21
704.7040894430757
 31
0.0
  0
LINE
  5
1FD5A
330
1F
100
AcDbEntity
  8
0
100
AcDbLine
 10
224.0540261248952
 20
704.7040894430757
 30
0.0
 11
226.0140261248952
 21
704.7040894430757
 31
0.0
  0
LINE
  5
1FD5B
330
1F
100
AcDbEntity
  8
0
100
AcDbLine
 10
228.0140261248952
 20
717.9840894430757
 30
0.0
 11
228.0140261248952
 21
702.9840894430757
 31
0.0
  0
LINE
  5
1FD5E
330
1F
100
AcDbEntity
  8
0
100
AcDbLine
 10
248.0140261248952
 20
717.9840894430757
 30
0.0
 11
248.0140261248952
 21
720.9840894430757
 31
0.0
  0
LINE
  5
1FD5F
330
1F
100
AcDbEntity
  8
0
100
AcDbLine
 10
246.9540261248952
 20
720.9840894430757
 30
0.0
 11
248.0140261248952
 21
720.9840894430757
 31
0.0
  0
LINE
  5
1FD60
330
1F
100
AcDbEntity
  8
0
100
AcDbLine
 10
246.9540261248952
 20
718.9840894430757
 30
0.0
 11
246.9540261248952
 21
720.9840894430757
 31
0.0
  0
LINE
  5
1FD61
330
1F
100
AcDbEntity
  8
0
100
AcDbLine
 10
219.0140261248952
 20
737.9840894430757
 30
0.0
 11
228.0140261248952
 21
737.9840894430757
 31
0.0
  0
LINE
  5
1FD66
330
1F
100
AcDbEntity
  8
0
100
AcDbLine
 10
219.0140261248952
 20
736.4840894430757
 30
0.0
 11
219.0140261248952
 21
737.9840894430757
 31
0.0
  0
LINE
  5
1FD67
330
1F
100
AcDbEntity
  8
0
100
AcDbLine
 10
219.0140261248952
 20
736.4840894430757
 30
0.0
 11
226.0240261248949
 21
736.4840894430757
 31
0.0
  0
LINE
  5
21177
330
1F
100
AcDbEntity
  8
0
100
AcDbLine
 10
169.154026124895
 20
494.9140894430757
 30
0.0
 11
176.0240261248949
 21
495.7640894430759
 31
0.0
  0
LINE
  5
21178
330
1F
100
AcDbEntity
  8
0
 48
0.5
100
AcDbLine
 10
169.154026124895
 20
482.9840894430757
 30
0.0
 11
167.154026124895
 21
482.9840894430757
 31
0.0
  0
LINE
  5
211B8
330
1F
100
AcDbEntity
  8
0
 48
0.5
100
AcDbLine
 10
167.154026124895
 20
494.4191840573408
 30
0.0
 11
167.154026124895
 21
482.4810472305577
 31
0.0
  0
LINE
  5
211BA
330
1F
100
AcDbEntity
  8
0
 48
0.5
100
AcDbLine
 10
165.154026124895
 20
494.4191840573408
 30
0.0
 11
167.154026124895
 21
494.4191840573408
 31
0.0
  0
LINE
  5
211BD
330
1F
100
AcDbEntity
  8
0
 48
0.5
100
AcDbLine
 10
167.154026124895
 20
482.4810472305577
 30
0.0
 11
50.01402597350409
 21
461.8261046836738
 31
0.0
  0
LINE
  5
211BF
330
1F
100
AcDbEntity
  8
0
 48
0.5
100
AcDbLine
 10
165.154026124895
 20
494.4191840573408
 30
0.0
 11
165.1540261248948
 21
484.1592464929122
 31
0.0
  0
LINE
  5
2122B
330
1F
100
AcDbEntity
  8
0
 48
0.5
100
AcDbLine
 10
165.1540261248948
 20
484.1592464929122
 30
0.0
 11
48.01402597350431
 21
463.5043039460283
 31
0.0
  0
LINE
  5
2122F
330
1F
100
AcDbEntity
  8
0
 48
0.5
100
AcDbLine
 10
48.01402597350431
 20
448.5043039460284
 30
0.0
 11
48.01402597350431
 21
463.5043039460283
 31
0.0
  0
LINE
  5
21230
330
1F
100
AcDbEntity
  8
0
 48
0.5
100
AcDbLine
 10
50.01402597350409
 20
448.5043039460284
 30
0.0
 11
50.01402597350409
 21
461.8261046836738
 31
0.0
  0
LINE
  5
21232
330
1F
100
AcDbEntity
  8
0
 48
0.5
100
AcDbLine
 10
48.01402597350431
 20
448.5043039460284
 30
0.0
 11
50.01402597350409
 21
448.5043039460284
 31
0.0
  0
LINE
  5
21233
330
1F
100
AcDbEntity
  8
0000躯体
 48
0.5
100
AcDbLine
 10
159.0140261248951
 20
493.5357775954702
 30
0.0
 11
159.0140261248951
 21
483.0765988313622
 31
0.0
  0
LINE
  5
21262
330
1F
100
AcDbEntity
  8
0
100
AcDbLine
 10
784.5908128471735
 20
627.3939010538278
 30
0.0
 11
785.0908128471735
 21
627.3939010538278
 31
0.0
  0
LINE
  5
21263
330
1F
100
AcDbEntity
  8
0
100
AcDbLine
 10
783.0908128471735
 20
628.8939010538277
 30
0.0
 11
808.0908128471735
 21
628.8939010538277
 31
0.0
  0
LINE
  5
21267
330
1F
100
AcDbEntity
  8
0
100
AcDbLine
 10
784.5908128471735
 20
560.3939010538278
 30
0.0
 11
785.0908128471735
 21
560.3939010538278
 31
0.0
  0
LINE
  5
21269
330
1F
100
AcDbEntity
  8
0
100
AcDbLine
 10
783.0908128471735
 20
558.8939010538277
 30
0.0
 11
792.0908128471735
 21
558.8939010538277
 31
0.0
  0
LINE
  5
2126D
330
1F
100
AcDbEntity
  8
0
100
AcDbLine
 10
783.0908128471735
 20
558.8939010538277
 30
0.0
 11
783.0908128471735
 21
567.8939010538278
 31
0.0
  0
LINE
  5
2126E
330
1F
100
AcDbEntity
  8
0
100
AcDbLine
 10
783.0908128471735
 20
567.8939010538278
 30
0.0
 11
784.5908128471735
 21
567.8939010538278
 31
0.0
  0
LINE
  5
21273
330
1F
100
AcDbEntity
  8
0
100
AcDbLine
 10
784.5908128471735
 20
560.3939010538278
 30
0.0
 11
784.5908128471735
 21
567.8939010538278
 31
0.0
  0
LINE
  5
21279
330
1F
100
AcDbEntity
  8
0
100
AcDbLine
 10
783.0908128471735
 20
620.8939010538277
 30
0.0
 11
784.5908128471735
 21
620.8939010538277
 31
0.0
  0
LINE
  5
2127E
330
1F
100
AcDbEntity
  8
0
100
AcDbLine
 10
783.0908128471735
 20
620.8939010538277
 30
0.0
 11
783.0908128471735
 21
628.8939010538277
 31
0.0
  0
LINE
  5
2127F
330
1F
100
AcDbEntity
  8
0
100
AcDbLine
 10
784.5908128471735
 20
620.8939010538277
 30
0.0
 11
784.5908128471735
 21
627.3939010538278
 31
0.0
  0
LINE
  5
21280
330
1F
100
AcDbEntity
  8
0
100
AcDbLine
 10
793.0908128471735
 20
560.3939010538278
 30
0.0
 11
793.0908128471735
 21
591.3939010538277
 31
0.0
  0
LINE
  5
21281
330
1F
100
AcDbEntity
  8
0
100
AcDbLine
 10
791.5908128471735
 20
560.3939010538278
 30
0.0
 11
791.5908128471735
 21
627.3939010538278
 31
0.0
  0
LINE
  5
21282
330
1F
100
AcDbEntity
  8
0
100
AcDbLine
 10
793.0908128471735
 20
538.8939010538278
 30
0.0
 11
793.0908128471735
 21
558.8939010538277
 31
0.0
  0
LINE
  5
21283
330
1F
100
AcDbEntity
  8
0
100
AcDbLine
 10
792.0908128471735
 20
539.7039010538277
 30
0.0
 11
792.0908128471735
 21
558.8939010538277
 31
0.0
  0
LINE
  5
21284
330
1F
100
AcDbEntity
  8
0
100
AcDbLine
 10
790.0908128471735
 20
538.8939010538278
 30
0.0
 11
793.0908128471735
 21
538.8939010538278
 31
0.0
  0
LINE
  5
21285
330
1F
100
AcDbEntity
  8
0
100
AcDbLine
 10
790.0908128471735
 20
539.7039010538277
 30
0.0
 11
792.0908128471735
 21
539.7039010538277
 31
0.0
  0
LINE
  5
21286
330
1F
100
AcDbEntity
  8
0
100
AcDbLine
 10
790.0908128471735
 20
538.8939010538278
 30
0.0
 11
790.0908128471735
 21
539.7039010538277
 31
0.0
  0
LINE
  5
21287
330
1F
100
AcDbEntity
  8
0
100
AcDbLine
 10
793.0908128471735
 20
560.3939010538278
 30
0.0
 11
806.9708128471734
 21
560.3939010538278
 31
0.0
  0
LINE
  5
21288
330
1F
100
AcDbEntity
  8
0
100
AcDbLine
 10
793.0908128471735
 20
558.8939010538277
 30
0.0
 11
808.0908128471735
 21
558.8939010538277
 31
0.0
  0
LINE
  5
2128A
330
1F
100
AcDbEntity
  8
0
100
AcDbLine
 10
785.0908128471735
 20
560.3939010538278
 30
0.0
 11
791.5908128471735
 21
560.3939010538278
 31
0.0
  0
LINE
  5
2128B
330
1F
100
AcDbEntity
  8
0
100
AcDbLine
 10
808.0908128471735
 20
558.8939010538277
 30
0.0
 11
808.0908128471735
 21
561.0139010538277
 31
0.0
  0
LINE
  5
2128C
330
1F
100
AcDbEntity
  8
0
100
AcDbLine
 10
806.9708128471734
 20
560.3939010538278
 30
0.0
 11
806.9708128471734
 21
561.0139010538277
 31
0.0
  0
LINE
  5
2128D
330
1F
100
AcDbEntity
  8
0
100
AcDbLine
 10
806.9708128471734
 20
561.0139010538277
 30
0.0
 11
808.0908128471735
 21
561.0139010538277
 31
0.0
  0
LINE
  5
2128E
330
1F
100
AcDbEntity
  8
0
100
AcDbLine
 10
793.0908128471735
 20
612.3939010538277
 30
0.0
 11
793.0908128471735
 21
627.3939010538278
 31
0.0
  0
LINE
  5
2128F
330
1F
100
AcDbEntity
  8
0
100
AcDbLine
 10
793.0908128471735
 20
592.3939010538277
 30
0.0
 11
793.0908128471735
 21
610.8939010538278
 31
0.0
  0
LINE
  5
21290
330
1F
100
AcDbEntity
  8
0
100
AcDbLine
 10
800.0708128471735
 20
592.3939010538277
 30
0.0
 11
800.0708128471735
 21
593.1039010538277
 31
0.0
  0
LINE
  5
21291
330
1F
100
AcDbEntity
  8
0
100
AcDbLine
 10
800.0708128471735
 20
593.1039010538277
 30
0.0
 11
801.0908128471735
 21
593.1039010538277
 31
0.0
  0
LINE
  5
21292
330
1F
100
AcDbEntity
  8
0
100
AcDbLine
 10
801.0908128471735
 20
591.3939010538277
 30
0.0
 11
801.0908128471735
 21
593.1039010538277
 31
0.0
  0
LINE
  5
21293
330
1F
100
AcDbEntity
  8
0
100
AcDbLine
 10
793.0908128471735
 20
592.3939010538277
 30
0.0
 11
800.0708128471735
 21
592.3939010538277
 31
0.0
  0
LINE
  5
21294
330
1F
100
AcDbEntity
  8
0
100
AcDbLine
 10
793.0908128471735
 20
591.3939010538277
 30
0.0
 11
801.0908128471735
 21
591.3939010538277
 31
0.0
  0
LINE
  5
21295
330
1F
100
AcDbEntity
  8
0
100
AcDbLine
 10
793.0908128471735
 20
610.8939010538278
 30
0.0
 11
803.6808128471735
 21
610.8939010538278
 31
0.0
  0
LINE
  5
21296
330
1F
100
AcDbEntity
  8
0
100
AcDbLine
 10
793.0908128471735
 20
612.3939010538277
 30
0.0
 11
805.0908128471736
 21
612.3939010538277
 31
0.0
  0
LINE
  5
21297
330
1F
100
AcDbEntity
  8
0
100
AcDbLine
 10
805.0908128471736
 20
608.8939010538277
 30
0.0
 11
805.0908128471736
 21
612.3939010538277
 31
0.0
  0
LINE
  5
21298
330
1F
100
AcDbEntity
  8
0
100
AcDbLine
 10
803.6808128471735
 20
608.8939010538277
 30
0.0
 11
803.6808128471735
 21
610.8939010538278
 31
0.0
  0
LINE
  5
21299
330
1F
100
AcDbEntity
  8
0
100
AcDbLine
 10
803.6808128471735
 20
608.8939010538277
 30
0.0
 11
805.0908128471736
 21
608.8939010538277
 31
0.0
  0
LINE
  5
2129A
330
1F
100
AcDbEntity
  8
0
100
AcDbLine
 10
793.0908128471735
 20
627.3939010538278
 30
0.0
 11
808.0908128471735
 21
627.3939010538278
 31
0.0
  0
LINE
  5
2129B
330
1F
100
AcDbEntity
  8
0
100
AcDbLine
 10
785.0908128471735
 20
627.3939010538278
 30
0.0
 11
791.5908128471735
 21
627.3939010538278
 31
0.0
  0
LINE
  5
2129D
330
1F
100
AcDbEntity
  8
0
100
AcDbLine
 10
808.0908128471735
 20
627.3939010538278
 30
0.0
 11
808.0908128471735
 21
628.8939010538277
 31
0.0
  0
LINE
  5
2129E
330
1F
100
AcDbEntity
  8
0
100
AcDbLine
 10
973.0908128471735
 20
560.3939010538278
 30
0.0
 11
973.0908128471735
 21
575.3939010538277
 31
0.0
  0
LINE
  5
212A2
330
1F
100
AcDbEntity
  8
0
100
AcDbLine
 10
974.5908128471736
 20
560.3939010538278
 30
0.0
 11
974.5908128471736
 21
627.3939010538278
 31
0.0
  0
LINE
  5
212A5
330
1F
100
AcDbEntity
  8
0
100
AcDbLine
 10
974.5908128471736
 20
560.3939010538278
 30
0.0
 11
981.0908128471735
 21
560.3939010538278
 31
0.0
  0
LINE
  5
212A6
330
1F
100
AcDbEntity
  8
0
100
AcDbLine
 10
974.0908128471735
 20
558.8939010538277
 30
0.0
 11
983.0908128471735
 21
558.8939010538277
 31
0.0
  0
LINE
  5
212A7
330
1F
100
AcDbEntity
  8
0
100
AcDbLine
 10
973.0908128471735
 20
538.8939010538278
 30
0.0
 11
973.0908128471735
 21
558.8939010538277
 31
0.0
  0
LINE
  5
212A8
330
1F
100
AcDbEntity
  8
0
100
AcDbLine
 10
974.0908128471735
 20
539.7039010538277
 30
0.0
 11
974.0908128471735
 21
558.8939010538277
 31
0.0
  0
LINE
  5
212A9
330
1F
100
AcDbEntity
  8
0
100
AcDbLine
 10
976.0908128471735
 20
538.8939010538278
 30
0.0
 11
976.0908128471735
 21
539.7039010538277
 31
0.0
  0
LINE
  5
212AA
330
1F
100
AcDbEntity
  8
0
100
AcDbLine
 10
973.0908128471735
 20
538.8939010538278
 30
0.0
 11
976.0908128471735
 21
538.8939010538278
 31
0.0
  0
LINE
  5
212AB
330
1F
100
AcDbEntity
  8
0
100
AcDbLine
 10
974.0908128471735
 20
539.7039010538277
 30
0.0
 11
976.0908128471735
 21
539.7039010538277
 31
0.0
  0
LINE
  5
212AC
330
1F
100
AcDbEntity
  8
0
100
AcDbLine
 10
958.0908128471735
 20
558.8939010538277
 30
0.0
 11
973.0908128471735
 21
558.8939010538277
 31
0.0
  0
LINE
  5
212AD
330
1F
100
AcDbEntity
  8
0
100
AcDbLine
 10
959.2108128471734
 20
560.3939010538278
 30
0.0
 11
973.0908128471735
 21
560.3939010538278
 31
0.0
  0
LINE
  5
212AE
330
1F
100
AcDbEntity
  8
0
100
AcDbLine
 10
958.0908128471735
 20
558.8939010538277
 30
0.0
 11
958.0908128471735
 21
561.0139010538277
 31
0.0
  0
LINE
  5
212AF
330
1F
100
AcDbEntity
  8
0
100
AcDbLine
 10
959.2108128471734
 20
560.3939010538278
 30
0.0
 11
959.2108128471734
 21
561.0139010538277
 31
0.0
  0
LINE
  5
212B0
330
1F
100
AcDbEntity
  8
0
100
AcDbLine
 10
958.0908128471735
 20
561.0139010538277
 30
0.0
 11
959.2108128471734
 21
561.0139010538277
 31
0.0
  0
LINE
  5
212B2
330
1F
100
AcDbEntity
  8
0
100
AcDbLine
 10
983.0908128471735
 20
558.8939010538277
 30
0.0
 11
983.0908128471735
 21
567.8939010538278
 31
0.0
  0
LINE
  5
212B3
330
1F
100
AcDbEntity
  8
0
100
AcDbLine
 10
981.5908128471734
 20
567.8939010538278
 30
0.0
 11
983.0908128471735
 21
567.8939010538278
 31
0.0
  0
LINE
  5
212B7
330
1F
100
AcDbEntity
  8
0
100
AcDbLine
 10
981.0908128471735
 20
560.3939010538278
 30
0.0
 11
981.5908128471734
 21
560.3939010538278
 31
0.0
  0
LINE
  5
212B8
330
1F
100
AcDbEntity
  8
0
100
AcDbLine
 10
981.5908128471734
 20
560.3939010538278
 30
0.0
 11
981.5908128471734
 21
567.8939010538278
 31
0.0
  0
LINE
  5
212BA
330
1F
100
AcDbEntity
  8
0
100
AcDbLine
 10
973.0908128471735
 20
612.3939010538277
 30
0.0
 11
973.0908128471735
 21
627.3939010538278
 31
0.0
  0
LINE
  5
212BB
330
1F
100
AcDbEntity
  8
0
100
AcDbLine
 10
973.0908128471735
 20
592.3939010538277
 30
0.0
 11
973.0908128471735
 21
595.3939010538277
 31
0.0
  0
LINE
  5
212BC
330
1F
100
AcDbEntity
  8
0
100
AcDbLine
 10
961.0908128471734
 20
575.3939010538277
 30
0.0
 11
973.0908128471735
 21
575.3939010538277
 31
0.0
  0
LINE
  5
212BD
330
1F
100
AcDbEntity
  8
0
100
AcDbLine
 10
962.5008128471735
 20
576.8939010538278
 30
0.0
 11
973.0908128471735
 21
576.8939010538278
 31
0.0
  0
LINE
  5
212BE
330
1F
100
AcDbEntity
  8
0
100
AcDbLine
 10
961.0908128471734
 20
578.8939010538277
 30
0.0
 11
962.5008128471735
 21
578.8939010538277
 31
0.0
  0
LINE
  5
212BF
330
1F
100
AcDbEntity
  8
0
100
AcDbLine
 10
961.0908128471734
 20
575.3939010538277
 30
0.0
 11
961.0908128471734
 21
578.8939010538277
 31
0.0
  0
LINE
  5
212C0
330
1F
100
AcDbEntity
  8
0
100
AcDbLine
 10
962.5008128471735
 20
576.8939010538278
 30
0.0
 11
962.5008128471735
 21
578.8939010538277
 31
0.0
  0
LINE
  5
212C1
330
1F
100
AcDbEntity
  8
0
100
AcDbLine
 10
973.0908128471735
 20
576.8939010538278
 30
0.0
 11
973.0908128471735
 21
591.3939010538277
 31
0.0
  0
LINE
  5
212C2
330
1F
100
AcDbEntity
  8
0
100
AcDbLine
 10
973.0908128471735
 20
591.3939010538277
 30
0.0
 11
973.0908128471735
 21
592.3939010538277
 31
0.0
  0
LINE
  5
212C3
330
1F
100
AcDbEntity
  8
0
100
AcDbLine
 10
973.0908128471735
 20
596.3939010538277
 30
0.0
 11
973.0908128471735
 21
610.8939010538278
 31
0.0
  0
LINE
  5
212C4
330
1F
100
AcDbEntity
  8
0
100
AcDbLine
 10
966.1108128471735
 20
595.3939010538277
 30
0.0
 11
973.0908128471735
 21
595.3939010538277
 31
0.0
  0
LINE
  5
212C5
330
1F
100
AcDbEntity
  8
0
100
AcDbLine
 10
965.0908128471735
 20
596.3939010538277
 30
0.0
 11
973.0908128471735
 21
596.3939010538277
 31
0.0
  0
LINE
  5
212C6
330
1F
100
AcDbEntity
  8
0
100
AcDbLine
 10
965.0908128471735
 20
594.6839010538277
 30
0.0
 11
965.0908128471735
 21
596.3939010538277
 31
0.0
  0
LINE
  5
212C7
330
1F
100
AcDbEntity
  8
0
100
AcDbLine
 10
965.0908128471735
 20
594.6839010538277
 30
0.0
 11
966.1108128471735
 21
594.6839010538277
 31
0.0
  0
LINE
  5
212C8
330
1F
100
AcDbEntity
  8
0
100
AcDbLine
 10
966.1108128471735
 20
594.6839010538277
 30
0.0
 11
966.1108128471735
 21
595.3939010538277
 31
0.0
  0
LINE
  5
212C9
330
1F
100
AcDbEntity
  8
0
100
AcDbLine
 10
973.0908128471735
 20
610.8939010538278
 30
0.0
 11
973.0908128471735
 21
612.3939010538277
 31
0.0
  0
LINE
  5
212CF
330
1F
100
AcDbEntity
  8
0
100
AcDbLine
 10
974.5908128471736
 20
627.3939010538278
 30
0.0
 11
981.0908128471735
 21
627.3939010538278
 31
0.0
  0
LINE
  5
212D0
330
1F
100
AcDbEntity
  8
0
100
AcDbLine
 10
958.0908128471735
 20
628.8939010538277
 30
0.0
 11
983.0908128471735
 21
628.8939010538277
 31
0.0
  0
LINE
  5
212D3
330
1F
100
AcDbEntity
  8
0
100
AcDbLine
 10
958.0908128471735
 20
627.3939010538278
 30
0.0
 11
973.0908128471735
 21
627.3939010538278
 31
0.0
  0
LINE
  5
212D4
330
1F
100
AcDbEntity
  8
0
100
AcDbLine
 10
958.0908128471735
 20
627.3939010538278
 30
0.0
 11
958.0908128471735
 21
628.8939010538277
 31
0.0
  0
LINE
  5
212D7
330
1F
100
AcDbEntity
  8
0
100
AcDbLine
 10
981.0908128471735
 20
627.3939010538278
 30
0.0
 11
981.5908128471734
 21
627.3939010538278
 31
0.0
  0
LINE
  5
212D8
330
1F
100
AcDbEntity
  8
0
100
AcDbLine
 10
981.5908128471734
 20
620.8939010538277
 30
0.0
 11
983.0908128471735
 21
620.8939010538277
 31
0.0
  0
LINE
  5
212DD
330
1F
100
AcDbEntity
  8
0
100
AcDbLine
 10
981.5908128471734
 20
620.8939010538277
 30
0.0
 11
981.5908128471734
 21
627.3939010538278
 31
0.0
  0
LINE
  5
212DE
330
1F
100
AcDbEntity
  8
0
100
AcDbLine
 10
983.0908128471735
 20
620.8939010538277
 30
0.0
 11
983.0908128471735
 21
628.8939010538277
 31
0.0
  0
POINT
  5
22637
330
1F
100
AcDbEntity
  8
0
 48
0.5
100
AcDbPoint
 10
1132.737156240927
 20
49.00000000000003
 30
0.0
  0
TEXT
  5
22638
330
1F
100
AcDbEntity
  8
0
100
AcDbText
 10
1095.027332077367
 20
52.4583429741629
 30
0.0
 40
6.299999999999997
  1
180702
  7
ｺﾞｼｯｸ（横）
 72
     1
 11
1108.772786622821
 21
55.60834297416289
 31
0.0
100
AcDbText
 73
     2
  0
LINE
  5
243D2
330
1F
100
AcDbEntity
  8
0000躯体
 48
0.2
100
AcDbLine
 10
244.8552278470032
 20
742.9840894430757
 30
0.0
 11
233.0140261248952
 21
731.1428877209675
 31
0.0
  0
LINE
  5
243D3
330
1F
100
AcDbEntity
  8
0000躯体
 48
0.2
100
AcDbLine
 10
266.0684312825996
 20
742.9840894430757
 30
0.0
 11
244.0684312825996
 21
720.9840894430757
 31
0.0
  0
LINE
  5
243D4
330
1F
100
AcDbEntity
  8
0000躯体
 48
0.2
100
AcDbLine
 10
282.281634718196
 20
737.9840894430756
 30
0.0
 11
262.2816347181959
 21
717.9840894430757
 31
0.0
  0
LINE
  5
243D5
330
1F
100
AcDbEntity
  8
0000躯体
 48
0.2
100
AcDbLine
 10
298.0140261248952
 20
732.5032774141776
 30
0.0
 11
283.4948381537928
 21
717.9840894430757
 31
0.0
  0
LINE
  5
243D6
330
1F
100
AcDbEntity
  8
0000躯体
 48
0.2
100
AcDbLine
 10
241.6252278470036
 20
549.7540894430759
 30
0.0
 11
231.0140261248952
 21
539.1428877209675
 31
0.0
  0
LINE
  5
243D7
330
1F
100
AcDbEntity
  8
0000躯体
 48
0.2
100
AcDbLine
 10
266.0684312825996
 20
552.9840894430757
 30
0.0
 11
241.0684312825996
 21
527.9840894430757
 31
0.0
  0
LINE
  5
243D8
330
1F
100
AcDbEntity
  8
0000躯体
 48
0.2
100
AcDbLine
 10
287.2816347181959
 20
552.9840894430757
 30
0.0
 11
262.2816347181959
 21
527.9840894430757
 31
0.0
  0
LINE
  5
243D9
330
1F
100
AcDbEntity
  8
0000躯体
 48
0.2
100
AcDbLine
 10
298.014026124895
 20
542.5032774141776
 30
0.0
 11
288.0140261248952
 21
532.5032774141779
 31
0.0
  0
LINE
  5
243DA
330
1F
100
AcDbEntity
  8
0000躯体
 48
0.2
100
AcDbLine
 10
985.6657710012385
 20
553.8939010538276
 30
0.0
 11
976.0908128471735
 21
544.3189428997626
 31
0.0
  0
LINE
  5
243DB
330
1F
100
AcDbEntity
  8
0000躯体
 48
0.2
100
AcDbLine
 10
998.0908128471735
 20
545.1057394641662
 30
0.0
 11
973.0908128471735
 21
520.1057394641663
 31
0.0
  0
LINE
  5
243DC
330
1F
100
AcDbEntity
  8
0000躯体
 48
0.2
100
AcDbLine
 10
998.0908128471735
 20
523.8925360285699
 30
0.0
 11
973.0908128471735
 21
498.8925360285699
 31
0.0
  0
LINE
  5
243DD
330
1F
100
AcDbEntity
  8
0000躯体
 48
0.2
100
AcDbLine
 10
994.3053813080275
 20
498.8939010538275
 30
0.0
 11
984.3053813080276
 21
488.8939010538275
 31
0.0
  0
LINE
  5
243DE
330
1F
100
AcDbEntity
  8
0000躯体
 48
0.2
100
AcDbLine
 10
780.7225525324847
 20
553.8939010538276
 30
0.0
 11
768.0908128471736
 21
541.2621613685165
 31
0.0
  0
LINE
  5
243DF
330
1F
100
AcDbEntity
  8
0000躯体
 48
0.2
100
AcDbLine
 10
790.0908128471736
 20
542.0489579329202
 30
0.0
 11
768.0908128471736
 21
520.0489579329203
 31
0.0
  0
LINE
  5
243E0
330
1F
100
AcDbEntity
  8
0000躯体
 48
0.2
100
AcDbLine
 10
793.0908128471736
 20
523.8357544973238
 30
0.0
 11
773.0908128471736
 21
503.8357544973238
 31
0.0
  0
LINE
  5
243E1
330
1F
100
AcDbEntity
  8
0000躯体
 48
0.2
100
AcDbLine
 10
793.0908128471736
 20
502.6225510617273
 30
0.0
 11
779.362162839274
 21
488.8939010538276
 31
0.0
  0
LINE
  5
26C72
330
1F
100
AcDbEntity
  8
003
100
AcDbLine
 10
146.6280331228871
 20
394.9198349187561
 30
0.0
 11
230.6280331228867
 21
394.9198349187561
 31
0.0
  0
LINE
  5
26C73
330
1F
100
AcDbEntity
  8
003
100
AcDbLine
 10
146.6280331228871
 20
408.9198349187561
 30
0.0
 11
230.6280331228871
 21
408.9198349187561
 31
0.0
  0
LINE
  5
26C74
330
1F
100
AcDbEntity
  8
003
100
AcDbLine
 10
146.6280331228871
 20
394.9198349187561
 30
0.0
 11
146.6280331228871
 21
408.9198349187561
 31
0.0
  0
TEXT
  5
26C75
330
1F
100
AcDbEntity
  8
0
100
AcDbText
 10
169.8680331228871
 20
397.7198349187561
 30
0.0
 40
8.399999999999998
  1
縦断面図
  7
AT_VECTOR
 72
     1
 11
188.6280331228871
 21
401.919834918756
 31
0.0
100
AcDbText
 73
     2
  0
LINE
  5
26C76
330
1F
100
AcDbEntity
  8
003
100
AcDbLine
 10
230.6280331228867
 20
394.9198349187561
 30
0.0
 11
230.6280331228871
 21
408.9198349187561
 31
0.0
  0
TEXT
  5
26C77
330
1F
100
AcDbEntity
  8
0
100
AcDbText
 10
100.6231695572813
 20
701.4572474615037
 30
0.0
 40
6.3
  1
外　部
  7
AT_VECTOR
 72
     1
 11
111.1231695572813
 21
704.6072474615036
 31
0.0
100
AcDbText
 73
     2
  0
LINE
  5
26C78
330
1F
100
AcDbEntity
  8
003
100
AcDbLine
 10
95.37316955728135
 20
709.3322474615035
 30
0.0
 11
126.8731695572813
 21
709.3322474615035
 31
0.0
  0
LINE
  5
26C79
330
1F
100
AcDbEntity
  8
003
100
AcDbLine
 10
95.37316955728135
 20
699.8822474615035
 30
0.0
 11
126.8731695572813
 21
699.8822474615035
 31
0.0
  0
LINE
  5
26C7A
330
1F
100
AcDbEntity
  8
003
100
AcDbLine
 10
95.37316955728135
 20
709.3322474615035
 30
0.0
 11
95.37316955728135
 21
699.8822474615035
 31
0.0
  0
LINE
  5
26C7B
330
1F
100
AcDbEntity
  8
003
100
AcDbLine
 10
126.8731695572813
 20
709.3322474615035
 30
0.0
 11
126.8731695572813
 21
699.8822474615035
 31
0.0
  0
LINE
  5
26C7C
330
1F
100
AcDbEntity
  8
003
100
AcDbLine
 10
279.7609078213726
 20
696.2826618931491
 30
0.0
 11
279.7609078213726
 21
686.832661893149
 31
0.0
  0
TEXT
  5
26C7D
330
1F
100
AcDbEntity
  8
0
100
AcDbText
 10
253.3009078213726
 20
688.4076618931492
 30
0.0
 40
6.3
  1
内　部
  7
AT_VECTOR
 72
     1
 11
264.0109078213726
 21
691.5576618931492
 31
0.0
100
AcDbText
 73
     2
  0
LINE
  5
26C7E
330
1F
100
AcDbEntity
  8
003
100
AcDbLine
 10
248.2609078213726
 20
696.2826618931491
 30
0.0
 11
248.2609078213726
 21
686.832661893149
 31
0.0
  0
LINE
  5
26C7F
330
1F
100
AcDbEntity
  8
003
100
AcDbLine
 10
248.2609078213726
 20
686.832661893149
 30
0.0
 11
279.7609078213726
 21
686.832661893149
 31
0.0
  0
LINE
  5
26C80
330
1F
100
AcDbEntity
  8
003
100
AcDbLine
 10
248.2609078213726
 20
696.2826618931491
 30
0.0
 11
279.7609078213726
 21
696.2826618931491
 31
0.0
  0
TEXT
  5
26C81
330
1F
100
AcDbEntity
  8
0
100
AcDbText
 10
872.5908128471735
 20
650.2093185563136
 30
0.0
 40
6.3
  1
外　部
  7
AT_VECTOR
 72
     1
 11
883.0908128471733
 21
653.3593185563136
 31
0.0
100
AcDbText
 73
     2
  0
LINE
  5
26C82
330
1F
100
AcDbEntity
  8
003
100
AcDbLine
 10
867.3408128471734
 20
658.0843185563135
 30
0.0
 11
898.8408128471734
 21
658.0843185563135
 31
0.0
  0
LINE
  5
26C83
330
1F
100
AcDbEntity
  8
003
100
AcDbLine
 10
867.3408128471734
 20
648.6343185563135
 30
0.0
 11
898.8408128471734
 21
648.6343185563135
 31
0.0
  0
LINE
  5
26C84
330
1F
100
AcDbEntity
  8
003
100
AcDbLine
 10
867.3408128471734
 20
658.0843185563135
 30
0.0
 11
867.3408128471734
 21
648.6343185563135
 31
0.0
  0
LINE
  5
26C85
330
1F
100
AcDbEntity
  8
003
100
AcDbLine
 10
898.8408128471734
 20
658.0843185563135
 30
0.0
 11
898.8408128471734
 21
648.6343185563135
 31
0.0
  0
LINE
  5
26C86
330
1F
100
AcDbEntity
  8
003
100
AcDbLine
 10
898.8408128471736
 20
440.2833759496786
 30
0.0
 11
898.8408128471736
 21
430.8333759496786
 31
0.0
  0
TEXT
  5
26C87
330
1F
100
AcDbEntity
  8
0
100
AcDbText
 10
872.3808128471734
 20
432.4083759496788
 30
0.0
 40
6.3
  1
内　部
  7
AT_VECTOR
 72
     1
 11
883.0908128471735
 21
435.5583759496787
 31
0.0
100
AcDbText
 73
     2
  0
LINE
  5
26C88
330
1F
100
AcDbEntity
  8
003
100
AcDbLine
 10
867.3408128471734
 20
440.2833759496786
 30
0.0
 11
867.3408128471734
 21
430.8333759496786
 31
0.0
  0
LINE
  5
26C89
330
1F
100
AcDbEntity
  8
003
100
AcDbLine
 10
867.3408128471734
 20
430.8333759496786
 30
0.0
 11
898.8408128471736
 21
430.8333759496786
 31
0.0
  0
LINE
  5
26C8A
330
1F
100
AcDbEntity
  8
003
100
AcDbLine
 10
867.3408128471734
 20
440.2833759496786
 30
0.0
 11
898.8408128471736
 21
440.2833759496786
 31
0.0
  0
LINE
  5
26C8B
330
1F
100
AcDbEntity
  8
003
100
AcDbLine
 10
841.0908128471735
 20
405.8467421389819
 30
0.0
 11
925.0908128471731
 21
405.8467421389819
 31
0.0
  0
LINE
  5
26C8C
330
1F
100
AcDbEntity
  8
003
100
AcDbLine
 10
841.0908128471735
 20
419.8467421389818
 30
0.0
 11
925.0908128471735
 21
419.8467421389818
 31
0.0
  0
LINE
  5
26C8D
330
1F
100
AcDbEntity
  8
003
100
AcDbLine
 10
841.0908128471735
 20
405.8467421389819
 30
0.0
 11
841.0908128471735
 21
419.8467421389818
 31
0.0
  0
TEXT
  5
26C8E
330
1F
100
AcDbEntity
  8
0
100
AcDbText
 10
864.3308128471735
 20
408.6467421389818
 30
0.0
 40
8.399999999999998
  1
横断面図
  7
AT_VECTOR
 72
     1
 11
883.0908128471735
 21
412.8467421389818
 31
0.0
100
AcDbText
 73
     2
  0
LINE
  5
26C8F
330
1F
100
AcDbEntity
  8
003
100
AcDbLine
 10
925.0908128471731
 20
405.8467421389819
 30
0.0
 11
925.0908128471735
 21
419.8467421389818
 31
0.0
  0
LINE
  5
27188
330
1F
100
AcDbEntity
  8
Defpoints
 48
0.2
100
AcDbLine
 10
883.0908128471735
 20
750.9658065854217
 30
0.0
 11
883.0908128471735
 21
463.7928659122833
 31
0.0
  0
LINE
  5
27189
330
1F
100
AcDbEntity
  8
Defpoints
 48
0.2
100
AcDbLine
 10
885.5908128471735
 20
750.9658065854217
 30
0.0
 11
885.5908128471735
 21
463.7928659122833
 31
0.0
  0
LINE
  5
2718A
330
1F
100
AcDbEntity
  8
Defpoints
 48
0.2
100
AcDbLine
 10
880.5908128471735
 20
750.9658065854217
 30
0.0
 11
880.5908128471735
 21
463.7928659122833
 31
0.0
  0
LINE
  5
27275
330
1F
100
AcDbEntity
  8
0
 48
0.2
100
AcDbLine
 10
808.0908128471735
 20
628.8939010538277
 30
0.0
 11
880.5908128471736
 21
628.8939010538277
 31
0.0
  0
LINE
  5
27276
330
1F
100
AcDbEntity
  8
0
 48
0.2
100
AcDbLine
 10
808.0908128471735
 20
558.8939010538277
 30
0.0
 11
880.5908128471736
 21
558.8939010538279
 31
0.0
  0
LINE
  5
27278
330
1F
100
AcDbEntity
  8
0
 48
0.2
100
AcDbLine
 10
885.5908128471735
 20
558.8939010538279
 30
0.0
 11
958.0908128471735
 21
558.8939010538277
 31
0.0
  0
LINE
  5
27279
330
1F
100
AcDbEntity
  8
0
 48
0.2
100
AcDbLine
 10
885.5908128471735
 20
628.8939010538277
 30
0.0
 11
958.0908128471735
 21
628.8939010538277
 31
0.0
  0
LINE
  5
2727A
330
1F
100
AcDbEntity
  8
Defpoints
 48
0.2
100
AcDbLine
 10
973.0908128471735
 20
750.9658065854217
 30
0.0
 11
973.0908128471735
 21
463.7928659122833
 31
0.0
  0
LINE
  5
2727B
330
1F
100
AcDbEntity
  8
Defpoints
 48
0.2
100
AcDbLine
 10
793.0908128471735
 20
750.9658065854215
 30
0.0
 11
793.0908128471735
 21
463.7928659122832
 31
0.0
  0
DIMENSION
  5
272B2
330
1F
100
AcDbEntity
  8
003
 48
0.2
100
AcDbDimension
  2
*D2
 10
793.0908128471736
 20
451.1823118498255
 30
0.0
 11
883.0908128471735
 21
456.4323118498255
 31
0.0
 70
    32
  1
開口W
 71
     5
 42
179.9999999999999
  3
DIM
100
AcDbAlignedDimension
 13
973.0908128471735
 23
488.8939010538276
 33
0.0
 14
793.0908128471736
 24
488.8939010538276
 34
0.0
 50
180.0
100
AcDbRotatedDimension
1001
ACAD
1000
DSTYLE
1002
{
1070
    40
1040
2.1
1070
    50
1040
1.570796326794896
1070
    69
1070
     1
1070
    79
1070
     2
1070
   179
1070
     2
1002
}
  0
DIMENSION
  5
272C8
330
1F
100
AcDbEntity
  8
003
 48
0.2
100
AcDbDimension
  2
*D3
 10
866.782821630978
 20
528.8939010538277
 30
0.0
 11
861.5328216309778
 21
518.8939010538279
 31
0.0
 70
    32
 71
     5
 42
20.00000000000006
  3
DIM
100
AcDbAlignedDimension
 13
880.5908128471735
 23
508.8939010538277
 33
0.0
 14
880.5908128471735
 24
528.8939010538277
 34
0.0
 50
90.0
100
AcDbRotatedDimension
1001
ACAD
1000
DSTYLE
1002
{
1070
    40
1040
2.1
1070
    50
1040
1.570796326794896
1070
    69
1070
     1
1070
    79
1070
     2
1070
   179
1070
     2
1002
}
  0
LEADER
  5
2733C
330
1F
100
AcDbEntity
  8
003
 48
0.2
100
AcDbLeader
  3
DIM
 73
     0
 74
     0
 40
6.300000000000002
 41
44.3475
 76
     3
 10
850.5938325609012
 20
515.7266167352069
 30
0.0
 10
874.0677331037371
 20
488.1821702061808
 30
0.0
 10
876.9073285704179
 20
488.1821702061808
 30
0.0
340
2733D
1001
ACAD
1000
DSTYLE
1002
{
1070
   147
1040
1.0
1070
    77
1070
     1
1070
    40
1040
2.1
1070
    50
1040
1.570796326794896
1070
    69
1070
     1
1070
    79
1070
     2
1070
   179
1070
     2
1002
}
  0
MTEXT
  5
2733D
102
{ACAD_REACTORS
330
2733C
102
}
330
1F
100
AcDbEntity
  8
003
 62
     7
 48
0.2
100
AcDbMText
 10
879.0073285704178
 20
490.2821702061808
 30
0.0
 40
6.3
 41
0.0
 71
     7
 72
     1
  1
20×40角パイプ
  7
DIM
 73
     1
 44
1.0
1001
ACAD
1000
MTEXTBEGIN
1070
    73
1070
     1
1070
    44
1040
1.0
1070
    74
1070
     0
1000
MTEXTEND
1000
ACAD_MTEXT_BBRT
1070
    91
1071
        3
1070
    46
1040
1.1
1070
    64
1071
-1027028792
1070
    65
1000

1070
    66
1000

1070
   442
1071
  6554127
1000
ACAD_MTEXT_BERT
  0
LEADER
  5
2733F
330
1F
100
AcDbEntity
  8
003
 48
0.2
100
AcDbLeader
  3
DIM
 73
     0
 40
6.3
 41
52.155
 76
     3
 10
950.3320450802627
 20
531.7291177126494
 30
0.0
 10
949.4295145712435
 20
540.1298547660112
 30
0.0
 10
946.1373907054777
 20
540.1298547660112
 30
0.0
340
27340
1001
ACAD
1000
DSTYLE
1002
{
1070
   147
1040
1.0
1070
    77
1070
     1
1070
    40
1040
2.1
1070
    50
1040
1.570796326794896
1070
    69
1070
     1
1070
    79
1070
     2
1070
   179
1070
     2
1002
}
  0
MTEXT
  5
27340
102
{ACAD_REACTORS
330
2733F
102
}
330
1F
100
AcDbEntity
  8
003
 62
     7
 48
0.2
100
AcDbMText
 10
944.0373907054777
 20
542.2298547660112
 30
0.0
 40
6.3
 41
0.0
 71
     9
 72
     1
  1
M3プッシュリベット
  7
DIM
 73
     1
 44
1.0
1001
ACAD
1000
MTEXTBEGIN
1070
    73
1070
     1
1070
    44
1040
1.0
1070
    74
1070
     0
1000
MTEXTEND
1000
ACAD_MTEXT_BBRT
1070
    91
1071
        3
1070
    46
1040
1.1
1070
    64
1071
-1027028792
1070
    65
1000

1070
    66
1000

1070
   442
1071
  7080215
1000
ACAD_MTEXT_BERT
  0
LINE
  5
2749D
330
1F
100
AcDbEntity
  8
0
100
AcDbLine
 10
687.2378212064163
 20
202.2434741793178
 30
0.0
 11
739.5698212064162
 21
202.2434741793178
 31
0.0
  0
LINE
  5
2749E
330
1F
100
AcDbEntity
  8
0
100
AcDbLine
 10
687.5378212064162
 20
190.2434741793177
 30
0.0
 11
739.5698212064162
 21
190.2434741793177
 31
0.0
  0
LINE
  5
2749F
330
1F
100
AcDbEntity
  8
0
100
AcDbLine
 10
681.1538212064162
 20
207.4274741793174
 30
0.0
 11
686.9378212064161
 21
213.2114741793176
 31
0.0
  0
LINE
  5
274A0
330
1F
100
AcDbEntity
  8
0
100
AcDbLine
 10
681.7898212064163
 20
184.9394741793176
 30
0.0
 11
686.9378212064161
 21
190.0874741793176
 31
0.0
  0
LINE
  5
274A1
330
1F
100
AcDbEntity
  8
0
100
AcDbLine
 10
681.4658212064163
 20
196.6034741793174
 30
0.0
 11
686.9378212064161
 21
202.0754741793174
 31
0.0
  0
LINE
  5
274A2
330
1F
100
AcDbEntity
  8
0
100
AcDbLine
 10
686.9378212064161
 20
179.2634741793176
 30
0.0
 11
686.9378212064161
 21
210.9554741793175
 31
0.0
  0
LINE
  5
274A8
330
1F
100
AcDbEntity
  8
0
100
AcDbLine
 10
686.9378212064161
 20
189.0434741793177
 30
0.0
 11
686.9378212064161
 21
203.4434741793178
 31
0.0
  0
LINE
  5
274AA
330
1F
100
AcDbEntity
  8
0
100
AcDbLine
 10
686.9378212064161
 20
210.9554741793175
 30
0.0
 11
686.9378212064161
 21
218.2874741793176
 31
0.0
  0
LINE
  5
274AB
330
1F
100
AcDbEntity
  8
0
100
AcDbLine
 10
771.9698212064161
 20
202.2434741793178
 30
0.0
 11
817.1258212064163
 21
202.2434741793178
 31
0.0
  0
LINE
  5
274AF
330
1F
100
AcDbEntity
  8
0
100
AcDbLine
 10
771.9698212064161
 20
190.2434741793177
 30
0.0
 11
817.1258212064161
 21
190.2434741793177
 31
0.0
  0
LINE
  5
274B0
330
1F
100
AcDbEntity
  8
0
100
AcDbLine
 10
739.5698212064162
 20
202.2434741793178
 30
0.0
 11
771.9698212064161
 21
202.2434741793178
 31
0.0
  0
LINE
  5
274B1
330
1F
100
AcDbEntity
  8
0
100
AcDbLine
 10
739.5698212064162
 20
190.2434741793177
 30
0.0
 11
774.1658212064161
 21
190.2434741793177
 31
0.0
  0
LINE
  5
274BA
330
1F
100
AcDbEntity
  8
003
100
AcDbLine
 10
303.6229967732982
 20
288.31599609009
 30
0.0
 11
303.6229967732982
 21
129.9100436382486
 31
0.0
  0
LINE
  5
274BB
330
1F
100
AcDbEntity
  8
003
100
AcDbLine
 10
834.9217942941175
 20
288.31599609009
 30
0.0
 11
834.9217942941175
 21
129.9100436382486
 31
0.0
  0
LINE
  5
274BC
330
1F
100
AcDbEntity
  8
003
100
AcDbLine
 10
834.9217942941175
 20
129.9100436382486
 30
0.0
 11
303.6229967732982
 21
129.9100436382486
 31
0.0
  0
LINE
  5
274BD
330
1F
100
AcDbEntity
  8
003
100
AcDbLine
 10
303.6229967732982
 20
288.31599609009
 30
0.0
 11
834.9217942941175
 21
288.31599609009
 31
0.0
  0
LINE
  5
274BE
330
1F
100
AcDbEntity
  8
0
100
AcDbLine
 10
817.4258212064163
 20
179.2634741793176
 30
0.0
 11
817.4258212064163
 21
210.9554741793175
 31
0.0
  0
LINE
  5
274BF
330
1F
100
AcDbEntity
  8
0
100
AcDbLine
 10
822.5738212064163
 20
184.9394741793176
 30
0.0
 11
817.4258212064163
 21
190.0874741793176
 31
0.0
  0
LINE
  5
274C0
330
1F
100
AcDbEntity
  8
0
100
AcDbLine
 10
822.8978212064161
 20
196.6034741793174
 30
0.0
 11
817.4258212064163
 21
202.0754741793174
 31
0.0
  0
LINE
  5
274C1
330
1F
100
AcDbEntity
  8
0
100
AcDbLine
 10
823.2098212064162
 20
207.4274741793174
 30
0.0
 11
817.4258212064163
 21
213.2114741793176
 31
0.0
  0
LINE
  5
274C2
330
1F
100
AcDbEntity
  8
0
100
AcDbLine
 10
817.4258212064163
 20
210.9554741793175
 30
0.0
 11
817.4258212064163
 21
218.2874741793176
 31
0.0
  0
TEXT
  5
274C3
330
1F
100
AcDbEntity
  8
0
100
AcDbText
 10
318.0109967732982
 20
273.5177046540721
 30
0.0
 40
7.199999999999999
  1
取付手順
  7
AT_VECTOR
100
AcDbText
  0
TEXT
  5
274C4
330
1F
100
AcDbEntity
  8
0
100
AcDbText
 10
321.6349967732981
 20
254.6594211412171
 30
0.0
 40
7.199999999999999
  1
（１）両壁にブラケットをＭ４×２０のビスで止める。
  7
AT_VECTOR
100
AcDbText
  0
TEXT
  5
274C5
330
1F
100
AcDbEntity
  8
0
100
AcDbText
 10
321.6349967732981
 20
244.1954211412173
 30
0.0
 40
7.199999999999999
  1
（２）２０×４０角パイプを（1）のブラケットに乗せる
  7
AT_VECTOR
100
AcDbText
  0
TEXT
  5
274C6
330
1F
100
AcDbEntity
  8
0
100
AcDbText
 10
321.6349967732981
 20
233.4718857308317
 30
0.0
 40
7.199999999999999
  1
（３）プッシュリベットで手摺とブラケットを固定する
  7
AT_VECTOR
100
AcDbText
  0
TEXT
  5
274C7
330
1F
100
AcDbEntity
  8
0
100
AcDbText
 10
321.6349967732981
 20
222.2998857308317
 30
0.0
 40
7.199999999999999
  1
（４）最後に右記拡大図のシールを手摺の外観から見える位置に貼付してください。
  7
AT_VECTOR
100
AcDbText
  0
LINE
  5
274C8
330
1F
100
AcDbEntity
  8
0
100
AcDbLine
 10
315.5749967732981
 20
272.761704654072
 30
0.0
 11
356.1109967732981
 21
272.761704654072
 31
0.0
  0
LWPOLYLINE
  5
274CB
102
{ACAD_REACTORS
330
274CC
102
}
330
1F
100
AcDbEntity
  8
003
100
AcDbPolyline
 90
        4
 70
     1
 43
0.0
 10
785.1078710868478
 20
201.4934741793177
 10
806.1078710868478
 20
201.4934741793177
 10
806.1078710868478
 20
190.9934741793177
 10
785.1078710868478
 20
190.9934741793177
  0
HATCH
  5
274CC
330
1F
100
AcDbEntity
  8
003
100
AcDbHatch
 10
0.0
 20
0.0
 30
0.0
210
0.0
220
0.0
230
1.0
  2
ANSI31
 70
     0
 71
     1
 91
        1
 92
        1
 93
        4
 72
     1
 10
785.1078710868478
 20
201.4934741793177
 11
806.1078710868478
 21
201.4934741793177
 72
     1
 10
806.1078710868478
 20
201.4934741793177
 11
806.1078710868478
 21
190.9934741793177
 72
     1
 10
806.1078710868478
 20
190.9934741793177
 11
785.1078710868478
 21
190.9934741793177
 72
     1
 10
785.1078710868478
 20
190.9934741793177
 11
785.1078710868478
 21
201.4934741793177
 97
        1
330
274CB
 75
     0
 76
     1
 52
0.0
 41
12.0
 77
     0
 78
     1
 53
45.0
 43
160.4811824226355
 44
66.2865074789059
 45
-1.060660171779821
 46
1.06066017177982
 79
     0
 98
        1
 10
160.4811824226355
 20
66.2865074789059
  0
CIRCLE
  5
274CD
330
1F
100
AcDbEntity
  8
003
100
AcDbCircle
 10
795.8295186225101
 20
196.2434741793177
 30
0.0
 40
12.77756502419491
  0
LINE
  5
274CE
330
1F
100
AcDbEntity
  8
0
100
AcDbLine
 10
792.5838422631181
 20
209.8907155629047
 30
0.0
 11
795.8295186225101
 21
209.0210392035126
 31
0.0
  0
LINE
  5
274CF
330
1F
100
AcDbEntity
  8
0
100
AcDbLine
 10
796.7299411158196
 20
212.3814616968224
 30
0.0
 11
795.8295186225101
 21
209.0210392035126
 31
0.0
  0
LINE
  5
274D0
330
1F
100
AcDbEntity
  8
0
100
AcDbLine
 10
787.6316045801512
 20
223.2202428409603
 30
0.0
 11
795.8295186225101
 21
209.0210392035126
 31
0.0
  0
LWPOLYLINE
  5
274DA
330
1F
100
AcDbEntity
  8
003
100
AcDbPolyline
 90
        4
 70
     1
 43
0.0
 10
678.9081042697149
 20
281.3701794590713
 10
826.5081042697151
 20
281.3701794590713
 10
826.5081042697151
 20
223.2202428409603
 10
678.9081042697149
 20
223.2202428409603
  0
LWPOLYLINE
  5
274DB
330
1F
100
AcDbEntity
  8
003
100
AcDbPolyline
 90
        4
 70
     1
 43
0.0
 10
680.1081042697149
 20
279.1701794590713
 10
825.308104269715
 20
279.1701794590713
 10
825.308104269715
 20
239.1701794590713
 10
680.1081042697149
 20
239.1701794590713
  0
TEXT
  5
274DC
330
1F
100
AcDbEntity
  8
003
 62
     7
100
AcDbText
 10
755.745594029097
 20
227.3416650200543
 30
0.0
 40
8.4
  1
～拡　大　図～
 41
0.8
  7
DIM
100
AcDbText
  0
LEADER
  5
274DE
330
1F
100
AcDbEntity
  8
003
 48
0.2
100
AcDbLeader
  3
DIM
 73
     0
 74
     0
 40
7.560000000000002
 41
53.217
 76
     3
 10
733.2100913340455
 20
192.3173217282306
 30
0.0
 10
748.5894760162683
 20
166.0978869759037
 30
0.0
 10
751.6499378973924
 20
166.0994460694738
 30
0.0
340
274DF
213
-3.060461881124069
223
-0.4199999999999023
233
0.0
1001
ACAD
1000
DSTYLE
1002
{
1070
   147
1040
1.0
1070
    77
1070
     1
1070
    40
1040
2.1
1070
    50
1040
1.570796326794896
1070
    69
1070
     1
1070
    79
1070
     2
1070
   179
1070
     2
1002
}
  0
MTEXT
  5
274DF
102
{ACAD_REACTORS
330
274DE
102
}
330
1F
100
AcDbEntity
  8
003
 62
     7
 48
0.2
100
AcDbMText
 10
753.7499378973924
 20
168.1994460694738
 30
0.0
 40
7.56
 41
0.0
 71
     7
 72
     1
  1
20×40角パイプ
  7
DIM
 73
     1
 44
1.0
1001
ACAD
1000
MTEXTBEGIN
1070
    73
1070
     1
1070
    44
1040
1.0
1070
    74
1070
     0
1000
MTEXTEND
1000
ACAD_MTEXT_BBRT
1070
    91
1071
        3
1070
    46
1040
1.1
1070
    64
1071
-1027028792
1070
    65
1000

1070
    66
1000

1070
   442
1071
 10356975
1000
ACAD_MTEXT_BERT
  0
TEXT
  5
28EDF
330
1F
100
AcDbEntity
  8
0
100
AcDbText
 10
623.6689744227452
 20
84.70600406789776
 30
0.0
 40
8.0
  1
20×40角バー手摺
  7
ｺﾞｼｯｸ（横）
 72
     1
 11
669.9871562409271
 21
88.70600406789776
 31
0.0
100
AcDbText
 73
     2
  0
TEXT
  5
28EE0
330
1F
100
AcDbEntity
  8
0
100
AcDbText
 10
617.4598835136544
 20
71.15825698302796
 30
0.0
 40
6.0
  1
（脱着式・プッシュリベットタイプ）
 41
0.9
  7
ｺﾞｼｯｸ（横）
 72
     1
 11
669.9871562409271
 21
74.15825698302796
 31
0.0
100
AcDbText
 73
     2
  0
LEADER
  5
2A89B
330
1F
100
AcDbEntity
  8
003
 48
0.2
100
AcDbLeader
  3
DIM
 73
     0
 40
6.3
 41
52.155
 76
     3
 10
256.0867539371252
 20
620.0246795970367
 30
0.0
 10
250.3274303479679
 20
634.0754333171615
 30
0.0
 10
249.39438133701
 20
634.0754333171615
 30
0.0
340
2A89C
1001
ACAD
1000
DSTYLE
1002
{
1070
   147
1040
1.0
1070
    77
1070
     1
1070
    40
1040
2.1
1070
    50
1040
1.570796326794896
1070
    69
1070
     1
1070
    79
1070
     2
1070
   179
1070
     2
1002
}
  0
MTEXT
  5
2A89C
102
{ACAD_REACTORS
330
2A89B
102
}
330
1F
100
AcDbEntity
  8
003
 62
     7
 48
0.2
100
AcDbMText
 10
247.29438133701
 20
639.3254333171614
 30
0.0
 40
6.3
 41
0.0
 71
     6
 72
     1
  1
M3プッシュリベット
  7
DIM
 73
     1
 44
1.0
1001
ACAD
1000
MTEXTBEGIN
1070
    73
1070
     1
1070
    44
1040
1.0
1070
    74
1070
     0
1000
MTEXTEND
1000
ACAD_MTEXT_BBRT
1070
    91
1071
        3
1070
    46
1040
1.1
1070
    64
1071
-1027028792
1070
    65
1000

1070
    66
1000

1070
   442
1071
 16386787
1000
ACAD_MTEXT_BERT
  0
DIMENSION
  5
2A8E3
330
1F
100
AcDbEntity
  8
003
 48
0.2
100
AcDbDimension
  2
*D4
 10
793.0908128471736
 20
465.7691042476407
 30
0.0
 11
751.9083128471736
 21
471.0191042476407
 31
0.0
 70
    32
  1
1～2mm隙間が空きます
 71
     5
 42
0.9999999999997726
  3
DIM
100
AcDbAlignedDimension
 13
794.0908128471733
 23
508.893901053828
 33
0.0
 14
793.0908128471736
 24
508.893901053828
 34
0.0
100
AcDbRotatedDimension
1001
ACAD
1000
DSTYLE
1002
{
1070
    40
1040
2.1
1070
    79
1070
     2
1070
   179
1070
     2
1002
}
  0
DIMENSION
  5
2A925
330
1F
100
AcDbEntity
  8
003
 48
0.2
100
AcDbDimension
  2
*D5
 10
972.0908128471737
 20
465.7691042476407
 30
0.0
 11
1020.122289743329
 21
465.7691042476407
 31
0.0
 70
   160
  1
1～2mm隙間が空きます
 71
     5
 42
0.9999999999997726
  3
DIM
100
AcDbAlignedDimension
 13
973.0908128471735
 23
488.8939010538276
 33
0.0
 14
972.0908128471737
 24
508.8939010538279
 34
0.0
100
AcDbRotatedDimension
1001
ACAD
1000
DSTYLE
1002
{
1070
    40
1040
2.1
1070
    79
1070
     2
1070
   179
1070
     2
1002
}
  0
LEADER
  5
2A96C
330
1F
100
AcDbEntity
  8
003
 48
0.2
100
AcDbLeader
  3
DIM
 73
     0
 74
     0
 40
6.3
 41
26.82
 76
     3
 10
971.0908128471736
 20
512.8939010538281
 30
0.0
 10
981.3346036682823
 20
479.283274511368
 30
0.0
 10
984.1741991349628
 20
479.283274511368
 30
0.0
340
2A96D
1001
ACAD
1000
DSTYLE
1002
{
1070
   147
1040
1.0
1070
    77
1070
     1
1070
    40
1040
2.1
1070
    50
1040
1.570796326794896
1070
    69
1070
     1
1070
    79
1070
     2
1070
   179
1070
     2
1002
}
  0
MTEXT
  5
2A96D
102
{ACAD_REACTORS
330
2A96C
102
}
330
1F
100
AcDbEntity
  8
003
 62
     7
 48
0.2
100
AcDbMText
 10
986.2741991349629
 20
481.383274511368
 30
0.0
 40
6.3
 41
0.0
 71
     7
 72
     1
  1
ブラケット
  7
DIM
 73
     1
 44
1.0
1001
ACAD
1000
MTEXTBEGIN
1070
    73
1070
     1
1070
    44
1040
1.0
1070
    74
1070
     0
1000
MTEXTEND
1000
ACAD_MTEXT_BBRT
1070
    91
1071
        3
1070
    46
1040
1.1
1070
    64
1071
-1027028792
1070
    65
1000

1070
    66
1000

1070
   442
1071
 16714707
1000
ACAD_MTEXT_BERT
  0
LINE
  5
2A97F
330
1F
100
AcDbEntity
  8
003
 48
0.2
100
AcDbLine
 10
748.7163861738363
 20
276.6701794590713
 30
0.0
 11
818.7163861738364
 21
276.6701794590713
 31
0.0
  0
LINE
  5
2A980
330
1F
100
AcDbEntity
  8
003
 48
0.2
100
AcDbLine
 10
818.7163861738364
 20
276.6701794590713
 30
0.0
 11
818.7163861738364
 21
241.6701794590713
 31
0.0
  0
LINE
  5
2A981
330
1F
100
AcDbEntity
  8
003
 48
0.2
100
AcDbLine
 10
818.7163861738364
 20
241.6701794590713
 30
0.0
 11
748.7163861738363
 21
241.6701794590713
 31
0.0
  0
LINE
  5
2A982
330
1F
100
AcDbEntity
  8
003
 48
0.2
100
AcDbLine
 10
748.7163861738363
 20
241.6701794590713
 30
0.0
 11
748.7163861738363
 21
276.6701794590713
 31
0.0
  0
TEXT
  5
2A996
330
1F
100
AcDbEntity
  8
003
 62
     7
100
AcDbText
 10
761.3467693990888
 20
251.2093360808093
 30
0.0
 40
5.4
  1
矢印の方向へ手摺りを持ち
 41
0.7
  7
DIM
100
AcDbText
  0
TEXT
  5
2A997
330
1F
100
AcDbEntity
  8
003
 62
     7
100
AcDbText
 10
761.3467693990888
 20
243.1093360808093
 30
0.0
 40
5.4
  1
上げ取り外す。
 41
0.7
  7
DIM
100
AcDbText
  0
LINE
  5
2A99A
330
1F
100
AcDbEntity
  8
0
 48
0.2
100
AcDbLine
 10
779.7163861738363
 20
258.1701794590713
 30
0.0
 11
787.7163861738363
 21
258.1701794590713
 31
0.0
  0
LINE
  5
2A99B
330
1F
100
AcDbEntity
  8
0
 48
0.2
100
AcDbLine
 10
787.7163861738363
 20
258.1701794590713
 30
0.0
 11
787.7163861738363
 21
270.1701794590713
 31
0.0
  0
LINE
  5
2A99D
330
1F
100
AcDbEntity
  8
0
 48
0.2
100
AcDbLine
 10
779.7163861738363
 20
258.1701794590713
 30
0.0
 11
779.7163861738363
 21
270.1701794590713
 31
0.0
  0
LINE
  5
2A9C5
330
1F
100
AcDbEntity
  8
0
100
AcDbLine
 10
687.2378212064162
 20
190.2434741793177
 30
0.0
 11
687.2378212064163
 21
202.2434741793178
 31
0.0
  0
LINE
  5
2A9C6
330
1F
100
AcDbEntity
  8
0
100
AcDbLine
 10
817.1258212064161
 20
190.2434741793177
 30
0.0
 11
817.1258212064163
 21
202.2434741793177
 31
0.0
  0
LINE
  5
2A9C8
330
1F
100
AcDbEntity
  8
003
 48
0.2
100
AcDbLine
 10
817.1258212064163
 20
201.6434741793178
 30
0.0
 11
817.4258212064163
 21
201.6434741793178
 31
0.0
  0
LINE
  5
2A9C9
330
1F
100
AcDbEntity
  8
003
 48
0.2
100
AcDbLine
 10
817.1258212064163
 20
190.2434741793177
 30
0.0
 11
817.4258212064163
 21
190.2434741793177
 31
0.0
  0
LINE
  5
2A9CD
330
1F
100
AcDbEntity
  8
003
 48
0.2
100
AcDbLine
 10
687.5378212064162
 20
190.2434741793177
 30
0.0
 11
686.9378212064161
 21
190.2434741793177
 31
0.0
  0
LINE
  5
2A9EA
330
1F
100
AcDbEntity
  8
003
 48
0.2
100
AcDbLine
 10
687.2378212064163
 20
202.2434741793178
 30
0.0
 11
687.2378212064163
 21
201.6434741793178
 31
0.0
  0
LINE
  5
2A9EB
330
1F
100
AcDbEntity
  8
003
 48
0.2
100
AcDbLine
 10
687.2378212064163
 20
201.6434741793178
 30
0.0
 11
686.9378212064161
 21
201.6434741793178
 31
0.0
  0
TEXT
  5
2A9F7
330
1F
100
AcDbEntity
  8
0
100
AcDbText
 10
318.0109967732982
 20
206.2732162333926
 30
0.0
 40
7.199999999999999
  1
脱着手順
  7
AT_VECTOR
100
AcDbText
  0
LINE
  5
2A9F9
330
1F
100
AcDbEntity
  8
0
100
AcDbLine
 10
315.5749967732981
 20
205.5172162333925
 30
0.0
 11
356.1109967732981
 21
205.5172162333925
 31
0.0
  0
TEXT
  5
2A9FA
330
1F
100
AcDbEntity
  8
0
100
AcDbText
 10
321.6349967732981
 20
187.4741302069631
 30
0.0
 40
7.199999999999999
  1
（１）２０×４０角パイプを上へ持ち上げて取り外す。
  7
AT_VECTOR
100
AcDbText
  0
LWPOLYLINE
  5
2B2A1
330
1F
100
AcDbEntity
  8
FUTOSEN
100
AcDbPolyline
 90
        8
 70
     1
 43
0.0
 10
378.1318617984475
 20
511.0
 10
675.3424506834075
 20
510.9999999999998
 42
-0.4142135623730951
 10
690.3424506834076
 20
495.9999999999999
 10
690.3424506834076
 20
364.5011702060301
 42
-0.4142135623730951
 10
675.3424506834075
 20
349.5011702060301
 10
378.1318617984475
 20
349.5011702060301
 42
-0.4142135623730948
 10
363.1318617984475
 20
364.5011702060301
 10
363.1318617984475
 20
496.0
 42
-0.4142135623730951
  0
MTEXT
  5
2B2B1
330
1F
100
AcDbEntity
  8
0
 62
     3
100
AcDbMText
 10
501.158706580693
 20
606.5734480797953
 30
0.0
 40
10.0
 41
0.0
 71
     4
 72
     1
  1
プッシュリベットは手摺を取り外したら、
  7
LIFE
 73
     1
 44
1.0
1001
ACAD
1000
MTEXTBEGIN
1070
    73
1070
     1
1070
    44
1040
1.0
1070
    74
1070
     0
1000
MTEXTEND
  0
MTEXT
  5
2B2B2
330
1F
100
AcDbEntity
  8
0
 62
     3
100
AcDbMText
 10
501.158706580693
 20
590.8076884187737
 30
0.0
 40
10.0
 41
0.0
 71
     4
 72
     1
  1
必ず、新しい物に交換して下さい。
  7
LIFE
 73
     1
 44
1.0
1001
ACAD
1000
MTEXTBEGIN
1070
    73
1070
     1
1070
    44
1040
1.0
1070
    74
1070
     0
1000
MTEXTEND
  0
LINE
  5
2B39F
330
1F
100
AcDbEntity
  8
0
100
AcDbLine
 10
258.0140261248951
 20
616.7840894430756
 30
0.0
 11
257.614026124895
 21
616.7840894430756
 31
0.0
  0
ARC
  5
2B3A0
330
1F
100
AcDbEntity
  8
0
100
AcDbCircle
 10
257.614026124895
 20
617.9840894430756
 30
0.0
 40
1.199999999999999
100
AcDbArc
 50
180.0
 51
270.0
  0
LINE
  5
2B3A1
330
1F
100
AcDbEntity
  8
0
100
AcDbLine
 10
258.0140261248951
 20
623.1840894430758
 30
0.0
 11
257.614026124895
 21
623.1840894430757
 31
0.0
  0
LINE
  5
2B3A2
330
1F
100
AcDbEntity
  8
0
100
AcDbLine
 10
262.264026124895
 20
618.4840894430756
 30
0.0
 11
258.0140261248951
 21
618.4840894430756
 31
0.0
  0
LINE
  5
2B3A3
330
1F
100
AcDbEntity
  8
0
100
AcDbLine
 10
262.2640261248969
 20
621.4840894430754
 30
0.0
 11
258.0140261248951
 21
621.4840894430756
 31
0.0
  0
LINE
  5
2B3A4
330
1F
100
AcDbEntity
  8
0
100
AcDbLine
 10
256.4140261248951
 20
617.9840894430756
 30
0.0
 11
256.4140261248951
 21
621.9840894430757
 31
0.0
  0
ARC
  5
2B3A5
330
1F
100
AcDbEntity
  8
0
100
AcDbCircle
 10
257.614026124895
 20
621.9840894430757
 30
0.0
 40
1.199999999999999
100
AcDbArc
 50
90.0
 51
180.0
  0
ARC
  5
2B3A6
330
1F
100
AcDbEntity
  8
0
100
AcDbCircle
 10
262.3954285367952
 20
624.2149688740845
 30
0.0
 40
2.734038964711523
100
AcDbArc
 50
267.2452092946795
 51
317.5043411150979
  0
ARC
  5
2B3A7
330
1F
100
AcDbEntity
  8
0
100
AcDbCircle
 10
262.6197691204509
 20
622.9358025074364
 30
0.0
 40
2.973073005024435
100
AcDbArc
 50
263.1278089901987
 51
324.3439892253185
  0
LINE
  5
2B3A8
330
1F
100
AcDbEntity
  8
0
100
AcDbLine
 10
264.4113134456613
 20
622.3680316540276
 30
0.0
 11
265.0354840098146
 21
621.2027460552584
 31
0.0
  0
ARC
  5
2B3A9
330
1F
100
AcDbEntity
  8
0
100
AcDbCircle
 10
262.3954285367952
 20
615.7532100120667
 30
0.0
 40
2.734038964711523
100
AcDbArc
 50
42.49565888490214
 51
92.75479070532046
  0
ARC
  5
2B3AA
330
1F
100
AcDbEntity
  8
0
100
AcDbCircle
 10
262.6197691204509
 20
617.0323763787148
 30
0.0
 40
2.973073005024435
100
AcDbArc
 50
35.65601077468151
 51
96.87219100980128
  0
LINE
  5
2B3AB
330
1F
100
AcDbEntity
  8
0
100
AcDbLine
 10
264.4113134456613
 20
617.6001472321236
 30
0.0
 11
265.0354840098146
 21
618.7654328308927
 31
0.0
  0
LINE
  5
2B3AC
330
1F
100
AcDbEntity
  8
0
100
AcDbLine
 10
265.0354840098251
 20
621.2027460552511
 30
0.0
 11
265.1767154811107
 21
621.2027460552511
 31
0.0
  0
LINE
  5
2B3AD
330
1F
100
AcDbEntity
  8
0
100
AcDbLine
 10
265.0354840098251
 20
618.7654328309
 30
0.0
 11
265.1767154811107
 21
618.7654328309
 31
0.0
  0
ARC
  5
2B3AE
330
1F
100
AcDbEntity
  8
0
100
AcDbCircle
 10
265.1767154811107
 20
619.9840894430756
 30
0.0
 40
1.21865661217555
100
AcDbArc
 50
270.0
 51
90.0
  0
LINE
  5
2B3C4
330
1F
100
AcDbEntity
  8
0
100
AcDbLine
 10
956.290812847174
 20
528.8939010538278
 30
0.0
 11
956.290812847174
 21
529.293901053828
 31
0.0
  0
ARC
  5
2B3C5
330
1F
100
AcDbEntity
  8
0
100
AcDbCircle
 10
955.0908128471736
 20
529.293901053828
 30
0.0
 40
1.199999999999999
100
AcDbArc
 50
0.0
 51
90.0
  0
LINE
  5
2B3C6
330
1F
100
AcDbEntity
  8
0
100
AcDbLine
 10
949.8908128471734
 20
528.8939010538278
 30
0.0
 11
949.8908128471734
 21
529.293901053828
 31
0.0
  0
LINE
  5
2B3C7
330
1F
100
AcDbEntity
  8
HASEN
  6
HIDDEN
 48
5.0
100
AcDbLine
 10
954.5908128471737
 20
524.6439010538279
 30
0.0
 11
954.5908128471737
 21
528.8939010538278
 31
0.0
  0
LINE
  5
2B3C8
330
1F
100
AcDbEntity
  8
HASEN
  6
HIDDEN
 48
5.0
100
AcDbLine
 10
951.5908128471735
 20
524.643901053826
 30
0.0
 11
951.5908128471735
 21
528.8939010538278
 31
0.0
  0
LINE
  5
2B3C9
330
1F
100
AcDbEntity
  8
0
100
AcDbLine
 10
955.0908128471736
 20
530.4939010538277
 30
0.0
 11
951.0908128471736
 21
530.4939010538277
 31
0.0
  0
ARC
  5
2B3CA
330
1F
100
AcDbEntity
  8
0
100
AcDbCircle
 10
951.0908128471736
 20
529.293901053828
 30
0.0
 40
1.199999999999999
100
AcDbArc
 50
90.0
 51
180.0
  0
ARC
  5
2B3CB
330
1F
100
AcDbEntity
  8
HASEN
  6
HIDDEN
 48
5.0
100
AcDbCircle
 10
948.8599334161648
 20
524.5124986419277
 30
0.0
 40
2.734038964711523
100
AcDbArc
 50
312.4956588849054
 51
2.754790705325141
  0
ARC
  5
2B3CC
330
1F
100
AcDbEntity
  8
HASEN
  6
HIDDEN
 48
5.0
100
AcDbCircle
 10
950.1390997828128
 20
524.2881580582721
 30
0.0
 40
2.973073005024435
100
AcDbArc
 50
305.656010774686
 51
6.872191009798243
  0
LINE
  5
2B3CD
330
1F
100
AcDbEntity
  8
HASEN
  6
HIDDEN
 48
5.0
100
AcDbLine
 10
950.7068706362218
 20
522.4966137330616
 30
0.0
 11
951.8721562349909
 21
521.8724431689083
 31
0.0
  0
ARC
  5
2B3CE
330
1F
100
AcDbEntity
  8
HASEN
  6
HIDDEN
 48
5.0
100
AcDbCircle
 10
957.3216922781824
 20
524.5124986419277
 30
0.0
 40
2.734038964711523
100
AcDbArc
 50
177.2452092946748
 51
227.5043411150945
  0
ARC
  5
2B3CF
330
1F
100
AcDbEntity
  8
HASEN
  6
HIDDEN
 48
5.0
100
AcDbCircle
 10
956.0425259115344
 20
524.2881580582721
 30
0.0
 40
2.973073005024435
100
AcDbArc
 50
173.1278089902017
 51
234.3439892253139
  0
LINE
  5
2B3D0
330
1F
100
AcDbEntity
  8
HASEN
  6
HIDDEN
 48
5.0
100
AcDbLine
 10
955.4747550581259
 20
522.4966137330616
 30
0.0
 11
954.3094694593563
 21
521.8724431689083
 31
0.0
  0
LINE
  5
2B3D1
330
1F
100
AcDbEntity
  8
HASEN
  6
HIDDEN
 48
5.0
100
AcDbLine
 10
951.8721562349982
 20
521.8724431688979
 30
0.0
 11
951.8721562349982
 21
521.7312116976122
 31
0.0
  0
LINE
  5
2B3D2
330
1F
100
AcDbEntity
  8
HASEN
 48
0.5
100
AcDbLine
 10
954.309469459349
 20
521.8724431688979
 30
0.0
 11
954.309469459349
 21
521.7312116976122
 31
0.0
  0
ARC
  5
2B3D3
330
1F
100
AcDbEntity
  8
HASEN
  6
HIDDEN
 48
5.0
100
AcDbCircle
 10
953.0908128471736
 20
521.7312116976122
 30
0.0
 40
1.21865661217555
100
AcDbArc
 50
180.0
 51
0.0
  0
LINE
  5
2B3D4
330
1F
100
AcDbEntity
  8
0
100
AcDbLine
 10
956.290812847174
 20
528.8939010538278
 30
0.0
 11
949.8908128471734
 21
528.8939010538278
 31
0.0
  0
LWPOLYLINE
  5
2B3D6
330
1F
100
AcDbEntity
  8
0
 48
0.2
100
AcDbPolyline
 90
        4
 70
     1
 43
0.0
 10
489.1289089575947
 20
620.2995531472697
 10
682.9615469209275
 20
620.2995531472697
 10
682.9615469209275
 20
573.917075731344
 10
489.1289089575947
 20
573.917075731344
  0
LWPOLYLINE
  5
2B3D7
330
1F
100
AcDbEntity
  8
0
 48
0.2
100
AcDbPolyline
 90
        4
 70
     1
 43
0.0
 10
486.1289089575948
 20
623.2995531472697
 10
685.9615469209274
 20
623.2995531472697
 10
685.9615469209274
 20
570.917075731344
 10
486.1289089575948
 20
570.917075731344
  0
LINE
  5
2B410
330
1F
100
AcDbEntity
  8
0
 48
0.2
100
AcDbLine
 10
779.7163861738363
 20
270.1701794590713
 30
0.0
 11
776.2163861738363
 21
270.1701794590713
 31
0.0
  0
LINE
  5
2B411
330
1F
100
AcDbEntity
  8
0
 48
0.2
100
AcDbLine
 10
787.7163861738363
 20
270.1701794590713
 30
0.0
 11
791.2163861738363
 21
270.1701794590713
 31
0.0
  0
LINE
  5
2B413
330
1F
100
AcDbEntity
  8
0
 48
0.2
100
AcDbLine
 10
783.7163861738363
 20
276.1701794590713
 30
0.0
 11
776.2163861738363
 21
270.1701794590713
 31
0.0
  0
LINE
  5
2B414
330
1F
100
AcDbEntity
  8
0
 48
0.2
100
AcDbLine
 10
783.7163861738363
 20
276.1701794590713
 30
0.0
 11
791.2163861738363
 21
270.1701794590713
 31
0.0
  0
LINE
  5
2B41C
330
1F
100
AcDbEntity
  8
0
 48
0.2
100
AcDbLine
 10
780.7163861738364
 20
259.1701794590713
 30
0.0
 11
780.7163861738362
 21
271.1701794590713
 31
0.0
  0
LINE
  5
2B41D
330
1F
100
AcDbEntity
  8
0
 48
0.2
100
AcDbLine
 10
780.7163861738366
 20
259.1701794590713
 30
0.0
 11
786.7163861738364
 21
259.1701794590713
 31
0.0
  0
LINE
  5
2B41E
330
1F
100
AcDbEntity
  8
0
 48
0.2
100
AcDbLine
 10
786.7163861738364
 20
259.1701794590713
 30
0.0
 11
786.7163861738363
 21
271.1701794590713
 31
0.0
  0
LINE
  5
2B41F
330
1F
100
AcDbEntity
  8
0
 48
0.2
100
AcDbLine
 10
786.7163861738363
 20
271.1701794590713
 30
0.0
 11
788.3656051144778
 21
271.1701794590713
 31
0.0
  0
LINE
  5
2B420
330
1F
100
AcDbEntity
  8
0
 48
0.2
100
AcDbLine
 10
780.7163861738364
 20
271.1701794590713
 30
0.0
 11
779.0671672331946
 21
271.1701794590713
 31
0.0
  0
LINE
  5
2B421
330
1F
100
AcDbEntity
  8
0
 48
0.2
100
AcDbLine
 10
783.7163861738363
 20
274.8895546115848
 30
0.0
 11
779.0671672331945
 21
271.1701794590713
 31
0.0
  0
LINE
  5
2B422
330
1F
100
AcDbEntity
  8
0
 48
0.2
100
AcDbLine
 10
783.7163861738361
 20
274.8895546115848
 30
0.0
 11
788.3656051144781
 21
271.1701794590713
 31
0.0
  0
TEXT
  5
2B62A
330
1F
100
AcDbEntity
  8
0
100
AcDbText
 10
1082.538292604563
 20
88.49999999999978
 30
0.0
 40
6.0
  1
BRD02
  7
ｺﾞｼｯｸ（横）
 72
     1
 11
1095.237156240927
 21
91.49999999999977
 31
0.0
100
AcDbText
 73
     2
  0
HATCH
  5
2BE6D
330
1F
100
AcDbEntity
  8
HOSOSEN
100
AcDbHatch
 10
0.0
 20
0.0
 30
0.0
210
0.0
220
0.0
230
1.0
  2
ANSI31
 70
     0
 71
     1
 91
        1
 92
        7
 72
     0
 73
     1
 93
        5
 10
491.5500040153204
 20
642.5866316733967
 10
497.7233972821314
 20
642.5866316733967
 10
497.7233972821314
 20
663.8212911359163
 10
504.5445087976349
 20
663.8212911359163
 10
491.5500040153204
 20
686.3284336380815
 97
        5
330
2BE6F
330
2BE76
330
2BE74
330
2BE71
330
2BE73
 75
     0
 76
     1
 52
0.0
 41
12.0
 77
     0
 78
     1
 53
45.0
 43
-227.1767266595925
 44
27.99839560883607
 45
-1.060660171779821
 46
1.06066017177982
 79
     0
 47
0.0803300854981026
 98
        1
 10
494.6012061361532
 20
671.0192372550251
1001
ACAD
1010
0.0
1020
0.0
1030
0.0
  0
HATCH
  5
2BE6E
330
1F
100
AcDbEntity
  8
HOSOSEN
100
AcDbHatch
 10
0.0
 20
0.0
 30
0.0
210
0.0
220
0.0
230
1.0
  2
ANSI31
 70
     0
 71
     1
 91
        1
 92
        7
 72
     0
 73
     1
 93
        5
 10
491.5500040153204
 20
686.3284336380814
 10
478.555499233006
 20
663.8212911359163
 10
485.3766107485093
 20
663.8212911359163
 10
485.3766107485093
 20
642.5866316733967
 10
491.5500040153204
 20
642.5866316733967
 97
        5
330
2BE72
330
2BE70
330
2BE75
330
2BE76
330
2BE6F
 75
     0
 76
     1
 52
0.0
 41
12.0
 77
     0
 78
     1
 53
45.0
 43
-227.1767266595925
 44
27.99839560883607
 45
-1.060660171779821
 46
1.06066017177982
 79
     0
 47
0.0803300854981026
 98
        1
 10
487.4641070467341
 20
667.9345674865485
1001
ACAD
1010
0.0
1020
0.0
1030
0.0
  0
LINE
  5
2BE6F
102
{ACAD_REACTORS
330
2BE6D
330
2BE6E
102
}
330
1F
100
AcDbEntity
  8
Defpoints
100
AcDbLine
 10
491.5500040153204
 20
694.1342041228473
 30
0.0
 11
491.5500040153204
 21
630.0910593806654
 31
0.0
  0
LINE
  5
2BE70
102
{ACAD_REACTORS
330
2BE6E
102
}
330
1F
100
AcDbEntity
  8
0
100
AcDbLine
 10
478.555499233006
 20
663.8212911359163
 30
0.0
 11
485.3766107485093
 21
663.8212911359163
 31
0.0
  0
LINE
  5
2BE71
102
{ACAD_REACTORS
330
2BE6D
102
}
330
1F
100
AcDbEntity
  8
0
100
AcDbLine
 10
497.7233972821314
 20
663.8212911359164
 30
0.0
 11
504.5445087976347
 21
663.8212911359163
 31
0.0
  0
LINE
  5
2BE72
102
{ACAD_REACTORS
330
2BE6E
102
}
330
1F
100
AcDbEntity
  8
0
100
AcDbLine
 10
491.5500040153204
 20
686.3284336380814
 30
0.0
 11
478.555499233006
 21
663.8212911359163
 31
0.0
  0
LINE
  5
2BE73
102
{ACAD_REACTORS
330
2BE6D
102
}
330
1F
100
AcDbEntity
  8
0
100
AcDbLine
 10
491.5500040153204
 20
686.3284336380814
 30
0.0
 11
504.5445087976347
 21
663.8212911359163
 31
0.0
  0
LINE
  5
2BE74
102
{ACAD_REACTORS
330
2BE6D
102
}
330
1F
100
AcDbEntity
  8
0
100
AcDbLine
 10
497.7233972821314
 20
663.8212911359164
 30
0.0
 11
497.7233972821314
 21
642.5866316733967
 31
0.0
  0
LINE
  5
2BE75
102
{ACAD_REACTORS
330
2BE6E
102
}
330
1F
100
AcDbEntity
  8
0
100
AcDbLine
 10
485.3766107485093
 20
663.8212911359163
 30
0.0
 11
485.3766107485093
 21
642.5866316733967
 31
0.0
  0
LINE
  5
2BE76
102
{ACAD_REACTORS
330
2BE6D
330
2BE6E
102
}
330
1F
100
AcDbEntity
  8
0
100
AcDbLine
 10
485.3766107485093
 20
642.5866316733967
 30
0.0
 11
497.7233972821314
 21
642.5866316733967
 31
0.0
  0
MTEXT
  5
2BE77
330
1F
100
AcDbEntity
  8
0
 62
     3
100
AcDbMText
 10
528.7127479868108
 20
675.3142410763961
 30
0.0
 40
10.0
 41
0.0
 71
     4
 72
     1
  1
矢印の方向へ手摺を持ち上げ
  7
LIFE
 73
     1
 44
1.0
1001
ACAD
1000
MTEXTBEGIN
1070
    73
1070
     1
1070
    44
1040
1.0
1070
    74
1070
     0
1000
MTEXTEND
  0
MTEXT
  5
2BE78
330
1F
100
AcDbEntity
  8
0
 62
     3
100
AcDbMText
 10
528.7127479868108
 20
657.1575229416112
 30
0.0
 40
10.0
 41
0.0
 71
     4
 72
     1
  1
取り外す
  7
LIFE
 73
     1
 44
1.0
1001
ACAD
1000
MTEXTBEGIN
1070
    73
1070
     1
1070
    44
1040
1.0
1070
    74
1070
     0
1000
MTEXTEND
  0
LWPOLYLINE
  5
2BEE4
330
1F
100
AcDbEntity
  8
FUTOSEN
100
AcDbPolyline
 90
        8
 70
     1
 43
0.0
 10
378.1318617984475
 20
724.5103809694846
 10
675.3424506834075
 20
724.5103809694845
 42
-0.4142135623730951
 10
690.3424506834076
 20
709.5103809694846
 10
690.3424506834076
 20
578.0115511755147
 42
-0.4142135623730951
 10
675.3424506834075
 20
563.0115511755148
 10
378.1318617984475
 20
563.0115511755148
 42
-0.4142135623730948
 10
363.1318617984475
 20
578.0115511755147
 10
363.1318617984475
 20
709.5103809694847
 42
-0.4142135623730951
  0
MTEXT
  5
2BEE5
330
1F
100
AcDbEntity
  8
0
 62
     3
100
AcDbMText
 10
528.7127479868108
 20
710.7075316267561
 30
0.0
 40
10.0
 41
0.0
 71
     4
 72
     1
  1
～手摺脱着方法～
  7
LIFE
 73
     1
 44
1.0
1001
ACAD
1000
MTEXTBEGIN
1070
    73
1070
     1
1070
    44
1040
1.0
1070
    74
1070
     0
1000
MTEXTEND
  0
LWPOLYLINE
  5
2BF37
330
1F
100
AcDbEntity
  8
0
100
AcDbPolyline
 90
        4
 70
     1
 43
0.0
 10
-7.426673742866285
 20
854.1930433226662
 10
461.190444497044
 20
854.1930433226662
 10
461.190444497044
 20
798.8473939707505
 10
-7.426673742866285
 20
798.8473939707505
  0
LWPOLYLINE
  5
2BF38
330
1F
100
AcDbEntity
  8
0
100
AcDbPolyline
 90
        4
 70
     1
 43
0.0
 10
-4.426673742866285
 20
851.1930433226662
 10
458.1904444970439
 20
851.1930433226662
 10
458.1904444970439
 20
801.8473939707504
 10
-4.426673742866285
 20
801.8473939707504
  0
TEXT
  5
2BF39
330
1F
100
AcDbEntity
  8
0
100
AcDbText
 10
16.23780562373577
 20
819.1270535341669
 30
0.0
 40
14.04
  1
非常進入口対応　２０×４０バー手摺　（脱着式・プッシュリベット）
 41
0.8
  7
AT_VECTOR
 11
16.23780562373577
 21
819.1270535341669
 31
0.0
100
AcDbText
 73
     1
  0
LINE
  5
2F56B
330
1F
100
AcDbEntity
  8
003
 48
0.2
100
AcDbLine
 10
558.2577678770517
 20
458.7609388309094
 30
0.0
 11
558.2577678770517
 21
421.7609388309094
 31
0.0
  0
LINE
  5
2F56C
330
1F
100
AcDbEntity
  8
003
 48
0.2
100
AcDbLine
 10
575.5782759527405
 20
411.7609388309094
 30
0.0
 11
575.5782759527405
 21
448.7609388309094
 31
0.0
  0
LINE
  5
2F56D
330
1F
100
AcDbEntity
  8
003
 48
0.2
100
AcDbLine
 10
574.279237847064
 20
451.0109388309094
 30
0.0
 11
559.5568059827285
 21
459.5109388309094
 31
0.0
  0
LINE
  5
2F56E
330
1F
100
AcDbEntity
  8
003
 48
0.2
100
AcDbLine
 10
559.9898186846208
 20
457.2609388309094
 30
0.0
 11
573.8462251451717
 21
449.2609388309092
 31
0.0
  0
LINE
  5
2F56F
330
1F
100
AcDbEntity
  8
003
 48
0.2
100
AcDbLine
 10
573.8462251451717
 20
449.2609388309092
 30
0.0
 11
573.8462251451717
 21
413.2609388309091
 31
0.0
  0
LINE
  5
2F570
330
1F
100
AcDbEntity
  8
003
 48
0.2
100
AcDbLine
 10
559.9898186846208
 20
421.2609388309092
 30
0.0
 11
559.9898186846208
 21
457.2609388309092
 31
0.0
  0
ELLIPSE
  5
2F571
330
1F
100
AcDbEntity
  8
003
 48
0.2
100
AcDbEllipse
 10
574.2792378470637
 20
449.5109388309094
 30
0.0
 11
0.9185586535438456
 21
-1.590990257669642
 31
0.0
210
0.0
220
0.0
230
0.9999999999999998
 40
0.577350269189626
 41
0.7853981633973907
 42
2.356194490192058
  0
ELLIPSE
  5
2F572
330
1F
100
AcDbEntity
  8
003
 48
0.2
100
AcDbEllipse
 10
559.5568059827282
 20
458.0109388309094
 30
0.0
 11
0.9185586535438456
 21
-1.590990257669642
 31
0.0
210
0.0
220
0.0
230
0.9999999999999998
 40
0.577350269189626
 41
2.356194490192058
 42
3.926990816987096
  0
ELLIPSE
  5
2F573
330
1F
100
AcDbEntity
  8
003
 48
0.2
100
AcDbEllipse
 10
574.2792378470637
 20
412.5109388309094
 30
0.0
 11
0.9185586535438456
 21
-1.590990257669642
 31
0.0
210
0.0
220
0.0
230
0.9999999999999998
 40
0.577350269189626
 41
5.497787143782026
 42
7.068583470576976
  0
ELLIPSE
  5
2F574
330
1F
100
AcDbEntity
  8
003
 48
0.2
100
AcDbEllipse
 10
559.5568059827282
 20
421.0109388309094
 30
0.0
 11
0.9185586535438456
 21
-1.590990257669642
 31
0.0
210
0.0
220
0.0
230
0.9999999999999998
 40
0.577350269189626
 41
3.926990816987096
 42
5.497787143782026
  0
LINE
  5
2F575
330
1F
100
AcDbEntity
  8
003
 48
0.2
100
AcDbLine
 10
559.9898186846208
 20
421.2609388309092
 30
0.0
 11
560.1630237653775
 21
421.1609388309092
 31
0.0
  0
LINE
  5
2F576
330
1F
100
AcDbEntity
  8
003
 48
0.2
100
AcDbLine
 10
560.1630237653775
 20
421.1609388309092
 30
0.0
 11
560.1630237653778
 21
419.160938830909
 31
0.0
  0
LINE
  5
2F577
330
1F
100
AcDbEntity
  8
003
 48
0.2
100
AcDbLine
 10
573.8462251451717
 20
413.2609388309091
 30
0.0
 11
573.6730200644148
 21
413.3609388309091
 31
0.0
  0
LINE
  5
2F578
330
1F
100
AcDbEntity
  8
003
 48
0.2
100
AcDbLine
 10
573.6730200644148
 20
413.3609388309091
 30
0.0
 11
573.6730200644148
 21
411.360938830909
 31
0.0
  0
LINE
  5
2F579
330
1F
100
AcDbEntity
  8
003
 48
0.2
100
AcDbLine
 10
560.1630237653775
 20
421.1609388309092
 30
0.0
 11
573.8462251451717
 21
429.0609388309091
 31
0.0
  0
LINE
  5
2F57A
330
1F
100
AcDbEntity
  8
003
 48
0.2
100
AcDbLine
 10
560.1630237653778
 20
419.1609388309093
 30
0.0
 11
573.8462251451717
 21
427.0609388309093
 31
0.0
  0
LINE
  5
2F57B
330
1F
100
AcDbEntity
  8
003
 48
0.2
100
AcDbLine
 10
559.9898186846208
 20
421.2609388309092
 30
0.0
 11
573.8462251451717
 21
429.2609388309092
 31
0.0
  0
LINE
  5
2F57C
330
1F
100
AcDbEntity
  8
003
 48
0.2
100
AcDbLine
 10
573.6730200644148
 20
413.3609388309091
 30
0.0
 11
573.8462251451717
 21
413.4609388309089
 31
0.0
  0
LINE
  5
2F57D
330
1F
100
AcDbEntity
  8
003
 48
0.2
100
AcDbLine
 10
559.5568059827282
 20
419.5109388309096
 30
0.0
 11
560.1630237653778
 21
419.1609388309093
 31
0.0
  0
LINE
  5
2F57E
330
1F
100
AcDbEntity
  8
003
 48
0.2
100
AcDbLine
 10
573.6730200644148
 20
411.3609388309095
 30
0.0
 11
574.2792378470637
 21
411.0109388309096
 31
0.0
  0
LINE
  5
2F57F
330
1F
100
AcDbEntity
  8
007
 48
0.2
100
AcDbLine
 10
560.1630237653778
 20
419.160938830909
 30
0.0
 11
594.8040399167553
 21
439.160938830909
 31
0.0
  0
LINE
  5
2F580
330
1F
100
AcDbEntity
  8
007
 48
0.2
100
AcDbLine
 10
573.6730200644148
 20
411.3609388309095
 30
0.0
 11
608.3140362157924
 21
431.3609388309095
 31
0.0
  0
LINE
  5
2F581
330
1F
100
AcDbEntity
  8
007
 48
0.2
100
AcDbLine
 10
594.8040399167553
 20
439.160938830909
 30
0.0
 11
608.3140362157919
 21
431.3609388309093
 31
0.0
  0
LINE
  5
2F582
330
1F
100
AcDbEntity
  8
003
 48
0.2
100
AcDbLine
 10
558.6382473291771
 20
459.6019290885746
 30
0.0
 11
619.2600255940877
 21
494.6019290885748
 31
0.0
  0
LINE
  5
2F583
330
1F
100
AcDbEntity
  8
003
 48
0.2
100
AcDbLine
 10
575.1977965006151
 20
410.9199485732442
 30
0.0
 11
635.8195747655257
 21
445.9199485732444
 31
0.0
  0
ELLIPSE
  5
2F584
330
1F
100
AcDbEntity
  8
003
 48
0.2
100
AcDbEllipse
 10
592.0327586246449
 20
439.7609388309094
 30
0.0
 11
-1.224744871391499
 21
-2.121320343559694
 31
0.0
210
0.0
220
0.0
230
1.0
 40
0.57735026918958
 41
0.0
 42
6.283185307179586
  0
ELLIPSE
  5
2F585
330
1F
100
AcDbEntity
  8
003
 48
0.2
100
AcDbEllipse
 10
590.300707817076
 20
440.7609388309094
 30
0.0
 11
-1.224744871391499
 21
-2.121320343559694
 31
0.0
210
0.0
220
0.0
230
1.0
 40
0.57735026918958
 41
0.7853981633975704
 42
2.356194490192267
  0
LINE
  5
2F586
330
1F
100
AcDbEntity
  8
003
 48
0.2
100
AcDbLine
 10
428.9098517343566
 20
414.4909965977053
 30
0.0
 11
436.1224811979544
 21
410.3267830353324
 31
0.0
  0
LINE
  5
2F587
330
1F
100
AcDbEntity
  8
003
 48
0.2
100
AcDbLine
 10
438.7205574093075
 20
446.3267830353322
 30
0.0
 11
427.0292144582174
 21
453.0767830353322
 31
0.0
  0
LINE
  5
2F588
330
1F
100
AcDbEntity
  8
003
 48
0.2
100
AcDbLine
 10
438.7205574093075
 20
446.3267830353322
 30
0.0
 11
472.4955481569006
 21
465.8267830353322
 31
0.0
  0
LINE
  5
2F589
330
1F
100
AcDbEntity
  8
003
 48
0.2
100
AcDbLine
 10
472.4955481569006
 20
465.8267830353322
 30
0.0
 11
472.4955481569006
 21
430.3267830353322
 31
0.0
  0
LINE
  5
2F58A
330
1F
100
AcDbEntity
  8
003
 48
0.2
100
AcDbLine
 10
427.0292144582174
 20
455.0767830353321
 30
0.0
 11
459.0721543982417
 21
473.5767830353322
 31
0.0
  0
LINE
  5
2F58B
330
1F
100
AcDbEntity
  8
003
 48
0.2
100
AcDbLine
 10
472.4955481569006
 20
465.8267830353322
 30
0.0
 11
470.7634973493318
 21
466.8267830353322
 31
0.0
  0
LINE
  5
2F58C
330
1F
100
AcDbEntity
  8
003
 48
0.2
100
AcDbLine
 10
470.7634973493318
 20
466.8267830353322
 30
0.0
 11
438.7205574093077
 21
448.3267830353321
 31
0.0
  0
LINE
  5
2F58D
330
1F
100
AcDbEntity
  8
003
 48
0.2
100
AcDbLine
 10
438.7205574093077
 20
448.3267830353321
 30
0.0
 11
428.7612652657867
 21
454.0767830353321
 31
0.0
  0
LINE
  5
2F58E
330
1F
100
AcDbEntity
  8
003
 48
0.2
100
AcDbLine
 10
428.7612652657867
 20
454.0767830353321
 30
0.0
 11
460.804205205811
 21
472.5767830353322
 31
0.0
  0
LINE
  5
2F58F
330
1F
100
AcDbEntity
  8
003
 48
0.2
100
AcDbLine
 10
460.804205205811
 20
472.5767830353322
 30
0.0
 11
459.0721543982417
 21
473.5767830353322
 31
0.0
  0
ELLIPSE
  5
2F590
330
1F
100
AcDbEntity
  8
003
 48
0.2
100
AcDbEllipse
 10
456.0410654849963
 20
438.3267830353322
 30
0.0
 11
-1.224744871391499
 21
-2.121320343559694
 31
0.0
210
0.0
220
0.0
230
1.0
 40
0.57735026918958
 41
0.0
 42
6.283185307179586
  0
ELLIPSE
  5
2F591
330
1F
100
AcDbEntity
  8
003
 48
0.2
100
AcDbEllipse
 10
454.3090146774274
 20
439.3267830353321
 30
0.0
 11
-1.224744871391499
 21
-2.121320343559694
 31
0.0
210
0.0
220
0.0
230
1.0
 40
0.57735026918958
 41
0.7853981633975704
 42
2.356194490192267
  0
LINE
  5
2F592
330
1F
100
AcDbEntity
  8
003
 48
0.2
100
AcDbLine
 10
460.804205205811
 20
472.5767830353322
 30
0.0
 11
460.804205205811
 21
461.0767830353322
 31
0.0
  0
ELLIPSE
  5
2F593
330
1F
100
AcDbEntity
  8
003
 48
0.2
100
AcDbEllipse
 10
428.7612652657863
 20
454.0767830353321
 30
0.0
 11
-2.449489742783137
 21
0.0
 31
0.0
210
0.0
220
0.0
230
1.0
 40
0.5773502691896401
 41
5.497787143782139
 42
7.068583470577032
  0
ELLIPSE
  5
2F594
330
1F
100
AcDbEntity
  8
003
 48
0.2
100
AcDbEllipse
 10
438.7205574093075
 20
448.3267830353321
 30
0.0
 11
-2.449489742783137
 21
0.0
 31
0.0
210
0.0
220
0.0
230
1.0
 40
0.5773502691896401
 41
0.7853981633974469
 42
2.356194490192346
  0
LINE
  5
2F595
330
1F
100
AcDbEntity
  8
003
 48
0.2
100
AcDbLine
 10
426.3117755230032
 20
454.0767830353321
 30
0.0
 11
426.3117755230032
 21
417.9909965977053
 31
0.0
  0
LINE
  5
2F596
330
1F
100
AcDbEntity
  8
003
 48
0.2
100
AcDbLine
 10
426.3117755230032
 20
417.9909965977053
 30
0.0
 11
428.0438263305723
 21
416.9909965977053
 31
0.0
  0
LINE
  5
2F597
330
1F
100
AcDbEntity
  8
003
 48
0.2
100
AcDbLine
 10
428.9098517343566
 20
415.4909965977055
 30
0.0
 11
428.9098517343566
 21
414.4909965977054
 31
0.0
  0
LINE
  5
2F598
330
1F
100
AcDbEntity
  8
003
 48
0.2
100
AcDbLine
 10
436.9885066017388
 20
411.8267830353319
 30
0.0
 11
438.7205574093077
 21
410.8267830353321
 31
0.0
  0
LINE
  5
2F599
330
1F
100
AcDbEntity
  8
003
 48
0.2
100
AcDbLine
 10
436.1224811979544
 20
411.3267830353319
 30
0.0
 11
436.1224811979544
 21
410.3267830353324
 31
0.0
  0
LINE
  5
2F59A
330
1F
100
AcDbEntity
  8
003
 48
0.2
100
AcDbLine
 10
440.4526082168765
 20
411.8267830353319
 30
0.0
 11
438.7205574093077
 21
410.8267830353321
 31
0.0
  0
ELLIPSE
  5
2F59B
330
1F
100
AcDbEntity
  8
003
 48
0.2
100
AcDbEllipse
 10
438.7205574093077
 20
412.8267830353319
 30
0.0
 11
1.224744871391499
 21
-2.121320343559694
 31
0.0
210
0.0
220
0.0
230
1.0
 40
0.57735026918958
 41
5.497787143782016
 42
7.068583470577111
  0
ELLIPSE
  5
2F59C
330
1F
100
AcDbEntity
  8
003
 48
0.2
100
AcDbEllipse
 10
470.7634973493318
 20
431.3267830353321
 30
0.0
 11
1.224744871391499
 21
-2.121320343559694
 31
0.0
210
0.0
220
0.0
230
1.0
 40
0.57735026918958
 41
0.0
 42
0.7853981633975258
  0
LINE
  5
2F59D
330
1F
100
AcDbEntity
  8
003
 48
0.2
100
AcDbLine
 10
439.9453022807092
 20
410.7054626917781
 30
0.0
 11
471.9882422207233
 21
429.2054626917724
 31
0.0
  0
LINE
  5
2F59E
330
1F
100
AcDbEntity
  8
003
 48
0.2
100
AcDbLine
 10
436.1224811979544
 20
410.3267830353324
 30
0.0
 11
437.8545320055232
 21
411.3267830353324
 31
0.0
  0
ELLIPSE
  5
2F59F
330
1F
100
AcDbEntity
  8
003
 48
0.2
100
AcDbEllipse
 10
428.0438263305723
 20
415.9909965977055
 30
0.0
 11
0.6123724356958972
 21
-1.060660171779761
 31
0.0
210
0.0
220
0.0
230
1.0
 40
0.5773502691896266
 41
0.7853981633972593
 42
2.356194490192233
  0
ELLIPSE
  5
2F5A0
330
1F
100
AcDbEntity
  8
003
 48
0.2
100
AcDbEllipse
 10
436.9885066017388
 20
410.8267830353319
 30
0.0
 11
0.6123724356958972
 21
-1.060660171779761
 31
0.0
210
0.0
220
0.0
230
1.0
 40
0.5773502691896266
 41
2.356194490192233
 42
3.926990816987183
  0
ELLIPSE
  5
2F5A1
330
1F
100
AcDbEntity
  8
003
 48
0.2
100
AcDbEllipse
 10
432.0088605299782
 20
442.2017830353322
 30
0.0
 11
1.224744871391499
 21
-2.121320343559694
 31
0.0
210
0.0
220
0.0
230
1.0
 40
0.57735026918958
 41
0.0
 42
6.283185307179586
  0
ELLIPSE
  5
2F5A2
330
1F
100
AcDbEntity
  8
003
 48
0.2
100
AcDbEllipse
 10
432.0088605299782
 20
422.2017830353322
 30
0.0
 11
1.224744871391499
 21
-2.121320343559694
 31
0.0
210
0.0
220
0.0
230
1.0
 40
0.57735026918958
 41
0.0
 42
6.283185307179586
  0
ELLIPSE
  5
2F5A3
330
1F
100
AcDbEntity
  8
003
 48
0.2
100
AcDbEllipse
 10
433.7409113375469
 20
443.2017830353322
 30
0.0
 11
1.224744871391499
 21
-2.121320343559694
 31
0.0
210
0.0
220
0.0
230
1.0
 40
0.57735026918958
 41
3.926990816987318
 42
5.497787143782016
  0
ELLIPSE
  5
2F5A4
330
1F
100
AcDbEntity
  8
003
 48
0.2
100
AcDbEllipse
 10
433.7409113375469
 20
423.2017830353322
 30
0.0
 11
1.224744871391499
 21
-2.121320343559694
 31
0.0
210
0.0
220
0.0
230
1.0
 40
0.57735026918958
 41
3.926990816987318
 42
5.497787143782016
  0
TEXT
  5
2F5A5
330
1F
100
AcDbEntity
  8
0
 62
     7
100
AcDbText
 10
418.9903828616325
 20
369.4830374090608
 30
0.0
 40
7.0
  1
＜ブラケット＞
 41
0.9
  7
AT_VECTOR
100
AcDbText
  0
TEXT
  5
2F5A6
330
1F
100
AcDbEntity
  8
0
 62
     7
100
AcDbText
 10
541.1437790535628
 20
366.3495966203383
 30
0.0
 40
7.0
  1
＜20X40角パイプ加工図＞
 41
0.9
  7
AT_VECTOR
100
AcDbText
  0
LEADER
  5
2F5A7
330
1F
100
AcDbEntity
  8
003
 48
0.2
100
AcDbLeader
  3
DIM
 73
     0
 74
     0
 40
6.3
 41
25.2225
 76
     3
 10
459.1428649178283
 20
440.396072179447
 30
0.0
 10
476.7045623468193
 20
457.9577696084381
 30
0.0
 10
479.1391298929705
 20
457.9577696084379
 30
0.0
340
2F5A8
1001
ACAD
1000
DSTYLE
1002
{
1070
   147
1040
1.0
1070
    77
1070
     1
1070
    40
1040
2.1
1070
    50
1040
1.570796326794896
1070
    69
1070
     1
1070
    79
1070
     2
1070
   179
1070
     2
1002
}
  0
MTEXT
  5
2F5A8
102
{ACAD_REACTORS
330
2F5A7
102
}
330
1F
100
AcDbEntity
  8
003
 62
     7
 48
0.2
100
AcDbMText
 10
481.2391298929705
 20
460.057769608438
 30
0.0
 40
6.3
 41
0.0
 71
     7
 72
     1
  1
Ｍ4タップ
  7
DIM
 73
     1
 44
1.0
1001
ACAD
1000
MTEXTBEGIN
1070
    73
1070
     1
1070
    44
1040
1.0
1070
    74
1070
     0
1000
MTEXTEND
1000
ACAD_MTEXT_BBRT
1070
    91
1071
        3
1070
    46
1040
1.1
1070
    64
1071
-1027028792
1070
    65
1000

1070
    66
1000

1070
   442
1071
 16648896
1000
ACAD_MTEXT_BERT
  0
LEADER
  5
2F5A9
330
1F
100
AcDbEntity
  8
003
 48
0.2
100
AcDbLeader
  3
DIM
 73
     0
 40
6.300000000000001
 41
15.3
 76
     3
 10
429.9630120329197
 20
440.6184453402076
 30
0.0
 10
419.1822430451472
 20
434.3941654630461
 30
0.0
 10
417.2509058828296
 20
434.394165463046
 30
0.0
340
2F5AA
1001
ACAD
1000
DSTYLE
1002
{
1070
   147
1040
1.0
1070
    77
1070
     1
1070
    40
1040
2.1
1070
    50
1040
1.570796326794896
1070
    69
1070
     1
1070
    79
1070
     2
1070
   179
1070
     2
1002
}
  0
MTEXT
  5
2F5AA
102
{ACAD_REACTORS
330
2F5A9
102
}
330
1F
100
AcDbEntity
  8
003
 62
     7
 48
0.2
100
AcDbMText
 10
415.1509058828296
 20
436.494165463046
 30
0.0
 40
6.3
 41
0.0
 71
     9
 72
     1
  1
φ4.5
  7
DIM
 73
     1
 44
1.0
1001
ACAD
1000
MTEXTBEGIN
1070
    73
1070
     1
1070
    44
1040
1.0
1070
    74
1070
     0
1000
MTEXTEND
1000
ACAD_MTEXT_BBRT
1070
    91
1071
        3
1070
    46
1040
1.1
1070
    64
1071
-1027028792
1070
    65
1000

1070
    66
1000

1070
   442
1071
 16386922
1000
ACAD_MTEXT_BERT
  0
LEADER
  5
2F5AB
330
1F
100
AcDbEntity
  8
003
 48
0.2
100
AcDbLeader
  3
DIM
 76
     2
 10
429.3336508816142
 20
425.0335672267339
 30
0.0
 10
419.1822430451472
 20
434.3941654630461
 30
0.0
1001
ACAD
1000
DSTYLE
1002
{
1070
   147
1040
1.0
1070
    77
1070
     1
1070
    40
1040
2.1
1070
    50
1040
1.570796326794896
1070
    69
1070
     1
1070
    79
1070
     2
1070
   179
1070
     2
1002
}
  0
LEADER
  5
2F5AC
330
1F
100
AcDbEntity
  8
003
 48
0.2
100
AcDbLeader
  3
DIM
 73
     0
 74
     0
 40
6.300000000000001
 41
15.3
 76
     3
 10
594.7004278811069
 20
444.7370898478999
 30
0.0
 10
604.0515177631621
 20
460.9336526297631
 30
0.0
 10
606.2082802280295
 20
460.933652629763
 30
0.0
340
2F5AD
1001
ACAD
1000
DSTYLE
1002
{
1070
   147
1040
1.0
1070
    77
1070
     1
1070
    40
1040
2.1
1070
    50
1040
1.570796326794896
1070
    69
1070
     1
1070
    79
1070
     2
1070
   179
1070
     2
1002
}
  0
MTEXT
  5
2F5AD
102
{ACAD_REACTORS
330
2F5AC
102
}
330
1F
100
AcDbEntity
  8
003
 62
     7
 48
0.2
100
AcDbMText
 10
608.3082802280296
 20
463.033652629763
 30
0.0
 40
6.3
 41
0.0
 71
     7
 72
     1
  1
φ4.5
  7
DIM
 73
     1
 44
1.0
1001
ACAD
1000
MTEXTBEGIN
1070
    73
1070
     1
1070
    44
1040
1.0
1070
    74
1070
     0
1000
MTEXTEND
1000
ACAD_MTEXT_BBRT
1070
    91
1071
        3
1070
    46
1040
1.1
1070
    64
1071
-1027028792
1070
    65
1000

1070
    66
1000

1070
   442
1071
 16386737
1000
ACAD_MTEXT_BERT
  0
LINE
  5
2F5AE
330
1F
100
AcDbEntity
  8
003
 48
0.2
100
AcDbLine
 10
438.7205574093075
 20
446.3267830353322
 30
0.0
 11
438.7205574093077
 21
410.8267830353324
 31
0.0
  0
DIMENSION
  5
2F5AF
330
1F
100
AcDbEntity
  8
003
 48
0.2
100
AcDbDimension
  2
*D6
 10
472.4955481569006
 20
407.2544232010935
 30
0.0
 11
452.9830527831042
 21
402.0510565709619
 31
0.0
 70
    33
 71
     5
 42
38.99999999999966
  3
DIM
100
AcDbAlignedDimension
 13
438.7205574093077
 23
409.998355910586
 33
0.0
 14
472.4955481569006
 24
429.4983559105857
 34
0.0
1001
ACAD
1000
DSTYLE
1002
{
1070
    40
1040
2.1
1070
    50
1040
1.570796326794896
1070
    69
1070
     1
1070
    79
1070
     2
1070
   179
1070
     2
1002
}
  0
DIMENSION
  5
2F5B0
330
1F
100
AcDbEntity
  8
003
 48
0.2
100
AcDbDimension
  2
*D7
 10
608.3140362157924
 20
409.8151639380428
 30
0.0
 11
588.3685281401035
 21
404.3617973079107
 31
0.0
 70
    33
 71
     5
 42
40.00000000000023
  3
DIM
100
AcDbAlignedDimension
 13
573.6730200644148
 23
411.360938830909
 33
0.0
 14
608.3140362157924
 24
431.3609388309095
 34
0.0
1001
ACAD
1000
DSTYLE
1002
{
1070
    40
1040
2.1
1070
    50
1040
1.570796326794896
1070
    69
1070
     1
1070
    79
1070
     2
1070
   179
1070
     2
1002
}
  0
DIMENSION
  5
2F5B1
330
1F
100
AcDbEntity
  8
003
 48
0.2
100
AcDbDimension
  2
*D8
 10
438.7205574093078
 20
416.0791975749432
 30
0.0
 11
448.5990781868886
 21
421.7825642050749
 31
0.0
 70
   161
 71
     5
 42
19.99999999999977
  3
DIM
100
AcDbAlignedDimension
 13
456.0410654849963
 23
438.3267830353322
 33
0.0
 14
438.7205574093077
 24
428.3267830353322
 34
0.0
1001
ACAD
1000
DSTYLE
1002
{
1070
    40
1040
2.1
1070
    50
1040
1.570796326794896
1070
    69
1070
     1
1070
    79
1070
     2
1070
   179
1070
     2
1002
}
  0
DIMENSION
  5
2F602
330
1F
100
AcDbEntity
  8
003
 48
0.2
100
AcDbDimension
  2
*D9
 10
312.8825730544416
 20
599.9840894430757
 30
0.0
 11
307.6325730544415
 21
619.9840894430758
 31
0.0
 70
    32
 71
     5
 42
39.99999999999989
  3
DIM
100
AcDbAlignedDimension
 13
276.5140261248953
 23
639.9840894430756
 33
0.0
 14
276.5140261248953
 24
599.9840894430757
 34
0.0
 50
90.0
100
AcDbRotatedDimension
1001
ACAD
1000
DSTYLE
1002
{
1070
    40
1040
2.1
1070
    50
1040
1.570796326794896
1070
    69
1070
     1
1070
    79
1070
     2
1070
   179
1070
     2
1002
}
  0
LEADER
  5
2F603
330
1F
100
AcDbEntity
  8
003
 48
0.2
100
AcDbLeader
  3
DIM
 73
     0
 74
     0
 40
6.300000000000002
 41
44.3475
 76
     3
 10
267.6228983799583
 20
640.0398673724768
 30
0.0
 10
276.8889009348795
 20
663.7015437545445
 30
0.0
 10
279.7284964015602
 20
663.7015437545444
 30
0.0
340
2F604
1001
ACAD
1000
DSTYLE
1002
{
1070
   147
1040
1.0
1070
    77
1070
     1
1070
    40
1040
2.1
1070
    50
1040
1.570796326794896
1070
    69
1070
     1
1070
    79
1070
     2
1070
   179
1070
     2
1002
}
  0
MTEXT
  5
2F604
102
{ACAD_REACTORS
330
2F603
102
}
330
1F
100
AcDbEntity
  8
003
 62
     7
 48
0.2
100
AcDbMText
 10
281.8284964015602
 20
665.8015437545445
 30
0.0
 40
6.3
 41
0.0
 71
     7
 72
     1
  1
20×40角パイプ
  7
DIM
 73
     1
 44
1.0
1001
ACAD
1000
MTEXTBEGIN
1070
    73
1070
     1
1070
    44
1040
1.0
1070
    74
1070
     0
1000
MTEXTEND
1000
ACAD_MTEXT_BBRT
1070
    91
1071
        3
1070
    46
1040
1.1
1070
    64
1071
-1027028792
1070
    65
1000

1070
    66
1000

1070
   442
1071
 16648611
1000
ACAD_MTEXT_BERT
  0
LEADER
  5
2F605
330
1F
100
AcDbEntity
  8
003
 48
0.2
100
AcDbLeader
  3
DIM
 73
     0
 74
     0
 40
6.3
 41
25.51500000000001
 76
     3
 10
268.0140261248953
 20
599.9840894430757
 30
0.0
 10
278.2578169460039
 20
577.5595142637643
 30
0.0
 10
281.0974124126845
 20
577.5595142637643
 30
0.0
340
2F606
1001
ACAD
1000
DSTYLE
1002
{
1070
   147
1040
1.0
1070
    77
1070
     1
1070
    40
1040
2.1
1070
    50
1040
1.570796326794896
1070
    69
1070
     1
1070
    79
1070
     2
1070
   179
1070
     2
1002
}
  0
MTEXT
  5
2F606
102
{ACAD_REACTORS
330
2F605
102
}
330
1F
100
AcDbEntity
  8
003
 62
     7
 48
0.2
100
AcDbMText
 10
283.1974124126846
 20
579.6595142637642
 30
0.0
 40
6.3
 41
0.0
 71
     7
 72
     1
  1
ブラケット
  7
DIM
 73
     1
 44
1.0
1001
ACAD
1000
MTEXTBEGIN
1070
    73
1070
     1
1070
    44
1040
1.0
1070
    74
1070
     0
1000
MTEXTEND
1000
ACAD_MTEXT_BBRT
1070
    91
1071
        3
1070
    46
1040
1.1
1070
    64
1071
-1027028792
1070
    65
1000

1070
    66
1000

1070
   442
1071
 16386822
1000
ACAD_MTEXT_BERT
  0
DIMENSION
  5
2F607
330
1F
100
AcDbEntity
  8
003
 48
0.2
100
AcDbDimension
  2
*D10
 10
278.0140261248953
 20
651.3233923641529
 30
0.0
 11
268.0140261248953
 21
656.5733923641529
 31
0.0
 70
    32
 71
     5
 42
20.0
  3
DIM
100
AcDbAlignedDimension
 13
258.0140261248953
 23
638.4840894430758
 33
0.0
 14
278.0140261248953
 24
638.4840894430757
 34
0.0
100
AcDbRotatedDimension
1001
ACAD
1000
DSTYLE
1002
{
1070
    40
1040
2.1
1070
    79
1070
     2
1070
   179
1070
     2
1002
}
  0
LWPOLYLINE
  5
2F608
330
1F
100
AcDbEntity
  8
003
 48
0.5
100
AcDbPolyline
 90
        7
 70
     0
 43
0.0
 10
273.7640261248953
 20
600.4840894430757
 10
275.7640261248953
 20
600.4840894430757
 10
275.7640261248953
 20
637.9840894430757
 10
260.2640261248953
 20
637.9840894430757
 10
260.2640261248953
 20
602.4840894430757
 42
0.4142135623730951
 10
262.2640261248953
 20
600.4840894430757
 10
273.2640261248953
 20
600.4840894430757
  0
LINE
  5
2F609
330
1F
100
AcDbEntity
  8
003
 48
0.5
100
AcDbLine
 10
273.7640261248953
 20
637.9840894430757
 30
0.0
 11
273.7640261248953
 21
600.4840894430757
 31
0.0
  0
LINE
  5
2F60A
330
1F
100
AcDbEntity
  8
003
 48
0.5
100
AcDbLine
 10
273.2640261248953
 20
602.4840894430757
 30
0.0
 11
273.2640261248953
 21
600.4840894430757
 31
0.0
  0
LINE
  5
2F60B
330
1F
100
AcDbEntity
  8
003
 48
0.5
100
AcDbLine
 10
262.2640261248953
 20
637.9840894430757
 30
0.0
 11
262.2640261248953
 21
602.4840894430757
 31
0.0
  0
LINE
  5
2F60C
330
1F
100
AcDbEntity
  8
003
 48
0.5
100
AcDbLine
 10
273.2640261248953
 20
602.4840894430757
 30
0.0
 11
262.2640261248953
 21
602.4840894430757
 31
0.0
  0
LINE
  5
2F60D
330
1F
100
AcDbEntity
  8
003
100
AcDbLine
 10
260.0140261248953
 20
601.9840894430757
 30
0.0
 11
260.0140261248953
 21
637.9840894430757
 31
0.0
  0
LINE
  5
2F60E
330
1F
100
AcDbEntity
  8
003
100
AcDbLine
 10
276.0140261248953
 20
637.9840894430757
 30
0.0
 11
276.0140261248953
 21
601.9840894430757
 31
0.0
  0
LINE
  5
2F60F
330
1F
100
AcDbEntity
  8
003
100
AcDbLine
 10
275.9140261248949
 20
601.9840894430758
 30
0.0
 11
275.9140261248954
 21
599.9840894430757
 31
0.0
  0
LINE
  5
2F610
330
1F
100
AcDbEntity
  8
003
100
AcDbLine
 10
260.0140261248953
 20
637.9840894430757
 30
0.0
 11
276.0140261248953
 21
637.9840894430757
 31
0.0
  0
LINE
  5
2F611
330
1F
100
AcDbEntity
  8
006
100
AcDbLine
 10
269.9240261248951
 20
619.9840894430757
 30
0.0
 11
253.181517801896
 21
619.9840894430757
 31
0.0
  0
LINE
  5
2F612
330
1F
100
AcDbEntity
  8
010
100
AcDbLine
 10
272.4784922189624
 20
637.9840894430757
 30
0.0
 11
274.4784922189624
 21
639.9840894430757
 31
0.0
  0
LINE
  5
2F613
330
1F
100
AcDbEntity
  8
010
100
AcDbLine
 10
261.8718905011647
 20
637.9840894430757
 30
0.0
 11
263.8718905011647
 21
639.9840894430757
 31
0.0
  0
LINE
  5
2F614
330
1F
100
AcDbEntity
  8
010
100
AcDbLine
 10
265.4074244070971
 20
637.9840894430757
 30
0.0
 11
267.4074244070971
 21
639.9840894430757
 31
0.0
  0
LINE
  5
2F615
330
1F
100
AcDbEntity
  8
010
100
AcDbLine
 10
268.94295831303
 20
637.9840894430757
 30
0.0
 11
270.94295831303
 21
639.9840894430757
 31
0.0
  0
LINE
  5
2F616
330
1F
100
AcDbEntity
  8
010
100
AcDbLine
 10
276.0140261248953
 20
637.9840894430757
 30
0.0
 11
277.5746862966748
 21
639.5447496148555
 31
0.0
  0
LINE
  5
2F617
330
1F
100
AcDbEntity
  8
010
100
AcDbLine
 10
276.0140261248953
 20
634.4485555371432
 30
0.0
 11
278.0140261248953
 21
636.4485555371433
 31
0.0
  0
LINE
  5
2F618
330
1F
100
AcDbEntity
  8
003
100
AcDbLine
 10
270.347359324895
 20
629.4007561430756
 30
0.0
 11
270.347359324895
 21
630.5674227430757
 31
0.0
  0
LINE
  5
2F619
330
1F
100
AcDbEntity
  8
003
100
AcDbLine
 10
269.1806927248954
 20
629.4007561430756
 30
0.0
 11
270.347359324895
 21
629.4007561430756
 31
0.0
  0
LINE
  5
2F61A
330
1F
100
AcDbEntity
  8
003
100
AcDbLine
 10
269.1806927248954
 20
630.5674227430757
 30
0.0
 11
270.347359324895
 21
630.5674227430757
 31
0.0
  0
LINE
  5
2F61B
330
1F
100
AcDbEntity
  8
003
100
AcDbLine
 10
265.6806929248951
 20
629.4007561430756
 30
0.0
 11
265.6806929248951
 21
630.5674227430757
 31
0.0
  0
LINE
  5
2F61C
330
1F
100
AcDbEntity
  8
003
100
AcDbLine
 10
267.4423594908954
 20
627.6507562430757
 30
0.0
 11
268.5973594248953
 21
627.6507562430757
 31
0.0
  0
LINE
  5
2F61D
330
1F
100
AcDbEntity
  8
003
100
AcDbLine
 10
267.4423594908954
 20
627.6507562430757
 30
0.0
 11
267.4423594908954
 21
628.8174228430758
 31
0.0
  0
LINE
  5
2F61E
330
1F
100
AcDbEntity
  8
003
100
AcDbLine
 10
265.6806929248951
 20
629.4007561430756
 30
0.0
 11
266.8590261908953
 21
629.4007561430756
 31
0.0
  0
ARC
  5
2F61F
330
1F
100
AcDbEntity
  8
003
100
AcDbCircle
 10
266.8590261908953
 20
628.8174228430758
 30
0.0
 40
0.5833333000000001
100
AcDbArc
 50
0.0
 51
90.0
  0
LINE
  5
2F620
330
1F
100
AcDbEntity
  8
003
100
AcDbLine
 10
268.5973594248953
 20
627.6507562430757
 30
0.0
 11
268.5973594248953
 21
628.8174228430758
 31
0.0
  0
LINE
  5
2F621
330
1F
100
AcDbEntity
  8
003
100
AcDbLine
 10
267.4306928248952
 20
632.3174226430759
 30
0.0
 11
268.5973594248953
 21
632.3174226430759
 31
0.0
  0
LINE
  5
2F622
330
1F
100
AcDbEntity
  8
003
100
AcDbLine
 10
267.4306928248952
 20
631.1507560430758
 30
0.0
 11
267.4306928248952
 21
632.3174226430759
 31
0.0
  0
LINE
  5
2F623
330
1F
100
AcDbEntity
  8
003
100
AcDbLine
 10
265.6806929248951
 20
630.5674227430757
 30
0.0
 11
266.8473595248952
 21
630.5674227430757
 31
0.0
  0
ARC
  5
2F624
330
1F
100
AcDbEntity
  8
003
100
AcDbCircle
 10
266.8473595248952
 20
631.1507560430758
 30
0.0
 40
0.5833333000000001
100
AcDbArc
 50
270.0
 51
0.0
  0
LINE
  5
2F625
330
1F
100
AcDbEntity
  8
003
100
AcDbLine
 10
268.5973594248953
 20
631.1507560430758
 30
0.0
 11
268.5973594248953
 21
632.3174226430759
 31
0.0
  0
LINE
  5
2F626
330
1F
100
AcDbEntity
  8
006
100
AcDbLine
 10
263.0140261248953
 20
629.9840894430757
 30
0.0
 11
273.0140261248953
 21
629.9840894430757
 31
0.0
  0
ARC
  5
2F627
330
1F
100
AcDbEntity
  8
003
100
AcDbCircle
 10
269.1806927248954
 20
628.8174228430758
 30
0.0
 40
0.5833333000000001
100
AcDbArc
 50
90.0
 51
180.0
  0
ARC
  5
2F628
330
1F
100
AcDbEntity
  8
003
100
AcDbCircle
 10
269.1806927248954
 20
631.1507560430758
 30
0.0
 40
0.5833333000000001
100
AcDbArc
 50
180.0
 51
270.0
  0
LINE
  5
2F629
330
1F
100
AcDbEntity
  8
010
100
AcDbLine
 10
276.0140261248953
 20
609.699818195614
 30
0.0
 11
278.0140261248953
 21
611.699818195614
 31
0.0
  0
LINE
  5
2F62A
330
1F
100
AcDbEntity
  8
010
100
AcDbLine
 10
276.0140261248953
 20
627.3774877252775
 30
0.0
 11
278.0140261248953
 21
629.3774877252775
 31
0.0
  0
LINE
  5
2F62B
330
1F
100
AcDbEntity
  8
010
100
AcDbLine
 10
276.0140261248953
 20
620.3064199134122
 30
0.0
 11
278.0140261248953
 21
622.3064199134122
 31
0.0
  0
LINE
  5
2F62C
330
1F
100
AcDbEntity
  8
010
100
AcDbLine
 10
276.0140261248953
 20
623.8419538193451
 30
0.0
 11
278.0140261248953
 21
625.8419538193451
 31
0.0
  0
LINE
  5
2F62D
330
1F
100
AcDbEntity
  8
010
100
AcDbLine
 10
276.0140261248953
 20
613.2353521015464
 30
0.0
 11
278.0140261248953
 21
615.2353521015465
 31
0.0
  0
LINE
  5
2F62E
330
1F
100
AcDbEntity
  8
010
100
AcDbLine
 10
276.0140261248953
 20
616.7708860074793
 30
0.0
 11
278.0140261248953
 21
618.7708860074793
 31
0.0
  0
CIRCLE
  5
2F62F
330
1F
100
AcDbEntity
  8
003
100
AcDbCircle
 10
268.0140261248953
 20
629.9840894430757
 30
0.0
 40
3.4999998
  0
LINE
  5
2F630
330
1F
100
AcDbEntity
  8
010
100
AcDbLine
 10
276.0140261248953
 20
630.9130216312104
 30
0.0
 11
278.0140261248953
 21
632.9130216312104
 31
0.0
  0
LINE
  5
2F631
330
1F
100
AcDbEntity
  8
010
100
AcDbLine
 10
276.9786821406678
 20
600.0578724935881
 30
0.0
 11
277.940243074383
 21
601.0194334273031
 31
0.0
  0
LINE
  5
2F632
330
1F
100
AcDbEntity
  8
010
100
AcDbLine
 10
276.0140261248953
 20
602.6287503837482
 30
0.0
 11
278.0140261248953
 21
604.6287503837483
 31
0.0
  0
LINE
  5
2F633
330
1F
100
AcDbEntity
  8
010
100
AcDbLine
 10
276.0140261248953
 20
606.1642842896811
 30
0.0
 11
278.0140261248953
 21
608.1642842896812
 31
0.0
  0
LINE
  5
2F634
330
1F
100
AcDbEntity
  8
010
100
AcDbLine
 10
258.0140261248953
 20
637.6617589727392
 30
0.0
 11
260.3363565952318
 21
639.9840894430757
 31
0.0
  0
LINE
  5
2F635
330
1F
100
AcDbEntity
  8
010
100
AcDbLine
 10
258.0140261248953
 20
634.1262250668063
 30
0.0
 11
260.0140261248953
 21
636.1262250668063
 31
0.0
  0
LINE
  5
2F636
330
1F
100
AcDbEntity
  8
010
100
AcDbLine
 10
258.0140261248953
 20
627.055157254941
 30
0.0
 11
260.0140261248953
 21
629.055157254941
 31
0.0
  0
LINE
  5
2F637
330
1F
100
AcDbEntity
  8
010
100
AcDbLine
 10
258.0140261248953
 20
623.5196233490081
 30
0.0
 11
260.0140261248953
 21
625.5196233490082
 31
0.0
  0
LINE
  5
2F638
330
1F
100
AcDbEntity
  8
010
100
AcDbLine
 10
258.0140261248953
 20
619.9840894430752
 30
0.0
 11
260.0140261248953
 21
621.9840894430753
 31
0.0
  0
LINE
  5
2F639
330
1F
100
AcDbEntity
  8
010
100
AcDbLine
 10
258.0140261248953
 20
609.377487725277
 30
0.0
 11
260.0140261248953
 21
611.3774877252771
 31
0.0
  0
LINE
  5
2F63A
330
1F
100
AcDbEntity
  8
010
100
AcDbLine
 10
258.0140261248953
 20
616.4485555371426
 30
0.0
 11
260.0140261248953
 21
618.4485555371426
 31
0.0
  0
LINE
  5
2F63B
330
1F
100
AcDbEntity
  8
010
100
AcDbLine
 10
258.0140261248953
 20
612.9130216312099
 30
0.0
 11
260.0140261248953
 21
614.91302163121
 31
0.0
  0
LINE
  5
2F63C
330
1F
100
AcDbEntity
  8
010
100
AcDbLine
 10
258.0140261248953
 20
630.5906911608737
 30
0.0
 11
260.0140261248953
 21
632.5906911608736
 31
0.0
  0
LINE
  5
2F63D
330
1F
100
AcDbEntity
  8
010
100
AcDbLine
 10
258.0140261248953
 20
605.8419538193442
 30
0.0
 11
260.0140261248953
 21
607.8419538193442
 31
0.0
  0
LINE
  5
2F63E
330
1F
100
AcDbEntity
  8
010
100
AcDbLine
 10
258.0140261248953
 20
602.3064199134116
 30
0.0
 11
260.0140261248953
 21
604.3064199134115
 31
0.0
  0
LINE
  5
2F63F
330
1F
100
AcDbEntity
  8
010
100
AcDbLine
 10
259.250550630049
 20
600.0074105126324
 30
0.0
 11
260.1140261248952
 21
600.8708860074785
 31
0.0
  0
LWPOLYLINE
  5
2F640
330
1F
100
AcDbEntity
  8
003
100
AcDbPolyline
 90
       11
 70
     0
 43
0.0
 10
260.1140261248952
 20
601.9840894430758
 10
260.1140261248952
 20
599.9840894430758
 10
259.5140261248953
 20
599.9840894430758
 42
-0.4142135623730951
 10
258.0140261248953
 20
601.4840894430758
 10
258.0140261248953
 20
638.4840894430758
 42
-0.4142135623730969
 10
259.5140261248953
 20
639.9840894430758
 10
276.5140261248953
 20
639.9840894430757
 42
-0.4142135623730951
 10
278.0140261248953
 20
638.4840894430757
 10
278.0140261248953
 20
601.4840894430758
 42
-0.4142135623730951
 10
276.5140261248953
 20
599.9840894430758
 10
275.9140261248954
 20
599.9840894430758
  0
LINE
  5
2F641
330
1F
100
AcDbEntity
  8
006
100
AcDbLine
 10
268.0140261248953
 20
634.9840894430757
 30
0.0
 11
268.0140261248948
 21
624.9840894430757
 31
0.0
  0
LINE
  5
2F642
330
1F
100
AcDbEntity
  8
003
100
AcDbLine
 10
270.347359324895
 20
609.4007561430757
 30
0.0
 11
270.347359324895
 21
610.5674227430758
 31
0.0
  0
LINE
  5
2F643
330
1F
100
AcDbEntity
  8
003
100
AcDbLine
 10
269.1806927248954
 20
609.4007561430757
 30
0.0
 11
270.347359324895
 21
609.4007561430757
 31
0.0
  0
LINE
  5
2F644
330
1F
100
AcDbEntity
  8
003
100
AcDbLine
 10
269.1806927248954
 20
610.5674227430758
 30
0.0
 11
270.347359324895
 21
610.5674227430758
 31
0.0
  0
LINE
  5
2F645
330
1F
100
AcDbEntity
  8
003
100
AcDbLine
 10
265.6806929248951
 20
609.4007561430757
 30
0.0
 11
265.6806929248951
 21
610.5674227430758
 31
0.0
  0
LINE
  5
2F646
330
1F
100
AcDbEntity
  8
003
100
AcDbLine
 10
267.4423594908954
 20
607.6507562430757
 30
0.0
 11
268.5973594248953
 21
607.6507562430757
 31
0.0
  0
LINE
  5
2F647
330
1F
100
AcDbEntity
  8
003
100
AcDbLine
 10
267.4423594908954
 20
607.6507562430757
 30
0.0
 11
267.4423594908954
 21
608.8174228430759
 31
0.0
  0
LINE
  5
2F648
330
1F
100
AcDbEntity
  8
003
100
AcDbLine
 10
265.6806929248951
 20
609.4007561430757
 30
0.0
 11
266.8590261908953
 21
609.4007561430757
 31
0.0
  0
ARC
  5
2F649
330
1F
100
AcDbEntity
  8
003
100
AcDbCircle
 10
266.8590261908953
 20
608.8174228430759
 30
0.0
 40
0.5833333000000001
100
AcDbArc
 50
0.0
 51
90.0
  0
LINE
  5
2F64A
330
1F
100
AcDbEntity
  8
003
100
AcDbLine
 10
268.5973594248953
 20
607.6507562430757
 30
0.0
 11
268.5973594248953
 21
608.8174228430759
 31
0.0
  0
LINE
  5
2F64B
330
1F
100
AcDbEntity
  8
003
100
AcDbLine
 10
267.4306928248952
 20
612.3174226430759
 30
0.0
 11
268.5973594248953
 21
612.3174226430759
 31
0.0
  0
LINE
  5
2F64C
330
1F
100
AcDbEntity
  8
003
100
AcDbLine
 10
267.4306928248952
 20
611.1507560430758
 30
0.0
 11
267.4306928248952
 21
612.3174226430759
 31
0.0
  0
LINE
  5
2F64D
330
1F
100
AcDbEntity
  8
003
100
AcDbLine
 10
265.6806929248951
 20
610.5674227430758
 30
0.0
 11
266.8473595248952
 21
610.5674227430758
 31
0.0
  0
ARC
  5
2F64E
330
1F
100
AcDbEntity
  8
003
100
AcDbCircle
 10
266.8473595248952
 20
611.1507560430758
 30
0.0
 40
0.5833333000000001
100
AcDbArc
 50
270.0
 51
0.0
  0
LINE
  5
2F64F
330
1F
100
AcDbEntity
  8
003
100
AcDbLine
 10
268.5973594248953
 20
611.1507560430758
 30
0.0
 11
268.5973594248953
 21
612.3174226430759
 31
0.0
  0
LINE
  5
2F650
330
1F
100
AcDbEntity
  8
006
100
AcDbLine
 10
263.0140261248953
 20
609.9840894430757
 30
0.0
 11
273.0140261248953
 21
609.9840894430757
 31
0.0
  0
ARC
  5
2F651
330
1F
100
AcDbEntity
  8
003
100
AcDbCircle
 10
269.1806927248954
 20
608.8174228430759
 30
0.0
 40
0.5833333000000001
100
AcDbArc
 50
90.0
 51
180.0
  0
ARC
  5
2F652
330
1F
100
AcDbEntity
  8
003
100
AcDbCircle
 10
269.1806927248954
 20
611.1507560430758
 30
0.0
 40
0.5833333000000001
100
AcDbArc
 50
180.0
 51
270.0
  0
CIRCLE
  5
2F653
330
1F
100
AcDbEntity
  8
003
100
AcDbCircle
 10
268.0140261248953
 20
609.9840894430757
 30
0.0
 40
3.4999998
  0
LINE
  5
2F654
330
1F
100
AcDbEntity
  8
006
100
AcDbLine
 10
268.0140261248953
 20
614.9840894430757
 30
0.0
 11
268.0140261248948
 21
604.9840894430757
 31
0.0
  0
LINE
  5
2F655
330
1F
100
AcDbEntity
  8
003
 48
0.2
100
AcDbLine
 10
260.0140261248953
 20
601.9840894430757
 30
0.0
 11
260.1140261248952
 21
601.9840894430758
 31
0.0
  0
LINE
  5
2F656
330
1F
100
AcDbEntity
  8
003
 48
0.2
100
AcDbLine
 10
276.0140261248953
 20
601.9840894430757
 30
0.0
 11
275.9140261248954
 21
601.9840894430758
 31
0.0
  0
DIMENSION
  5
2F657
330
1F
100
AcDbEntity
  8
003
 48
0.2
100
AcDbDimension
  2
*D11
 10
298.1825730544415
 20
609.9840894430757
 30
0.0
 11
292.9325730544414
 21
619.9840894430758
 31
0.0
 70
    32
 71
     5
 42
20.0
  3
DIM
100
AcDbAlignedDimension
 13
273.0140261248953
 23
629.9840894430757
 33
0.0
 14
273.0140261248953
 24
609.9840894430757
 34
0.0
 50
90.0
100
AcDbRotatedDimension
1001
ACAD
1000
DSTYLE
1002
{
1070
    40
1040
2.1
1070
    50
1040
1.570796326794896
1070
    69
1070
     1
1070
    79
1070
     2
1070
   179
1070
     2
1002
}
  0
DIMENSION
  5
2F658
330
1F
100
AcDbEntity
  8
003
 48
0.2
100
AcDbDimension
  2
*D12
 10
298.1825730544415
 20
639.9840894430757
 30
0.0
 11
298.1825730544415
 21
634.9840894430758
 31
0.0
 70
   160
 71
     5
 42
10.0
  3
DIM
100
AcDbAlignedDimension
 13
273.0140261248953
 23
629.9840894430757
 33
0.0
 14
276.5140261248953
 24
639.9840894430757
 34
0.0
 50
90.0
100
AcDbRotatedDimension
1001
ACAD
1000
DSTYLE
1002
{
1070
    40
1040
2.1
1070
    50
1040
1.570796326794896
1070
    69
1070
     1
1070
    79
1070
     2
1070
   179
1070
     2
1002
}
  0
DIMENSION
  5
2F659
330
1F
100
AcDbEntity
  8
003
 48
0.2
100
AcDbDimension
  2
*D13
 10
298.1825730544415
 20
599.9840894430757
 30
0.0
 11
298.1825730544415
 21
604.9840894430758
 31
0.0
 70
   160
 71
     5
 42
10.0
  3
DIM
100
AcDbAlignedDimension
 13
273.0140261248953
 23
609.9840894430757
 33
0.0
 14
276.5140261248953
 24
599.9840894430757
 34
0.0
 50
270.0
100
AcDbRotatedDimension
1001
ACAD
1000
DSTYLE
1002
{
1070
    40
1040
2.1
1070
    50
1040
1.570796326794896
1070
    69
1070
     1
1070
    79
1070
     2
1070
   179
1070
     2
1002
}
  0
LEADER
  5
2FC98
330
1F
100
AcDbEntity
  8
003
 48
0.2
100
AcDbLeader
  3
DIM
 73
     0
 74
     0
 40
6.300000000000002
 41
44.3475
 76
     3
 10
440.5776274768784
 20
686.3106487258837
 30
0.0
 10
449.8436300317997
 20
709.9723251079515
 30
0.0
 10
452.6832254984803
 20
709.9723251079515
 30
0.0
340
2FC99
1001
ACAD
1000
DSTYLE
1002
{
1070
   147
1040
1.0
1070
    77
1070
     1
1070
    40
1040
2.1
1070
    50
1040
1.570796326794896
1070
    69
1070
     1
1070
    79
1070
     2
1070
   179
1070
     2
1002
}
  0
MTEXT
  5
2FC99
102
{ACAD_REACTORS
330
2FC98
102
}
330
1F
100
AcDbEntity
  8
003
 62
     7
 48
0.2
100
AcDbMText
 10
454.7832254984803
 20
712.0723251079515
 30
0.0
 40
6.3
 41
0.0
 71
     7
 72
     1
  1
20×40角パイプ
  7
DIM
 73
     1
 44
1.0
1001
ACAD
1000
MTEXTBEGIN
1070
    73
1070
     1
1070
    44
1040
1.0
1070
    74
1070
     0
1000
MTEXTEND
1000
ACAD_MTEXT_BBRT
1070
    91
1071
        3
1070
    46
1040
1.1
1070
    64
1071
-1027028792
1070
    65
1000

1070
    66
1000

1070
   442
1071
 16386907
1000
ACAD_MTEXT_BERT
  0
LEADER
  5
2FC9A
330
1F
100
AcDbEntity
  8
003
 48
0.2
100
AcDbLeader
  3
DIM
 73
     0
 74
     0
 40
6.3
 41
25.51500000000001
 76
     3
 10
440.9687552218153
 20
597.9840894430756
 30
0.0
 10
451.212546042924
 20
575.5595142637641
 30
0.0
 10
454.0521415096048
 20
575.5595142637641
 30
0.0
340
2FC9B
1001
ACAD
1000
DSTYLE
1002
{
1070
   147
1040
1.0
1070
    77
1070
     1
1070
    40
1040
2.1
1070
    50
1040
1.570796326794896
1070
    69
1070
     1
1070
    79
1070
     2
1070
   179
1070
     2
1002
}
  0
MTEXT
  5
2FC9B
102
{ACAD_REACTORS
330
2FC9A
102
}
330
1F
100
AcDbEntity
  8
003
 62
     7
 48
0.2
100
AcDbMText
 10
456.1521415096047
 20
577.6595142637642
 30
0.0
 40
6.3
 41
0.0
 71
     7
 72
     1
  1
ブラケット
  7
DIM
 73
     1
 44
1.0
1001
ACAD
1000
MTEXTBEGIN
1070
    73
1070
     1
1070
    44
1040
1.0
1070
    74
1070
     0
1000
MTEXTEND
1000
ACAD_MTEXT_BBRT
1070
    91
1071
        3
1070
    46
1040
1.1
1070
    64
1071
-1027028792
1070
    65
1000

1070
    66
1000

1070
   442
1071
 16648811
1000
ACAD_MTEXT_BERT
  0
LWPOLYLINE
  5
2FC9C
330
1F
100
AcDbEntity
  8
003
 48
0.5
100
AcDbPolyline
 90
        7
 70
     0
 43
0.0
 10
446.7187552218153
 20
596.4840894430756
 10
448.7187552218154
 20
596.4840894430756
 10
448.7187552218154
 20
633.9840894430756
 10
433.2187552218154
 20
633.9840894430756
 10
433.2187552218154
 20
598.4840894430756
 42
0.4142135623730951
 10
435.2187552218153
 20
596.4840894430756
 10
446.2187552218153
 20
596.4840894430756
  0
LINE
  5
2FC9D
330
1F
100
AcDbEntity
  8
003
 48
0.5
100
AcDbLine
 10
446.7187552218153
 20
633.9840894430756
 30
0.0
 11
446.7187552218153
 21
596.4840894430756
 31
0.0
  0
LINE
  5
2FC9E
330
1F
100
AcDbEntity
  8
003
 48
0.5
100
AcDbLine
 10
446.2187552218153
 20
598.4840894430756
 30
0.0
 11
446.2187552218153
 21
596.4840894430756
 31
0.0
  0
LINE
  5
2FC9F
330
1F
100
AcDbEntity
  8
003
 48
0.5
100
AcDbLine
 10
435.2187552218153
 20
633.9840894430756
 30
0.0
 11
435.2187552218153
 21
598.4840894430756
 31
0.0
  0
LINE
  5
2FCA0
330
1F
100
AcDbEntity
  8
003
 48
0.5
100
AcDbLine
 10
446.2187552218153
 20
598.4840894430756
 30
0.0
 11
435.2187552218153
 21
598.4840894430756
 31
0.0
  0
LINE
  5
2FCA1
330
1F
100
AcDbEntity
  8
003
100
AcDbLine
 10
432.9687552218153
 20
644.2548707964826
 30
0.0
 11
432.9687552218153
 21
680.2548707964827
 31
0.0
  0
LINE
  5
2FCA2
330
1F
100
AcDbEntity
  8
003
100
AcDbLine
 10
448.9687552218153
 20
680.2548707964827
 30
0.0
 11
448.9687552218153
 21
644.2548707964826
 31
0.0
  0
LINE
  5
2FCA3
330
1F
100
AcDbEntity
  8
003
100
AcDbLine
 10
448.868755221815
 20
644.2548707964826
 30
0.0
 11
448.8687552218155
 21
642.2548707964827
 31
0.0
  0
LINE
  5
2FCA4
330
1F
100
AcDbEntity
  8
003
100
AcDbLine
 10
432.9687552218153
 20
680.2548707964827
 30
0.0
 11
448.9687552218153
 21
680.2548707964827
 31
0.0
  0
LINE
  5
2FCA5
330
1F
100
AcDbEntity
  8
010
100
AcDbLine
 10
445.4332213158825
 20
680.2548707964827
 30
0.0
 11
447.4332213158825
 21
682.2548707964827
 31
0.0
  0
LINE
  5
2FCA6
330
1F
100
AcDbEntity
  8
010
100
AcDbLine
 10
434.8266195980848
 20
680.2548707964827
 30
0.0
 11
436.8266195980847
 21
682.2548707964827
 31
0.0
  0
LINE
  5
2FCA7
330
1F
100
AcDbEntity
  8
010
100
AcDbLine
 10
438.3621535040171
 20
680.2548707964827
 30
0.0
 11
440.3621535040172
 21
682.2548707964827
 31
0.0
  0
LINE
  5
2FCA8
330
1F
100
AcDbEntity
  8
010
100
AcDbLine
 10
441.8976874099501
 20
680.2548707964827
 30
0.0
 11
443.8976874099501
 21
682.2548707964827
 31
0.0
  0
LINE
  5
2FCA9
330
1F
100
AcDbEntity
  8
010
100
AcDbLine
 10
448.9687552218153
 20
680.2548707964827
 30
0.0
 11
450.5294153935949
 21
681.8155309682624
 31
0.0
  0
LINE
  5
2FCAA
330
1F
100
AcDbEntity
  8
010
100
AcDbLine
 10
448.9687552218153
 20
676.7193368905502
 30
0.0
 11
450.9687552218154
 21
678.7193368905502
 31
0.0
  0
LINE
  5
2FCAB
330
1F
100
AcDbEntity
  8
003
100
AcDbLine
 10
443.3020884218151
 20
625.4007561430755
 30
0.0
 11
443.3020884218151
 21
626.5674227430756
 31
0.0
  0
LINE
  5
2FCAC
330
1F
100
AcDbEntity
  8
003
100
AcDbLine
 10
442.1354218218154
 20
625.4007561430755
 30
0.0
 11
443.3020884218151
 21
625.4007561430755
 31
0.0
  0
LINE
  5
2FCAD
330
1F
100
AcDbEntity
  8
003
100
AcDbLine
 10
442.1354218218154
 20
626.5674227430756
 30
0.0
 11
443.3020884218151
 21
626.5674227430756
 31
0.0
  0
LINE
  5
2FCAE
330
1F
100
AcDbEntity
  8
003
100
AcDbLine
 10
438.6354220218152
 20
625.4007561430755
 30
0.0
 11
438.6354220218152
 21
626.5674227430756
 31
0.0
  0
LINE
  5
2FCAF
330
1F
100
AcDbEntity
  8
003
100
AcDbLine
 10
440.3970885878154
 20
623.6507562430756
 30
0.0
 11
441.5520885218154
 21
623.6507562430756
 31
0.0
  0
LINE
  5
2FCB0
330
1F
100
AcDbEntity
  8
003
100
AcDbLine
 10
440.3970885878154
 20
623.6507562430756
 30
0.0
 11
440.3970885878154
 21
624.8174228430757
 31
0.0
  0
LINE
  5
2FCB1
330
1F
100
AcDbEntity
  8
003
100
AcDbLine
 10
438.6354220218152
 20
625.4007561430755
 30
0.0
 11
439.8137552878154
 21
625.4007561430755
 31
0.0
  0
ARC
  5
2FCB2
330
1F
100
AcDbEntity
  8
003
100
AcDbCircle
 10
439.8137552878154
 20
624.8174228430757
 30
0.0
 40
0.5833333000000001
100
AcDbArc
 50
0.0
 51
90.0
  0
LINE
  5
2FCB3
330
1F
100
AcDbEntity
  8
003
100
AcDbLine
 10
441.5520885218154
 20
623.6507562430756
 30
0.0
 11
441.5520885218154
 21
624.8174228430757
 31
0.0
  0
LINE
  5
2FCB4
330
1F
100
AcDbEntity
  8
003
100
AcDbLine
 10
440.3854219218153
 20
628.3174226430758
 30
0.0
 11
441.5520885218154
 21
628.3174226430758
 31
0.0
  0
LINE
  5
2FCB5
330
1F
100
AcDbEntity
  8
003
100
AcDbLine
 10
440.3854219218153
 20
627.1507560430757
 30
0.0
 11
440.3854219218153
 21
628.3174226430758
 31
0.0
  0
LINE
  5
2FCB6
330
1F
100
AcDbEntity
  8
003
100
AcDbLine
 10
438.6354220218152
 20
626.5674227430756
 30
0.0
 11
439.8020886218152
 21
626.5674227430756
 31
0.0
  0
ARC
  5
2FCB7
330
1F
100
AcDbEntity
  8
003
100
AcDbCircle
 10
439.8020886218152
 20
627.1507560430757
 30
0.0
 40
0.5833333000000001
100
AcDbArc
 50
270.0
 51
0.0
  0
LINE
  5
2FCB8
330
1F
100
AcDbEntity
  8
003
100
AcDbLine
 10
441.5520885218154
 20
627.1507560430757
 30
0.0
 11
441.5520885218154
 21
628.3174226430758
 31
0.0
  0
LINE
  5
2FCB9
330
1F
100
AcDbEntity
  8
006
100
AcDbLine
 10
435.9687552218153
 20
625.9840894430756
 30
0.0
 11
445.9687552218154
 21
625.9840894430756
 31
0.0
  0
ARC
  5
2FCBA
330
1F
100
AcDbEntity
  8
003
100
AcDbCircle
 10
442.1354218218154
 20
624.8174228430757
 30
0.0
 40
0.5833333000000001
100
AcDbArc
 50
90.0
 51
180.0
  0
ARC
  5
2FCBB
330
1F
100
AcDbEntity
  8
003
100
AcDbCircle
 10
442.1354218218154
 20
627.1507560430757
 30
0.0
 40
0.5833333000000001
100
AcDbArc
 50
180.0
 51
270.0
  0
LINE
  5
2FCBC
330
1F
100
AcDbEntity
  8
010
100
AcDbLine
 10
448.9687552218153
 20
651.970599549021
 30
0.0
 11
450.9687552218154
 21
653.9705995490209
 31
0.0
  0
LINE
  5
2FCBD
330
1F
100
AcDbEntity
  8
010
100
AcDbLine
 10
448.9687552218153
 20
669.6482690786845
 30
0.0
 11
450.9687552218154
 21
671.6482690786845
 31
0.0
  0
LINE
  5
2FCBE
330
1F
100
AcDbEntity
  8
010
100
AcDbLine
 10
448.9687552218153
 20
662.5772012668192
 30
0.0
 11
450.9687552218154
 21
664.5772012668191
 31
0.0
  0
LINE
  5
2FCBF
330
1F
100
AcDbEntity
  8
010
100
AcDbLine
 10
448.9687552218153
 20
666.1127351727521
 30
0.0
 11
450.9687552218154
 21
668.112735172752
 31
0.0
  0
LINE
  5
2FCC0
330
1F
100
AcDbEntity
  8
010
100
AcDbLine
 10
448.9687552218153
 20
655.5061334549534
 30
0.0
 11
450.9687552218154
 21
657.5061334549534
 31
0.0
  0
LINE
  5
2FCC1
330
1F
100
AcDbEntity
  8
010
100
AcDbLine
 10
448.9687552218153
 20
659.0416673608863
 30
0.0
 11
450.9687552218154
 21
661.0416673608863
 31
0.0
  0
CIRCLE
  5
2FCC2
330
1F
100
AcDbEntity
  8
003
100
AcDbCircle
 10
440.9687552218153
 20
625.9840894430756
 30
0.0
 40
3.4999998
  0
LINE
  5
2FCC3
330
1F
100
AcDbEntity
  8
010
100
AcDbLine
 10
448.9687552218153
 20
673.1838029846174
 30
0.0
 11
450.9687552218154
 21
675.1838029846173
 31
0.0
  0
LINE
  5
2FCC4
330
1F
100
AcDbEntity
  8
010
100
AcDbLine
 10
449.9334112375879
 20
642.3286538469949
 30
0.0
 11
450.8949721713031
 21
643.2902147807101
 31
0.0
  0
LINE
  5
2FCC5
330
1F
100
AcDbEntity
  8
010
100
AcDbLine
 10
448.9687552218153
 20
644.8995317371553
 30
0.0
 11
450.9687552218154
 21
646.8995317371552
 31
0.0
  0
LINE
  5
2FCC6
330
1F
100
AcDbEntity
  8
010
100
AcDbLine
 10
448.9687552218153
 20
648.4350656430881
 30
0.0
 11
450.9687552218154
 21
650.4350656430881
 31
0.0
  0
LINE
  5
2FCC7
330
1F
100
AcDbEntity
  8
010
100
AcDbLine
 10
430.9687552218154
 20
679.9325403261462
 30
0.0
 11
433.2910856921519
 21
682.2548707964827
 31
0.0
  0
LINE
  5
2FCC8
330
1F
100
AcDbEntity
  8
010
100
AcDbLine
 10
430.9687552218154
 20
676.3970064202132
 30
0.0
 11
432.9687552218153
 21
678.3970064202133
 31
0.0
  0
LINE
  5
2FCC9
330
1F
100
AcDbEntity
  8
010
100
AcDbLine
 10
430.9687552218154
 20
669.325938608348
 30
0.0
 11
432.9687552218153
 21
671.3259386083479
 31
0.0
  0
LINE
  5
2FCCA
330
1F
100
AcDbEntity
  8
010
100
AcDbLine
 10
430.9687552218154
 20
665.7904047024151
 30
0.0
 11
432.9687552218153
 21
667.7904047024151
 31
0.0
  0
LINE
  5
2FCCB
330
1F
100
AcDbEntity
  8
010
100
AcDbLine
 10
430.9687552218154
 20
662.2548707964822
 30
0.0
 11
432.9687552218153
 21
664.2548707964822
 31
0.0
  0
LINE
  5
2FCCC
330
1F
100
AcDbEntity
  8
010
100
AcDbLine
 10
430.9687552218154
 20
651.648269078684
 30
0.0
 11
432.9687552218153
 21
653.648269078684
 31
0.0
  0
LINE
  5
2FCCD
330
1F
100
AcDbEntity
  8
010
100
AcDbLine
 10
430.9687552218154
 20
658.7193368905495
 30
0.0
 11
432.9687552218153
 21
660.7193368905496
 31
0.0
  0
LINE
  5
2FCCE
330
1F
100
AcDbEntity
  8
010
100
AcDbLine
 10
430.9687552218154
 20
655.1838029846169
 30
0.0
 11
432.9687552218153
 21
657.1838029846169
 31
0.0
  0
LINE
  5
2FCCF
330
1F
100
AcDbEntity
  8
010
100
AcDbLine
 10
430.9687552218154
 20
672.8614725142806
 30
0.0
 11
432.9687552218153
 21
674.8614725142807
 31
0.0
  0
LINE
  5
2FCD0
330
1F
100
AcDbEntity
  8
010
100
AcDbLine
 10
430.9687552218154
 20
648.1127351727511
 30
0.0
 11
432.9687552218153
 21
650.1127351727511
 31
0.0
  0
LINE
  5
2FCD1
330
1F
100
AcDbEntity
  8
010
100
AcDbLine
 10
430.9687552218154
 20
644.5772012668185
 30
0.0
 11
432.9687552218153
 21
646.5772012668185
 31
0.0
  0
LINE
  5
2FCD2
330
1F
100
AcDbEntity
  8
010
100
AcDbLine
 10
432.2052797269691
 20
642.2781918660393
 30
0.0
 11
433.0687552218153
 21
643.1416673608855
 31
0.0
  0
LWPOLYLINE
  5
2FCD3
330
1F
100
AcDbEntity
  8
003
100
AcDbPolyline
 90
       11
 70
     0
 43
0.0
 10
433.0687552218153
 20
644.2548707964826
 10
433.0687552218153
 20
642.2548707964827
 10
432.4687552218153
 20
642.2548707964827
 42
-0.4142135623730951
 10
430.9687552218154
 20
643.7548707964826
 10
430.9687552218154
 20
680.7548707964826
 42
-0.4142135623730969
 10
432.4687552218153
 20
682.2548707964827
 10
449.4687552218153
 20
682.2548707964827
 42
-0.4142135623730951
 10
450.9687552218154
 20
680.7548707964826
 10
450.9687552218154
 20
643.7548707964826
 42
-0.4142135623730951
 10
449.4687552218153
 20
642.2548707964827
 10
448.8687552218155
 20
642.2548707964827
  0
LINE
  5
2FCD4
330
1F
100
AcDbEntity
  8
006
100
AcDbLine
 10
440.9687552218153
 20
630.9840894430756
 30
0.0
 11
440.9687552218149
 21
620.9840894430755
 31
0.0
  0
LINE
  5
2FCD5
330
1F
100
AcDbEntity
  8
003
100
AcDbLine
 10
443.3020884218151
 20
605.4007561430755
 30
0.0
 11
443.3020884218151
 21
606.5674227430756
 31
0.0
  0
LINE
  5
2FCD6
330
1F
100
AcDbEntity
  8
003
100
AcDbLine
 10
442.1354218218154
 20
605.4007561430755
 30
0.0
 11
443.3020884218151
 21
605.4007561430755
 31
0.0
  0
LINE
  5
2FCD7
330
1F
100
AcDbEntity
  8
003
100
AcDbLine
 10
442.1354218218154
 20
606.5674227430756
 30
0.0
 11
443.3020884218151
 21
606.5674227430756
 31
0.0
  0
LINE
  5
2FCD8
330
1F
100
AcDbEntity
  8
003
100
AcDbLine
 10
438.6354220218152
 20
605.4007561430755
 30
0.0
 11
438.6354220218152
 21
606.5674227430756
 31
0.0
  0
LINE
  5
2FCD9
330
1F
100
AcDbEntity
  8
003
100
AcDbLine
 10
440.3970885878154
 20
603.6507562430756
 30
0.0
 11
441.5520885218154
 21
603.6507562430756
 31
0.0
  0
LINE
  5
2FCDA
330
1F
100
AcDbEntity
  8
003
100
AcDbLine
 10
440.3970885878154
 20
603.6507562430756
 30
0.0
 11
440.3970885878154
 21
604.8174228430757
 31
0.0
  0
LINE
  5
2FCDB
330
1F
100
AcDbEntity
  8
003
100
AcDbLine
 10
438.6354220218152
 20
605.4007561430755
 30
0.0
 11
439.8137552878154
 21
605.4007561430755
 31
0.0
  0
ARC
  5
2FCDC
330
1F
100
AcDbEntity
  8
003
100
AcDbCircle
 10
439.8137552878154
 20
604.8174228430757
 30
0.0
 40
0.5833333000000001
100
AcDbArc
 50
0.0
 51
90.0
  0
LINE
  5
2FCDD
330
1F
100
AcDbEntity
  8
003
100
AcDbLine
 10
441.5520885218154
 20
603.6507562430756
 30
0.0
 11
441.5520885218154
 21
604.8174228430757
 31
0.0
  0
LINE
  5
2FCDE
330
1F
100
AcDbEntity
  8
003
100
AcDbLine
 10
440.3854219218153
 20
608.3174226430758
 30
0.0
 11
441.5520885218154
 21
608.3174226430758
 31
0.0
  0
LINE
  5
2FCDF
330
1F
100
AcDbEntity
  8
003
100
AcDbLine
 10
440.3854219218153
 20
607.1507560430757
 30
0.0
 11
440.3854219218153
 21
608.3174226430758
 31
0.0
  0
LINE
  5
2FCE0
330
1F
100
AcDbEntity
  8
003
100
AcDbLine
 10
438.6354220218152
 20
606.5674227430756
 30
0.0
 11
439.8020886218152
 21
606.5674227430756
 31
0.0
  0
ARC
  5
2FCE1
330
1F
100
AcDbEntity
  8
003
100
AcDbCircle
 10
439.8020886218152
 20
607.1507560430757
 30
0.0
 40
0.5833333000000001
100
AcDbArc
 50
270.0
 51
0.0
  0
LINE
  5
2FCE2
330
1F
100
AcDbEntity
  8
003
100
AcDbLine
 10
441.5520885218154
 20
607.1507560430757
 30
0.0
 11
441.5520885218154
 21
608.3174226430758
 31
0.0
  0
LINE
  5
2FCE3
330
1F
100
AcDbEntity
  8
006
100
AcDbLine
 10
435.9687552218153
 20
605.9840894430756
 30
0.0
 11
445.9687552218154
 21
605.9840894430756
 31
0.0
  0
ARC
  5
2FCE4
330
1F
100
AcDbEntity
  8
003
100
AcDbCircle
 10
442.1354218218154
 20
604.8174228430757
 30
0.0
 40
0.5833333000000001
100
AcDbArc
 50
90.0
 51
180.0
  0
ARC
  5
2FCE5
330
1F
100
AcDbEntity
  8
003
100
AcDbCircle
 10
442.1354218218154
 20
607.1507560430757
 30
0.0
 40
0.5833333000000001
100
AcDbArc
 50
180.0
 51
270.0
  0
CIRCLE
  5
2FCE6
330
1F
100
AcDbEntity
  8
003
100
AcDbCircle
 10
440.9687552218153
 20
605.9840894430756
 30
0.0
 40
3.4999998
  0
LINE
  5
2FCE7
330
1F
100
AcDbEntity
  8
006
100
AcDbLine
 10
440.9687552218153
 20
610.9840894430756
 30
0.0
 11
440.9687552218149
 21
600.9840894430756
 31
0.0
  0
LINE
  5
2FCE8
330
1F
100
AcDbEntity
  8
006
100
AcDbLine
 10
428.2187552218154
 20
615.9840894430756
 30
0.0
 11
438.2187552218153
 21
615.9840894430756
 31
0.0
  0
LINE
  5
2FCE9
330
1F
100
AcDbEntity
  8
006
100
AcDbLine
 10
443.7187552218154
 20
615.9840894430756
 30
0.0
 11
453.7187552218154
 21
615.9840894430756
 31
0.0
  0
LINE
  5
2FCEA
330
1F
100
AcDbEntity
  8
003
 48
0.2
100
AcDbLine
 10
432.9687552218153
 20
644.2548707964826
 30
0.0
 11
433.0687552218153
 21
644.2548707964826
 31
0.0
  0
LINE
  5
2FCEB
330
1F
100
AcDbEntity
  8
003
 48
0.2
100
AcDbLine
 10
448.9687552218153
 20
644.2548707964826
 30
0.0
 11
448.8687552218155
 21
644.2548707964826
 31
0.0
  0
LINE
  5
2FD42
330
1F
100
AcDbEntity
  8
007
100
AcDbLine
 10
988.0908128471732
 20
520.8939010538279
 30
0.0
 11
991.0908128471733
 21
518.8939010538279
 31
0.0
  0
LINE
  5
2FD43
330
1F
100
AcDbEntity
  8
007
100
AcDbLine
 10
991.0908128471733
 20
518.8939010538279
 30
0.0
 11
988.0908128471732
 21
516.8939010538279
 31
0.0
  0
LINE
  5
2FD44
330
1F
100
AcDbEntity
  8
007
100
AcDbLine
 10
990.6708128471734
 20
519.1739010538278
 30
0.0
 11
990.5408128471734
 21
518.523901053828
 31
0.0
  0
LINE
  5
2FD45
330
1F
100
AcDbEntity
  8
007
100
AcDbLine
 10
989.1708128471734
 20
520.1739010538278
 30
0.0
 11
988.5608128471734
 21
517.2139010538278
 31
0.0
  0
LINE
  5
2FD46
330
1F
100
AcDbEntity
  8
007
100
AcDbLine
 10
985.9208128471735
 20
520.8939010538279
 30
0.0
 11
985.1008128471733
 21
516.8939010538279
 31
0.0
  0
LINE
  5
2FD47
330
1F
100
AcDbEntity
  8
007
100
AcDbLine
 10
987.6208128471732
 20
520.8939010538279
 30
0.0
 11
986.800812847173
 21
516.8939010538279
 31
0.0
  0
LINE
  5
2FD48
330
1F
100
AcDbEntity
  8
007
100
AcDbLine
 10
979.1208128471733
 20
520.8939010538279
 30
0.0
 11
978.3008128471731
 21
516.8939010538279
 31
0.0
  0
LINE
  5
2FD49
330
1F
100
AcDbEntity
  8
007
100
AcDbLine
 10
982.5208128471734
 20
520.8939010538279
 30
0.0
 11
981.7008128471732
 21
516.8939010538279
 31
0.0
  0
LINE
  5
2FD4A
330
1F
100
AcDbEntity
  8
007
100
AcDbLine
 10
984.2208128471732
 20
520.8939010538279
 30
0.0
 11
983.4008128471733
 21
516.8939010538279
 31
0.0
  0
LINE
  5
2FD4B
330
1F
100
AcDbEntity
  8
007
100
AcDbLine
 10
980.8208128471731
 20
520.8939010538279
 30
0.0
 11
980.0008128471734
 21
516.8939010538279
 31
0.0
  0
LINE
  5
2FD4C
330
1F
100
AcDbEntity
  8
007
100
AcDbLine
 10
988.0908128471732
 20
516.8939010538279
 30
0.0
 11
971.0908128471732
 21
516.8939010538279
 31
0.0
  0
LINE
  5
2FD4D
330
1F
100
AcDbEntity
  8
007
100
AcDbLine
 10
988.0908128471732
 20
520.8939010538279
 30
0.0
 11
971.0908128471732
 21
520.8939010538279
 31
0.0
  0
LINE
  5
2FD4E
330
1F
100
AcDbEntity
  8
006
 48
0.3
100
AcDbLine
 10
963.090812847173
 20
518.8939010538279
 30
0.0
 11
994.8817143131737
 21
518.8939010538274
 31
0.0
  0
LINE
  5
2FD4F
330
1F
100
AcDbEntity
  8
007
100
AcDbLine
 10
977.4208128471734
 20
520.8939010538279
 30
0.0
 11
976.6008128471733
 21
516.8939010538279
 31
0.0
  0
LINE
  5
2FD50
330
1F
100
AcDbEntity
  8
007
100
AcDbLine
 10
975.7208128471731
 20
520.8939010538279
 30
0.0
 11
974.9008128471732
 21
516.8939010538279
 31
0.0
  0
LINE
  5
2FD51
330
1F
100
AcDbEntity
  8
007
100
AcDbLine
 10
974.0208128471733
 20
520.8939010538279
 30
0.0
 11
973.2008128471731
 21
516.8939010538279
 31
0.0
  0
LINE
  5
2FD52
330
1F
100
AcDbEntity
  8
007
100
AcDbLine
 10
972.320812847173
 20
520.8939010538279
 30
0.0
 11
971.5008128471733
 21
516.8939010538279
 31
0.0
  0
ARC
  5
2FD53
330
1F
100
AcDbEntity
  8
007
100
AcDbCircle
 10
969.9908128471731
 20
521.1939010538278
 30
0.0
 40
1.199999999999999
100
AcDbArc
 50
90.0
 51
180.0
  0
LINE
  5
2FD54
330
1F
100
AcDbEntity
  8
007
100
AcDbLine
 10
971.0908128471732
 20
522.3939010538279
 30
0.0
 11
971.0908128471732
 21
515.3939010538278
 31
0.0
  0
ARC
  5
2FD55
330
1F
100
AcDbEntity
  8
007
100
AcDbCircle
 10
969.9908128471731
 20
516.5939010538279
 30
0.0
 40
1.199999999999999
100
AcDbArc
 50
180.0
 51
270.0
  0
LINE
  5
2FD56
330
1F
100
AcDbEntity
  8
007
100
AcDbLine
 10
971.0908128471732
 20
515.3939010538278
 30
0.0
 11
969.9908128471731
 21
515.3939010538278
 31
0.0
  0
LINE
  5
2FD57
330
1F
100
AcDbEntity
  8
007
100
AcDbLine
 10
968.7908128471732
 20
521.1939010538278
 30
0.0
 11
968.7908128471732
 21
516.5939010538279
 31
0.0
  0
LINE
  5
2FD58
330
1F
100
AcDbEntity
  8
007
100
AcDbLine
 10
971.0908128471732
 20
522.3939010538279
 30
0.0
 11
969.9908128471731
 21
522.3939010538279
 31
0.0
  0
LINE
  5
2FD59
330
1F
100
AcDbEntity
  8
003
100
AcDbLine
 10
972.0908128471737
 20
508.8939010538277
 30
0.0
 11
972.0908128471736
 21
528.8939010538276
 31
0.0
  0
LINE
  5
2FD5A
330
1F
100
AcDbEntity
  8
003
100
AcDbLine
 10
972.0908128471736
 20
528.8939010538276
 30
0.0
 11
885.5908128471737
 21
528.8939010538277
 31
0.0
  0
LINE
  5
2FD5B
330
1F
100
AcDbEntity
  8
003
100
AcDbLine
 10
972.0908128471737
 20
508.8939010538277
 30
0.0
 11
885.5908128471735
 21
508.8939010538277
 31
0.0
  0
LINE
  5
2FD5C
330
1F
100
AcDbEntity
  8
007
 48
0.3
100
AcDbLine
 10
934.0908128471735
 20
511.1439010538279
 30
0.0
 11
971.0908128471736
 21
511.1439010538279
 31
0.0
  0
ARC
  5
2FD5D
330
1F
100
AcDbEntity
  8
007
 48
0.3
100
AcDbCircle
 10
971.0908128471736
 20
513.1439010538278
 30
0.0
 40
2.0
100
AcDbArc
 50
270.0
 51
0.0
  0
LINE
  5
2FD5E
330
1F
100
AcDbEntity
  8
007
 48
0.3
100
AcDbLine
 10
973.0908128471735
 20
513.1439010538278
 30
0.0
 11
973.0908128471735
 21
524.6439010538279
 31
0.0
  0
LINE
  5
2FD5F
330
1F
100
AcDbEntity
  8
007
 48
0.3
100
AcDbLine
 10
971.0908128471736
 20
526.6439010538278
 30
0.0
 11
934.0908128471735
 21
526.6439010538278
 31
0.0
  0
ARC
  5
2FD60
330
1F
100
AcDbEntity
  8
007
 48
0.3
100
AcDbCircle
 10
971.0908128471736
 20
524.6439010538279
 30
0.0
 40
2.0
100
AcDbArc
 50
0.0
 51
90.0
  0
LINE
  5
2FD61
330
1F
100
AcDbEntity
  8
007
 48
0.3
100
AcDbLine
 10
934.0908128471735
 20
526.6439010538278
 30
0.0
 11
934.0908128471735
 21
513.1439010538278
 31
0.0
  0
LINE
  5
2FD62
330
1F
100
AcDbEntity
  8
007
 48
0.3
100
AcDbLine
 10
934.0908128471735
 20
513.1439010538278
 30
0.0
 11
971.0908128471736
 21
513.1439010538278
 31
0.0
  0
LINE
  5
2FD63
330
1F
100
AcDbEntity
  8
007
 48
0.3
100
AcDbLine
 10
971.0908128471736
 20
513.1439010538278
 30
0.0
 11
971.0908128471736
 21
524.6439010538279
 31
0.0
  0
LINE
  5
2FD64
330
1F
100
AcDbEntity
  8
007
 48
0.3
100
AcDbLine
 10
971.0908128471736
 20
524.6439010538279
 30
0.0
 11
934.0908128471735
 21
524.6439010538279
 31
0.0
  0
LINE
  5
2FD65
330
1F
100
AcDbEntity
  8
007
 48
0.3
100
AcDbLine
 10
934.0908128471735
 20
511.1439010538279
 30
0.0
 11
934.0908128471735
 21
513.1439010538278
 31
0.0
  0
LINE
  5
2FD66
330
1F
100
AcDbEntity
  8
006
100
AcDbLine
 10
953.0908128471734
 20
516.9839010538275
 30
0.0
 11
953.0908128471734
 21
540.8039010538275
 31
0.0
  0
DIMENSION
  5
2FD73
330
1F
100
AcDbEntity
  8
0
 48
0.2
100
AcDbDimension
  2
*D14
 10
973.0908128471734
 20
548.5161777889676
 30
0.0
 11
963.0908128471734
 21
553.7661777889676
 31
0.0
 70
    32
 71
     5
 42
19.99999999999977
  3
DIM
100
AcDbAlignedDimension
 13
953.0908128471734
 23
540.8039010538275
 33
0.0
 14
973.0908128471734
 24
540.8039010538275
 34
0.0
 50
180.0
100
AcDbRotatedDimension
1001
ACAD
1000
DSTYLE
1002
{
1070
    40
1040
2.1
1070
    50
1040
1.570796326794896
1070
    69
1070
     1
1070
    79
1070
     2
1070
   179
1070
     2
1002
}
  0
LINE
  5
2FDB8
330
1F
100
AcDbEntity
  8
0
100
AcDbLine
 10
809.890812847173
 20
528.8939010538278
 30
0.0
 11
809.890812847173
 21
529.293901053828
 31
0.0
  0
ARC
  5
2FDB9
330
1F
100
AcDbEntity
  8
0
100
AcDbCircle
 10
811.0908128471734
 20
529.293901053828
 30
0.0
 40
1.199999999999999
100
AcDbArc
 50
90.0
 51
180.0
  0
LINE
  5
2FDBA
330
1F
100
AcDbEntity
  8
0
100
AcDbLine
 10
816.2908128471737
 20
528.8939010538278
 30
0.0
 11
816.2908128471737
 21
529.293901053828
 31
0.0
  0
LINE
  5
2FDBB
330
1F
100
AcDbEntity
  8
HASEN
  6
HIDDEN
 48
5.0
100
AcDbLine
 10
811.5908128471733
 20
524.6439010538279
 30
0.0
 11
811.5908128471733
 21
528.8939010538278
 31
0.0
  0
LINE
  5
2FDBC
330
1F
100
AcDbEntity
  8
HASEN
  6
HIDDEN
 48
5.0
100
AcDbLine
 10
814.5908128471734
 20
524.643901053826
 30
0.0
 11
814.5908128471734
 21
528.8939010538278
 31
0.0
  0
LINE
  5
2FDBD
330
1F
100
AcDbEntity
  8
0
100
AcDbLine
 10
811.0908128471734
 20
530.4939010538277
 30
0.0
 11
815.0908128471733
 21
530.4939010538277
 31
0.0
  0
ARC
  5
2FDBE
330
1F
100
AcDbEntity
  8
0
100
AcDbCircle
 10
815.0908128471733
 20
529.293901053828
 30
0.0
 40
1.199999999999999
100
AcDbArc
 50
0.000000000000007
 51
90.0
  0
ARC
  5
2FDBF
330
1F
100
AcDbEntity
  8
HASEN
  6
HIDDEN
 48
5.0
100
AcDbCircle
 10
817.3216922781822
 20
524.5124986419277
 30
0.0
 40
2.734038964711523
100
AcDbArc
 50
177.2452092946751
 51
227.5043411150946
  0
ARC
  5
2FDC0
330
1F
100
AcDbEntity
  8
HASEN
  6
HIDDEN
 48
5.0
100
AcDbCircle
 10
816.0425259115342
 20
524.2881580582721
 30
0.0
 40
2.973073005024435
100
AcDbArc
 50
173.1278089902015
 51
234.343989225314
  0
LINE
  5
2FDC1
330
1F
100
AcDbEntity
  8
HASEN
  6
HIDDEN
 48
5.0
100
AcDbLine
 10
815.4747550581252
 20
522.4966137330616
 30
0.0
 11
814.309469459356
 21
521.8724431689083
 31
0.0
  0
ARC
  5
2FDC2
330
1F
100
AcDbEntity
  8
HASEN
  6
HIDDEN
 48
5.0
100
AcDbCircle
 10
808.8599334161646
 20
524.5124986419277
 30
0.0
 40
2.734038964711523
100
AcDbArc
 50
312.4956588849055
 51
2.754790705324909
  0
ARC
  5
2FDC3
330
1F
100
AcDbEntity
  8
HASEN
  6
HIDDEN
 48
5.0
100
AcDbCircle
 10
810.1390997828126
 20
524.2881580582721
 30
0.0
 40
2.973073005024435
100
AcDbArc
 50
305.656010774686
 51
6.872191009798519
  0
LINE
  5
2FDC4
330
1F
100
AcDbEntity
  8
HASEN
  6
HIDDEN
 48
5.0
100
AcDbLine
 10
810.7068706362211
 20
522.4966137330616
 30
0.0
 11
811.8721562349907
 21
521.8724431689083
 31
0.0
  0
LINE
  5
2FDC5
330
1F
100
AcDbEntity
  8
HASEN
  6
HIDDEN
 48
5.0
100
AcDbLine
 10
814.3094694593488
 20
521.8724431688979
 30
0.0
 11
814.3094694593488
 21
521.7312116976122
 31
0.0
  0
LINE
  5
2FDC6
330
1F
100
AcDbEntity
  8
HASEN
 48
0.5
100
AcDbLine
 10
811.872156234998
 20
521.8724431688979
 30
0.0
 11
811.872156234998
 21
521.7312116976122
 31
0.0
  0
ARC
  5
2FDC7
330
1F
100
AcDbEntity
  8
HASEN
  6
HIDDEN
 48
5.0
100
AcDbCircle
 10
813.0908128471734
 20
521.7312116976122
 30
0.0
 40
1.21865661217555
100
AcDbArc
 50
180.0
 51
0.000000000000007
  0
LINE
  5
2FDC8
330
1F
100
AcDbEntity
  8
0
100
AcDbLine
 10
809.890812847173
 20
528.8939010538278
 30
0.0
 11
816.2908128471737
 21
528.8939010538278
 31
0.0
  0
LINE
  5
2FDC9
330
1F
100
AcDbEntity
  8
007
100
AcDbLine
 10
778.0908128471737
 20
520.8939010538279
 30
0.0
 11
775.0908128471738
 21
518.8939010538279
 31
0.0
  0
LINE
  5
2FDCA
330
1F
100
AcDbEntity
  8
007
100
AcDbLine
 10
775.0908128471738
 20
518.8939010538279
 30
0.0
 11
778.0908128471737
 21
516.8939010538279
 31
0.0
  0
LINE
  5
2FDCB
330
1F
100
AcDbEntity
  8
007
100
AcDbLine
 10
775.5108128471736
 20
519.1739010538278
 30
0.0
 11
775.6408128471737
 21
518.523901053828
 31
0.0
  0
LINE
  5
2FDCC
330
1F
100
AcDbEntity
  8
007
100
AcDbLine
 10
777.0108128471735
 20
520.1739010538278
 30
0.0
 11
777.6208128471737
 21
517.2139010538278
 31
0.0
  0
LINE
  5
2FDCD
330
1F
100
AcDbEntity
  8
007
100
AcDbLine
 10
780.2608128471736
 20
520.8939010538279
 30
0.0
 11
781.0808128471737
 21
516.8939010538279
 31
0.0
  0
LINE
  5
2FDCE
330
1F
100
AcDbEntity
  8
007
100
AcDbLine
 10
778.5608128471737
 20
520.8939010538279
 30
0.0
 11
779.3808128471739
 21
516.8939010538279
 31
0.0
  0
LINE
  5
2FDCF
330
1F
100
AcDbEntity
  8
007
100
AcDbLine
 10
787.0608128471737
 20
520.8939010538279
 30
0.0
 11
787.880812847174
 21
516.8939010538279
 31
0.0
  0
LINE
  5
2FDD0
330
1F
100
AcDbEntity
  8
007
100
AcDbLine
 10
783.6608128471737
 20
520.8939010538279
 30
0.0
 11
784.4808128471738
 21
516.8939010538279
 31
0.0
  0
LINE
  5
2FDD1
330
1F
100
AcDbEntity
  8
007
100
AcDbLine
 10
781.9608128471738
 20
520.8939010538279
 30
0.0
 11
782.7808128471738
 21
516.8939010538279
 31
0.0
  0
LINE
  5
2FDD2
330
1F
100
AcDbEntity
  8
007
100
AcDbLine
 10
785.360812847174
 20
520.8939010538279
 30
0.0
 11
786.1808128471737
 21
516.8939010538279
 31
0.0
  0
LINE
  5
2FDD3
330
1F
100
AcDbEntity
  8
007
100
AcDbLine
 10
778.0908128471737
 20
516.8939010538279
 30
0.0
 11
795.0908128471738
 21
516.8939010538279
 31
0.0
  0
LINE
  5
2FDD4
330
1F
100
AcDbEntity
  8
007
100
AcDbLine
 10
778.0908128471737
 20
520.8939010538279
 30
0.0
 11
795.0908128471738
 21
520.8939010538279
 31
0.0
  0
LINE
  5
2FDD5
330
1F
100
AcDbEntity
  8
006
 48
0.3
100
AcDbLine
 10
803.090812847174
 20
518.8939010538279
 30
0.0
 11
771.2999113811734
 21
518.8939010538274
 31
0.0
  0
LINE
  5
2FDD6
330
1F
100
AcDbEntity
  8
007
100
AcDbLine
 10
788.7608128471736
 20
520.8939010538279
 30
0.0
 11
789.5808128471737
 21
516.8939010538279
 31
0.0
  0
LINE
  5
2FDD7
330
1F
100
AcDbEntity
  8
007
100
AcDbLine
 10
790.4608128471738
 20
520.8939010538279
 30
0.0
 11
791.2808128471738
 21
516.8939010538279
 31
0.0
  0
LINE
  5
2FDD8
330
1F
100
AcDbEntity
  8
007
100
AcDbLine
 10
792.1608128471737
 20
520.8939010538279
 30
0.0
 11
792.9808128471738
 21
516.8939010538279
 31
0.0
  0
LINE
  5
2FDD9
330
1F
100
AcDbEntity
  8
007
100
AcDbLine
 10
793.860812847174
 20
520.8939010538279
 30
0.0
 11
794.6808128471737
 21
516.8939010538279
 31
0.0
  0
ARC
  5
2FDDA
330
1F
100
AcDbEntity
  8
007
100
AcDbCircle
 10
796.1908128471739
 20
521.1939010538278
 30
0.0
 40
1.199999999999999
100
AcDbArc
 50
0.000000000000007
 51
90.0
  0
LINE
  5
2FDDB
330
1F
100
AcDbEntity
  8
007
100
AcDbLine
 10
795.0908128471738
 20
522.3939010538279
 30
0.0
 11
795.0908128471738
 21
515.3939010538278
 31
0.0
  0
ARC
  5
2FDDC
330
1F
100
AcDbEntity
  8
007
100
AcDbCircle
 10
796.1908128471739
 20
516.5939010538279
 30
0.0
 40
1.199999999999999
100
AcDbArc
 50
270.0
 51
0.000000000000007
  0
LINE
  5
2FDDD
330
1F
100
AcDbEntity
  8
007
100
AcDbLine
 10
795.0908128471738
 20
515.3939010538278
 30
0.0
 11
796.1908128471739
 21
515.3939010538278
 31
0.0
  0
LINE
  5
2FDDE
330
1F
100
AcDbEntity
  8
007
100
AcDbLine
 10
797.3908128471737
 20
521.1939010538278
 30
0.0
 11
797.3908128471737
 21
516.5939010538279
 31
0.0
  0
LINE
  5
2FDDF
330
1F
100
AcDbEntity
  8
007
100
AcDbLine
 10
795.0908128471738
 20
522.3939010538279
 30
0.0
 11
796.1908128471739
 21
522.3939010538279
 31
0.0
  0
LINE
  5
2FDE0
330
1F
100
AcDbEntity
  8
003
100
AcDbLine
 10
794.0908128471733
 20
508.8939010538277
 30
0.0
 11
794.0908128471735
 21
528.8939010538276
 31
0.0
  0
LINE
  5
2FDE1
330
1F
100
AcDbEntity
  8
003
100
AcDbLine
 10
794.0908128471735
 20
528.8939010538276
 30
0.0
 11
880.5908128471733
 21
528.8939010538277
 31
0.0
  0
LINE
  5
2FDE2
330
1F
100
AcDbEntity
  8
003
100
AcDbLine
 10
794.0908128471733
 20
508.8939010538277
 30
0.0
 11
880.5908128471735
 21
508.8939010538277
 31
0.0
  0
LINE
  5
2FDE3
330
1F
100
AcDbEntity
  8
007
 48
0.3
100
AcDbLine
 10
832.0908128471735
 20
511.1439010538279
 30
0.0
 11
795.0908128471735
 21
511.1439010538279
 31
0.0
  0
ARC
  5
2FDE4
330
1F
100
AcDbEntity
  8
007
 48
0.3
100
AcDbCircle
 10
795.0908128471735
 20
513.1439010538278
 30
0.0
 40
2.0
100
AcDbArc
 50
180.0
 51
270.0
  0
LINE
  5
2FDE5
330
1F
100
AcDbEntity
  8
007
 48
0.3
100
AcDbLine
 10
793.0908128471735
 20
513.1439010538278
 30
0.0
 11
793.0908128471735
 21
524.6439010538279
 31
0.0
  0
LINE
  5
2FDE6
330
1F
100
AcDbEntity
  8
007
 48
0.3
100
AcDbLine
 10
795.0908128471735
 20
526.6439010538278
 30
0.0
 11
832.0908128471735
 21
526.6439010538278
 31
0.0
  0
ARC
  5
2FDE7
330
1F
100
AcDbEntity
  8
007
 48
0.3
100
AcDbCircle
 10
795.0908128471735
 20
524.6439010538279
 30
0.0
 40
2.0
100
AcDbArc
 50
90.0
 51
180.0
  0
LINE
  5
2FDE8
330
1F
100
AcDbEntity
  8
007
 48
0.3
100
AcDbLine
 10
832.0908128471735
 20
526.6439010538278
 30
0.0
 11
832.0908128471735
 21
513.1439010538278
 31
0.0
  0
LINE
  5
2FDE9
330
1F
100
AcDbEntity
  8
007
 48
0.3
100
AcDbLine
 10
832.0908128471735
 20
513.1439010538278
 30
0.0
 11
795.0908128471735
 21
513.1439010538278
 31
0.0
  0
LINE
  5
2FDEA
330
1F
100
AcDbEntity
  8
007
 48
0.3
100
AcDbLine
 10
795.0908128471735
 20
513.1439010538278
 30
0.0
 11
795.0908128471735
 21
524.6439010538279
 31
0.0
  0
LINE
  5
2FDEB
330
1F
100
AcDbEntity
  8
007
 48
0.3
100
AcDbLine
 10
795.0908128471735
 20
524.6439010538279
 30
0.0
 11
832.0908128471735
 21
524.6439010538279
 31
0.0
  0
LINE
  5
2FDEC
330
1F
100
AcDbEntity
  8
007
 48
0.3
100
AcDbLine
 10
832.0908128471735
 20
511.1439010538279
 30
0.0
 11
832.0908128471735
 21
513.1439010538278
 31
0.0
  0
LINE
  5
2FDED
330
1F
100
AcDbEntity
  8
006
100
AcDbLine
 10
813.0908128471736
 20
516.9839010538275
 30
0.0
 11
813.0908128471736
 21
540.8039010538275
 31
0.0
  0
MTEXT
  5
2FE91
330
1F
100
AcDbEntity
  8
003
 62
     7
 48
0.2
100
AcDbMText
 10
428.1862400997858
 20
360.3099068494381
 30
0.0
 40
6.0
 41
0.0
 71
     7
 72
     1
  1
（SUS.t=2）
  7
DIM
 73
     1
 44
1.0
1001
ACAD
1000
MTEXTBEGIN
1070
    73
1070
     1
1070
    44
1040
1.0
1070
    74
1070
     0
1000
MTEXTEND
1000
ACAD_MTEXT_BBRT
1070
    91
1071
        3
1070
    46
1040
1.1
1070
    64
1071
-1027028792
1070
    65
1000

1070
    66
1000

1070
   442
1071
  5376619
1000
ACAD_MTEXT_BERT
  0
LEADER
  5
2FEC5
330
1F
100
AcDbEntity
  8
0
 48
0.2
100
AcDbLeader
  3
DIM
 73
     0
 40
6.3
 41
15.12
 76
     3
 10
783.0331341272088
 20
522.3205290584554
 30
0.0
 10
774.3317306830307
 20
537.3918019209266
 30
0.0
 10
772.7364991478118
 20
537.3918019209266
 30
0.0
340
2FEC6
1001
ACAD
1000
DSTYLE
1002
{
1070
   147
1040
1.0
1070
    77
1070
     1
1070
    40
1040
2.1
1070
    50
1040
1.570796326794896
1070
    69
1070
     1
1070
    79
1070
     2
1070
   179
1070
     2
1002
}
  0
MTEXT
  5
2FEC6
102
{ACAD_REACTORS
330
2FEC5
102
}
330
1F
100
AcDbEntity
  8
0
 62
     7
 48
0.2
100
AcDbMText
 10
770.6364991478118
 20
539.4918019209267
 30
0.0
 40
6.3
 41
0.0
 71
     9
 72
     1
  1
木ビス
  7
DIM
 73
     1
 44
1.0
1001
ACAD
1000
MTEXTBEGIN
1070
    73
1070
     1
1070
    44
1040
1.0
1070
    74
1070
     0
1000
MTEXTEND
1000
ACAD_MTEXT_BBRT
1070
    91
1071
        3
1070
    46
1040
1.1
1070
    64
1071
-1027028792
1070
    65
1000

1070
    66
1000

1070
   442
1071
 16648631
1000
ACAD_MTEXT_BERT
  0
ENDSEC
  0
SECTION
  2
OBJECTS
  0
DICTIONARY
  5
C
330
0
100
AcDbDictionary
281
     1
  3
ACAD_2007HEADERVARS_RT
350
2FFAA
  3
ACAD_COLOR
350
9C8B
  3
ACAD_GROUP
350
D
  3
ACAD_LAYOUT
350
1A
  3
ACAD_MATERIAL
350
9C61
  3
ACAD_MLEADERSTYLE
350
9CB0
  3
ACAD_MLINESTYLE
350
17
  3
ACAD_PLOTSETTINGS
350
19
  3
ACAD_PLOTSTYLENAME
350
E
  3
ACAD_SCALELIST
350
9C8E
  3
ACAD_TABLESTYLE
350
9C8C
  3
ACAD_VISUALSTYLE
350
9C7A
  3
ACAD_WIPEOUT_VARS
350
DD7A
  3
AcadDim
350
28E60
  3
ACDB_RECOMPOSE_DATA
350
A6AF
  3
AcDbVariableDictionary
350
A6CA
  3
DWGPROPS
350
2FFA9
  0
DICTIONARY
  5
A6B1
330
8
100
AcDbDictionary
280
     1
281
     1
  0
DICTIONARY
  5
6C5
330
2
100
AcDbDictionary
280
     1
281
     1
  3
ACAD_LAYERSTATES
360
6C6
  3
ACLYDICTIONARY
360
15915
  0
DICTIONARY
  5
9F26
330
10
100
AcDbDictionary
280
     1
281
     1
  3
ADSK_XREC_LAYER_RECONCILED
360
9F27
  0
DICTIONARY
  5
9F2A
330
32
100
AcDbDictionary
280
     1
281
     1
  3
ADSK_XREC_LAYER_RECONCILED
360
9F2B
  0
DICTIONARY
  5
9F2C
330
33
100
AcDbDictionary
280
     1
281
     1
  3
ADSK_XREC_LAYER_RECONCILED
360
9F2D
  0
DICTIONARY
  5
9F32
330
1A4
100
AcDbDictionary
280
     1
281
     1
  3
ADSK_XREC_LAYER_RECONCILED
360
9F33
  0
DICTIONARY
  5
9F34
330
1A5
100
AcDbDictionary
280
     1
281
     1
  3
ADSK_XREC_LAYER_RECONCILED
360
9F35
  0
DICTIONARY
  5
9F3A
330
2B1
100
AcDbDictionary
280
     1
281
     1
  3
ADSK_XREC_LAYER_RECONCILED
360
9F3B
  0
DICTIONARY
  5
9EA6
330
1F
100
AcDbDictionary
280
     1
281
     1
  3
ACAD_SORTENTS
360
9EA7
  0
DICTIONARY
  5
2FFAA
102
{ACAD_REACTORS
330
C
102
}
330
C
100
AcDbDictionary
281
     1
  3
DIMJOGANG
350
2FFAC
  3
DIMTFILL
350
2FFAB
  0
DICTIONARY
  5
9C8B
102
{ACAD_REACTORS
330
C
102
}
330
C
100
AcDbDictionary
281
     1
  0
DICTIONARY
  5
D
102
{ACAD_REACTORS
330
C
102
}
330
C
100
AcDbDictionary
281
     1
  0
DICTIONARY
  5
1A
102
{ACAD_REACTORS
330
C
102
}
330
C
100
AcDbDictionary
281
     1
  3
Model
350
22
  3
ﾚｲｱｳﾄ1
350
1E
  3
ﾚｲｱｳﾄ2
350
26
  0
DICTIONARY
  5
9C61
102
{ACAD_REACTORS
330
C
102
}
330
C
100
AcDbDictionary
281
     1
  3
ByBlock
350
9C6A
  3
ByLayer
350
9C62
  3
Global
350
9C72
  0
DICTIONARY
  5
9CB0
102
{ACAD_REACTORS
330
C
102
}
330
C
100
AcDbDictionary
281
     1
  3
Standard
350
9CB1
  0
DICTIONARY
  5
17
102
{ACAD_REACTORS
330
C
102
}
330
C
100
AcDbDictionary
281
     1
  3
Standard
350
18
  0
DICTIONARY
  5
19
102
{ACAD_REACTORS
330
C
102
}
330
C
100
AcDbDictionary
281
     1
  0
ACDBDICTIONARYWDFLT
  5
E
102
{ACAD_REACTORS
330
C
102
}
330
C
100
AcDbDictionary
281
     1
  3
Normal
350
F
100
AcDbDictionaryWithDefault
340
F
  0
DICTIONARY
  5
9C8E
102
{ACAD_REACTORS
330
C
102
}
330
C
100
AcDbDictionary
281
     1
  3
A0
350
9C8F
  3
A1
350
2FF5D
  3
A2
350
2FF5E
  3
A3
350
2FF5F
  3
A4
350
2FF60
  3
A5
350
2FF61
  3
A6
350
2FF62
  3
A7
350
2FF63
  3
A8
350
2FF64
  3
A9
350
2FF65
  3
B0
350
2FF66
  3
B1
350
2FF67
  3
B2
350
2FF68
  3
B3
350
2FF69
  3
B4
350
2FF6A
  3
B5
350
2FF6B
  3
B6
350
2FF6C
  3
B7
350
2FF6D
  3
B8
350
2FF6E
  3
B9
350
2FF6F
  3
C0
350
2FF70
  3
C1
350
2FF71
  3
C2
350
2FF72
  3
C3
350
2FF73
  3
C4
350
2FF74
  3
C5
350
2FF75
  3
C6
350
2FF76
  3
C7
350
2FF77
  3
C8
350
2FF78
  3
C9
350
2FF79
  3
D0
350
2FF7A
  3
D1
350
2FF7B
  3
D2
350
2FF7C
  0
DICTIONARY
  5
9C8C
102
{ACAD_REACTORS
330
C
102
}
330
C
100
AcDbDictionary
281
     1
  3
Standard
350
9C8D
  0
DICTIONARY
  5
9C7A
102
{ACAD_REACTORS
330
C
102
}
330
C
100
AcDbDictionary
281
     1
  3
2dWireframe
350
9C80
  3
3D Hidden
350
9C82
  3
3dWireframe
350
9C81
  3
Basic
350
9C7F
  3
Brighten
350
9C86
  3
ColorChange
350
9C8A
  3
Conceptual
350
9C83
  3
Dim
350
9C85
  3
Facepattern
350
9C89
  3
Flat
350
9C7B
  3
FlatWithEdges
350
9C7C
  3
Gouraud
350
9C7D
  3
GouraudWithEdges
350
9C7E
  3
Linepattern
350
9C88
  3
Realistic
350
9C84
  3
Thicken
350
9C87
  0
WIPEOUTVARIABLES
  5
DD7A
102
{ACAD_REACTORS
330
C
102
}
330
C
100
AcDbWipeoutVariables
 70
     1
  0
XRECORD
  5
28E60
102
{ACAD_REACTORS
330
C
102
}
330
C
100
AcDbXrecord
280
     1
 90
   990106
  3

 60
     0
 61
     0
 62
     4
 63
     4
 64
     1
 65
     0
 66
     0
 67
     3
 68
     1
 69
     0
 70
     0
 71
     0
 72
     0
 40
0.0
170
     2
340
0
  0
XRECORD
  5
A6AF
102
{ACAD_REACTORS
330
C
102
}
330
C
100
AcDbXrecord
280
     1
 90
        1
330
9C8D
  0
DICTIONARY
  5
A6CA
102
{ACAD_REACTORS
330
C
102
}
330
C
100
AcDbDictionary
281
     1
  3
CANNOSCALE
350
A6CD
  3
CMLEADERSTYLE
350
A6CC
  3
CTABLESTYLE
350
A6CB
  3
DIMASSOC
350
A6D0
  3
INDEXCTL
350
A6CF
  3
LIGHTINGUNITS
350
2BF4C
  3
MSLTSCALE
350
2BF4B
  3
SORTENTS
350
A6CE
  0
XRECORD
  5
2FFA9
102
{ACAD_REACTORS
330
C
102
}
330
C
100
AcDbXrecord
280
     1
  1
DWGPROPS COOKIE
  2

  3

  4

  6

  7

  8
koba
  9

300
=
301
=
302
=
303
=
304
=
305
=
306
=
307
=
308
=
309
=
 40
0.6430319212962963
 41
2452888.42884919
 42
2458304.573263311
  1

 90
        0
  0
DICTIONARY
  5
6C6
102
{ACAD_REACTORS
330
6C5
102
}
330
6C5
100
AcDbDictionary
281
     1
  0
DICTIONARY
  5
15915
102
{ACAD_REACTORS
330
6C5
102
}
330
6C5
100
AcDbDictionary
281
     1
1001
ACAD
1000
<All
  0
XRECORD
  5
9F27
102
{ACAD_REACTORS
330
9F26
102
}
330
9F26
100
AcDbXrecord
280
     1
290
     1
  0
XRECORD
  5
9F2B
102
{ACAD_REACTORS
330
9F2A
102
}
330
9F2A
100
AcDbXrecord
280
     1
290
     1
  0
XRECORD
  5
9F2D
102
{ACAD_REACTORS
330
9F2C
102
}
330
9F2C
100
AcDbXrecord
280
     1
290
     1
  0
XRECORD
  5
9F33
102
{ACAD_REACTORS
330
9F32
102
}
330
9F32
100
AcDbXrecord
280
     1
290
     1
  0
XRECORD
  5
9F35
102
{ACAD_REACTORS
330
9F34
102
}
330
9F34
100
AcDbXrecord
280
     1
290
     1
  0
XRECORD
  5
9F3B
102
{ACAD_REACTORS
330
9F3A
102
}
330
9F3A
100
AcDbXrecord
280
     1
290
     1
  0
SORTENTSTABLE
  5
9EA7
102
{ACAD_REACTORS
330
9EA6
102
}
330
9EA6
100
AcDbSortentsTable
330
1F
331
1FB07
  5
1FB08
331
1FD1E
  5
1FD1F
331
1193F
  5
11944
331
15723
  5
15723
331
15733
  5
15733
331
272B2
  5
272D5
331
26C73
  5
26C75
331
212D4
  5
212D4
331
26C7B
  5
26C7D
331
274C1
  5
274C3
331
26C83
  5
26C85
331
1573B
  5
1573B
331
18122
  5
18122
331
1812A
  5
1812A
331
1FAD8
  5
1FAD9
331
1FD2E
  5
1FD2F
331
1FD36
  5
1FD37
331
18132
  5
18132
331
1FAE0
  5
1FAE1
331
1813A
  5
1813A
331
1FB1F
  5
1FB20
331
1FD3E
  5
1FD3F
331
21284
  5
21284
331
211BD
  5
211BF
331
2128C
  5
2128C
331
1196D
  5
11986
331
11985
  5
11989
331
11930
  5
11934
331
1571C
  5
1571C
331
26C8B
  5
26C8D
331
212AD
  5
212AD
331
243D4
  5
243D7
331
274A2
  5
274A4
331
212BD
  5
212BD
331
243DC
  5
243DF
331
274AA
  5
274AC
331
212C5
  5
212C5
331
2727B
  5
27281
331
18142
  5
18142
331
1FAA1
  5
1FAA1
331
1814A
  5
1814A
331
1FAF8
  5
1FAF9
331
1FD07
  5
1FD0A
331
21294
  5
21294
331
18113
  5
18113
331
1FAB1
  5
1FAB1
331
1FB00
  5
1FB01
331
1FD56
  5
1FD57
331
1811B
  5
1811B
331
1FD5E
  5
1FD5F
331
1FD1F
  5
1FD2A
331
2126D
  5
2126D
331
11940
  5
11945
331
15724
  5
15724
331
11948
  5
1196B
331
1572C
  5
1572C
331
15734
  5
15734
331
26C74
  5
26C76
331
274BA
  5
274BC
331
26C7C
  5
26C7E
331
274C2
  5
274C4
331
26C84
  5
26C86
331
212DD
  5
212DD
331
1573C
  5
1573C
331
1FB08
  5
1FB09
331
1812B
  5
1812B
331
1FAD9
  5
1FADA
331
1FD2F
  5
1FD30
331
1FD66
  5
1FD67
331
18133
  5
18133
331
1FAE1
  5
1FAE5
331
1FB18
  5
1FB19
331
1FD37
  5
1FD38
331
1813B
  5
1813B
331
1FB20
  5
1FB21
331
1FD3F
  5
1FD40
331
21285
  5
21285
331
1FD47
  5
1FD4B
331
2128D
  5
2128D
331
11929
  5
1192D
331
15715
  5
15715
331
11931
  5
11935
331
11986
  5
1198A
331
1571D
  5
1571D
331
26C8C
  5
26C8E
331
212AE
  5
212AE
331
243D5
  5
243D8
331
274DA
  5
274DC
331
212BE
  5
212BE
331
243DD
  5
243E0
331
274AB
  5
274AD
331
212C6
  5
212C6
331
18143
  5
18143
331
1FAA2
  5
1FAA2
331
1FAF9
  5
1FAFA
331
21295
  5
21295
331
18114
  5
18114
331
1FB01
  5
1FB02
331
1FD10
  5
1FD12
331
1FD57
  5
1FD58
331
2129D
  5
2129D
331
212A5
  5
212A5
331
1811C
  5
1811C
331
1FD5F
  5
1FD60
331
2126E
  5
2126E
331
15725
  5
15725
331
1572D
  5
1572D
331
15735
  5
15735
331
11A36
  5
11A49
331
274BB
  5
274BD
331
26C75
  5
26C77
331
274C3
  5
274C5
331
26C7D
  5
26C7F
331
2733C
  5
2733E
331
26C85
  5
26C87
331
212DE
  5
212DE
331
274CB
  5
274CD
331
1573D
  5
1573D
331
18124
  5
18124
331
1FB09
  5
1FB0A
331
1FADA
  5
1FADB
331
1812C
  5
1812C
331
1FD30
  5
1FD31
331
1FD67
  5
1FD68
331
2127E
  5
2127E
331
1FB19
  5
1FB1A
331
18134
  5
18134
331
18353
  5
18353
331
1FD38
  5
1FD39
331
21177
  5
1FAB3
331
1835B
  5
1835B
331
1813C
  5
1813C
331
1FAEA
  5
1FAEB
331
1FD40
  5
1FD41
331
21286
  5
21286
331
211BF
  5
211BA
331
2128E
  5
2128E
331
1197F
  5
11987
331
15716
  5
15716
331
11932
  5
11936
331
11987
  5
119A2
331
1571E
  5
1571E
331
26C8D
  5
26C8F
331
212AF
  5
212AF
331
274DB
  5
274DE
331
212B7
  5
212B7
331
243D6
  5
243D9
331
27275
  5
27278
331
212BF
  5
212BF
331
243DE
  5
243E1
331
212C7
  5
212C7
331
18144
  5
18144
331
1FAA3
  5
1FAA3
331
21296
  5
21296
331
1FAFA
  5
1FAFB
331
1814C
  5
1814C
331
2122F
  5
2122E
331
18115
  5
18115
331
18154
  5
18154
331
1FAB3
  5
1FAB4
331
1FB02
  5
1FB03
331
1FD58
  5
1FD59
331
2129E
  5
2129E
331
1811D
  5
1811D
331
21267
  5
21267
331
212A6
  5
212A6
331
15726
  5
15726
331
1572E
  5
1572E
331
15736
  5
15736
331
F01B
  5
F01B
331
274BC
  5
274BE
331
26C76
  5
26C78
331
212CF
  5
212CF
331
274C4
  5
274C6
331
212D7
  5
212D7
331
26C7E
  5
26C80
331
2733D
  5
2733F
331
26C86
  5
26C88
331
274CC
  5
274CE
331
22637
  5
22637
331
1573E
  5
1573E
331
18125
  5
18125
331
1FB0A
  5
1FB0B
331
1FD60
  5
1FD61
331
1FD31
  5
1FD32
331
1FADB
  5
1FADC
331
1FB1A
  5
1FB1B
331
18135
  5
18135
331
1FD39
  5
1FD3A
331
21178
  5
21178
331
2127F
  5
2127F
331
1813D
  5
1813D
331
1FAEB
  5
1FAEC
331
1FD41
  5
1FD42
331
211B8
  5
211B8
331
21287
  5
21287
331
11968
  5
1196C
331
2128F
  5
2128F
331
11980
  5
11988
331
15717
  5
15717
331
11933
  5
1193E
331
11988
  5
119E6
331
1571F
  5
1571F
331
212A8
  5
212A8
331
2749D
  5
2749F
331
26C8E
  5
26C9A
331
212B0
  5
212B0
331
274DC
  5
274DF
331
212B8
  5
212B8
331
243D7
  5
243DA
331
27276
  5
2727A
331
212C0
  5
212C0
331
243DF
  5
2456F
331
17E2E
  5
17E2E
331
18145
  5
18145
331
1FAA4
  5
1FAA4
331
1814D
  5
1814D
331
1FAFB
  5
1FAFC
331
1FD0A
  5
1FD0B
331
1FD51
  5
1FD54
331
21230
  5
2122F
331
21297
  5
21297
331
18116
  5
18116
331
1FB03
  5
1FB04
331
1FD12
  5
1FD13
331
1FD59
  5
1FD5A
331
1811E
  5
1811E
331
212A7
  5
212A7
331
15727
  5
15727
331
11943
  5
11948
331
119E8
  5
119F0
331
1572F
  5
1572F
331
119F0
  5
11A47
331
F01C
  5
F024
331
15737
  5
15737
331
212C8
  5
212C8
331
274BD
  5
274BF
331
26C77
  5
26C79
331
212D0
  5
212D0
331
274C5
  5
274C7
331
26C7F
  5
26C81
331
212D8
  5
212D8
331
274CD
  5
274CF
331
26C87
  5
26C89
331
1573F
  5
1573F
331
18126
  5
18126
331
1FB0B
  5
1FB0C
331
1FD2A
  5
1FD2B
331
1FD61
  5
1FD66
331
1812E
  5
1812E
331
1FADC
  5
1FADD
331
1FB13
  5
1FB16
331
1FD32
  5
1FD33
331
18136
  5
18136
331
18355
  5
18355
331
1FB1B
  5
1FB1C
331
1FD3A
  5
1FD3B
331
21280
  5
21280
331
1813E
  5
1813E
331
1835D
  5
1835D
331
1FAEC
  5
1FAED
331
1FD42
  5
1FD43
331
21288
  5
21288
331
11969
  5
1196D
331
15718
  5
15718
331
11934
  5
1193F
331
11989
  5
119E8
331
22638
  5
22638
331
212A9
  5
212A9
331
2749E
  5
274A0
331
26C8F
  5
26CA7
331
243D8
  5
243DB
331
212C1
  5
212C1
331
243E0
  5
24A04
331
17E2F
  5
17E2F
331
18146
  5
18146
331
1FAF4
  5
1FAF5
331
21290
  5
21290
331
1FAAD
  5
1FAAD
331
1FAFC
  5
1FAFD
331
1FD0B
  5
1FD0C
331
21298
  5
21298
331
18117
  5
18117
331
1FB04
  5
1FB05
331
1FD13
  5
1FD1E
331
1FD5A
  5
1FD5B
331
1811F
  5
1811F
331
21269
  5
21269
331
15720
  5
15720
331
11944
  5
11968
331
119E9
  5
119F1
331
15728
  5
15728
331
119F1
  5
11A48
331
15730
  5
15730
331
212C9
  5
212C9
331
274BE
  5
274C0
331
26C78
  5
26C7A
331
274C6
  5
274C8
331
26C80
  5
26C82
331
2733F
  5
27341
331
274CE
  5
274D0
331
15738
  5
15738
331
15740
  5
15740
331
18127
  5
18127
331
1FB0C
  5
1FB13
331
1FD2B
  5
1FD2C
331
21279
  5
21279
331
1812F
  5
1812F
331
1FADD
  5
1FADE
331
1FD33
  5
1FD34
331
18137
  5
18137
331
1FAE5
  5
1FAEA
331
1FB1C
  5
1FB1D
331
1FD3B
  5
1FD3C
331
21281
  5
21281
331
11A39
  5
11A4A
331
1813F
  5
1813F
331
1FAED
  5
1FAEE
331
1FD43
  5
1FD44
331
211BA
  5
211BD
331
1196A
  5
1197F
331
1192D
  5
11931
331
15719
  5
15719
331
1198A
  5
119E9
331
11935
  5
11940
331
26C88
  5
26C8A
331
212AA
  5
212AA
331
2749F
  5
274A1
331
27188
  5
2718A
331
212B2
  5
212B2
331
212BA
  5
212BA
331
243D9
  5
243DC
331
274DE
  5
274E0
331
274AF
  5
274B1
331
27278
  5
2727B
331
212C2
  5
212C2
331
243E1
  5
24A05
331
21291
  5
21291
331
17E30
  5
17E30
331
18147
  5
18147
331
1FAF5
  5
1FAF6
331
1FD4B
  5
1FD51
331
18110
  5
18110
331
1FAAE
  5
1FAAE
331
1FAFD
  5
1FAFE
331
1FD0C
  5
1FD10
331
21232
  5
21232
331
21299
  5
21299
331
18118
  5
18118
331
1FB05
  5
1FB06
331
1FD5B
  5
1FD5D
331
21262
  5
21262
331
1FAC6
  5
1FACA
331
119A2
  5
119EA
331
15721
  5
15721
331
11945
  5
11969
331
119EA
  5
11A36
331
15729
  5
15729
331
15731
  5
15731
331
272C8
  5
2733C
331
26C79
  5
26C7B
331
274BF
  5
274C1
331
274C7
  5
274C9
331
26C81
  5
26C83
331
27340
  5
27342
331
274CF
  5
274D1
331
15739
  5
15739
331
15741
  5
15741
331
18128
  5
18128
331
1FAD6
  5
1FAD7
331
1FD2C
  5
1FD2D
331
18130
  5
18130
331
1FADE
  5
1FADF
331
1FD34
  5
1FD35
331
18138
  5
18138
331
18357
  5
18357
331
1FB1D
  5
1FB1E
331
1FD3C
  5
1FD3D
331
21282
  5
21282
331
1FAEE
  5
1FAEF
331
1FD44
  5
1FD45
331
2128A
  5
2128A
331
1196B
  5
11980
331
1192E
  5
11932
331
1571A
  5
1571A
331
11936
  5
11941
331
26C89
  5
26C8B
331
212AB
  5
212AB
331
274A0
  5
274A2
331
27189
  5
2719D
331
212B3
  5
212B3
331
243D2
  5
243D5
331
274A8
  5
274AA
331
212BB
  5
212BB
331
243DA
  5
243DD
331
274DF
  5
274E1
331
274B0
  5
274B2
331
212C3
  5
212C3
331
18140
  5
18140
331
18148
  5
18148
331
1FAF6
  5
1FAF7
331
2122B
  5
2122B
331
21292
  5
21292
331
18111
  5
18111
331
1FAAF
  5
1FAAF
331
1FAFE
  5
1FAFF
331
1FD54
  5
1FD55
331
21233
  5
21233
331
2129A
  5
2129A
331
18119
  5
18119
331
1FB06
  5
1FB07
331
21263
  5
21263
331
212A2
  5
212A2
331
1193E
  5
11943
331
15722
  5
15722
331
11946
  5
1196A
331
119EB
  5
11A39
331
15732
  5
15732
331
26C72
  5
26C74
331
274C0
  5
274C2
331
212D3
  5
212D3
331
26C7A
  5
26C7C
331
274C8
  5
274CA
331
26C82
  5
26C84
331
1573A
  5
1573A
331
18121
  5
18121
331
15742
  5
15742
331
1FAD7
  5
1FAD8
331
1FD2D
  5
1FD2E
331
21273
  5
21273
331
1FB16
  5
1FB18
331
18131
  5
18131
331
1FADF
  5
1FAE0
331
1FD35
  5
1FD36
331
18358
  5
18358
331
1FB1E
  5
1FB1F
331
1FD3D
  5
1FD3E
331
21283
  5
21283
331
1FAEF
  5
1FAF4
331
1FD45
  5
1FD47
331
2128B
  5
2128B
331
1196C
  5
11985
331
1192F
  5
11933
331
1571B
  5
1571B
331
274D0
  5
274D2
331
26C8A
  5
26C8C
331
212AC
  5
212AC
331
274A1
  5
274A3
331
2718A
  5
2719A
331
243D3
  5
243D6
331
212BC
  5
212BC
331
243DB
  5
243DE
331
2727A
  5
27280
331
212C4
  5
212C4
331
274B1
  5
274B3
331
18141
  5
18141
331
18149
  5
18149
331
1FAF7
  5
1FAF8
331
1FD06
  5
1FD07
331
21293
  5
21293
331
2129B
  5
2129B
331
18112
  5
18112
331
1FAB0
  5
1FAB0
331
1FAFF
  5
1FB00
331
1FD55
  5
1FD56
  0
XRECORD
  5
2FFAC
102
{ACAD_REACTORS
330
2FFAA
102
}
330
2FFAA
100
AcDbXrecord
280
     1
 40
1.570796326794896
  0
XRECORD
  5
2FFAB
102
{ACAD_REACTORS
330
2FFAA
102
}
330
2FFAA
100
AcDbXrecord
280
     1
 70
     1
  0
LAYOUT
  5
22
102
{ACAD_XDICTIONARY
360
2FFAF
102
}
102
{ACAD_REACTORS
330
1A
102
}
330
1A
100
AcDbPlotSettings
  1

  2
Brother HL-2270DW series
  4
A4
  6

 40
5.027082920074462
 41
5.027085781097412
 42
5.027069091796875
 43
5.027069091796875
 44
209.9733276367187
 45
296.9259948730469
 46
0.0
 47
2.661537163997991
 48
-19.26284375907214
 49
49.00000000000003
140
1132.737156240927
141
867.0
142
1.0
143
4.091653526698181
 70
 11956
 72
     1
 73
     1
 74
     4
  7
印刷用.ctb
 75
     0
147
0.244399970201525
148
19.26284375907214
149
-49.00000000000003
100
AcDbLayout
  1
Model
 70
     1
 71
     0
 10
0.0
 20
0.0
 11
12.0
 21
9.0
 12
0.0
 22
0.0
 32
0.0
 14
0.0
 24
0.0
 34
0.0
 15
0.0
 25
0.0
 35
0.0
146
0.0
 13
0.0
 23
0.0
 33
0.0
 16
1.0
 26
0.0
 36
0.0
 17
0.0
 27
1.0
 37
0.0
 76
     0
330
1F
331
2BF3A
1001
ACAD_PSEXT
1000
Brother HL-2270DW series
1000
Brother HL-2270DW series
1000
USB002
1000

1070
     0
  0
LAYOUT
  5
1E
102
{ACAD_XDICTIONARY
360
2FFAD
102
}
102
{ACAD_REACTORS
330
1A
102
}
330
1A
100
AcDbPlotSettings
  1

  2
C:\PROGRAM FILES\AUTOCAD LT 2000I\plotters\HP DesignJet 430 A3.pc3
  4

  6

 40
0.0
 41
0.0
 42
0.0
 43
0.0
 44
0.0
 45
0.0
 46
0.0
 47
0.0
 48
0.0
 49
0.0
140
0.0
141
0.0
142
1.0
143
1.0
 70
   688
 72
     0
 73
     0
 74
     5
  7
印刷用.ctb
 75
    16
147
1.0
148
0.0
149
0.0
100
AcDbLayout
  1
ﾚｲｱｳﾄ1
 70
     0
 71
     1
 10
0.0
 20
0.0
 11
420.0
 21
297.0
 12
0.0
 22
0.0
 32
0.0
 14
1.000000000000000E+20
 24
1.000000000000000E+20
 34
1.000000000000000E+20
 15
-1.000000000000000E+20
 25
-1.000000000000000E+20
 35
-1.000000000000000E+20
146
0.0
 13
0.0
 23
0.0
 33
0.0
 16
1.0
 26
0.0
 36
0.0
 17
0.0
 27
1.0
 37
0.0
 76
     0
330
1B
  0
LAYOUT
  5
26
102
{ACAD_XDICTIONARY
360
2FFB1
102
}
102
{ACAD_REACTORS
330
1A
102
}
330
1A
100
AcDbPlotSettings
  1

  2
C:\PROGRAM FILES\AUTOCAD LT 2000I\plotters\HP DesignJet 430 A3.pc3
  4

  6

 40
0.0
 41
0.0
 42
0.0
 43
0.0
 44
0.0
 45
0.0
 46
0.0
 47
0.0
 48
0.0
 49
0.0
140
0.0
141
0.0
142
1.0
143
1.0
 70
   688
 72
     0
 73
     0
 74
     5
  7
印刷用.ctb
 75
    16
147
1.0
148
0.0
149
0.0
100
AcDbLayout
  1
ﾚｲｱｳﾄ2
 70
     1
 71
     2
 10
0.0
 20
0.0
 11
12.0
 21
9.0
 12
0.0
 22
0.0
 32
0.0
 14
0.0
 24
0.0
 34
0.0
 15
0.0
 25
0.0
 35
0.0
146
0.0
 13
0.0
 23
0.0
 33
0.0
 16
1.0
 26
0.0
 36
0.0
 17
0.0
 27
1.0
 37
0.0
 76
     0
330
23
  0
MATERIAL
  5
9C6A
102
{ACAD_XDICTIONARY
360
9C6B
102
}
102
{ACAD_REACTORS
330
9C61
102
}
330
9C61
100
AcDbMaterial
  1
ByBlock
 72
     0
 43
0.0008202099737533
 43
0.0
 43
0.0
 43
0.0
 43
0.0
 43
0.0008202099737533
 43
0.0
 43
0.0
 43
0.0
 43
0.0
 43
1.0
 43
0.0
 43
0.0
 43
0.0
 43
0.0
 43
1.0
 77
     0
 47
0.0008202099737533
 47
0.0
 47
0.0
 47
0.0
 47
0.0
 47
0.0008202099737533
 47
0.0
 47
0.0
 47
0.0
 47
0.0
 47
1.0
 47
0.0
 47
0.0
 47
0.0
 47
0.0
 47
1.0
171
     0
 49
0.0008202099737533
 49
0.0
 49
0.0
 49
0.0
 49
0.0
 49
0.0008202099737533
 49
0.0
 49
0.0
 49
0.0
 49
0.0
 49
1.0
 49
0.0
 49
0.0
 49
0.0
 49
0.0
 49
1.0
175
     0
142
0.0008202099737533
142
0.0
142
0.0
142
0.0
142
0.0
142
0.0008202099737533
142
0.0
142
0.0
142
0.0
142
0.0
142
1.0
142
0.0
142
0.0
142
0.0
142
0.0
142
1.0
179
     0
144
0.0008202099737533
144
0.0
144
0.0
144
0.0
144
0.0
144
0.0008202099737533
144
0.0
144
0.0
144
0.0
144
0.0
144
1.0
144
0.0
144
0.0
144
0.0
144
0.0
144
1.0
147
0.0008202099737533
147
0.0
147
0.0
147
0.0
147
0.0
147
0.0008202099737533
147
0.0
147
0.0
147
0.0
147
0.0
147
1.0
147
0.0
147
0.0
147
0.0
147
0.0
147
1.0
  0
MATERIAL
  5
9C62
102
{ACAD_XDICTIONARY
360
9C63
102
}
102
{ACAD_REACTORS
330
9C61
102
}
330
9C61
100
AcDbMaterial
  1
ByLayer
 72
     0
 43
0.0008202099737533
 43
0.0
 43
0.0
 43
0.0
 43
0.0
 43
0.0008202099737533
 43
0.0
 43
0.0
 43
0.0
 43
0.0
 43
1.0
 43
0.0
 43
0.0
 43
0.0
 43
0.0
 43
1.0
 77
     0
 47
0.0008202099737533
 47
0.0
 47
0.0
 47
0.0
 47
0.0
 47
0.0008202099737533
 47
0.0
 47
0.0
 47
0.0
 47
0.0
 47
1.0
 47
0.0
 47
0.0
 47
0.0
 47
0.0
 47
1.0
171
     0
 49
0.0008202099737533
 49
0.0
 49
0.0
 49
0.0
 49
0.0
 49
0.0008202099737533
 49
0.0
 49
0.0
 49
0.0
 49
0.0
 49
1.0
 49
0.0
 49
0.0
 49
0.0
 49
0.0
 49
1.0
175
     0
142
0.0008202099737533
142
0.0
142
0.0
142
0.0
142
0.0
142
0.0008202099737533
142
0.0
142
0.0
142
0.0
142
0.0
142
1.0
142
0.0
142
0.0
142
0.0
142
0.0
142
1.0
179
     0
144
0.0008202099737533
144
0.0
144
0.0
144
0.0
144
0.0
144
0.0008202099737533
144
0.0
144
0.0
144
0.0
144
0.0
144
1.0
144
0.0
144
0.0
144
0.0
144
0.0
144
1.0
147
0.0008202099737533
147
0.0
147
0.0
147
0.0
147
0.0
147
0.0008202099737533
147
0.0
147
0.0
147
0.0
147
0.0
147
1.0
147
0.0
147
0.0
147
0.0
147
0.0
147
1.0
  0
MATERIAL
  5
9C72
102
{ACAD_XDICTIONARY
360
9C73
102
}
102
{ACAD_REACTORS
330
9C61
102
}
330
9C61
100
AcDbMaterial
  1
Global
 72
     0
 43
0.0008202099737533
 43
0.0
 43
0.0
 43
0.0
 43
0.0
 43
0.0008202099737533
 43
0.0
 43
0.0
 43
0.0
 43
0.0
 43
1.0
 43
0.0
 43
0.0
 43
0.0
 43
0.0
 43
1.0
 77
     0
 47
0.0008202099737533
 47
0.0
 47
0.0
 47
0.0
 47
0.0
 47
0.0008202099737533
 47
0.0
 47
0.0
 47
0.0
 47
0.0
 47
1.0
 47
0.0
 47
0.0
 47
0.0
 47
0.0
 47
1.0
171
     0
 49
0.0008202099737533
 49
0.0
 49
0.0
 49
0.0
 49
0.0
 49
0.0008202099737533
 49
0.0
 49
0.0
 49
0.0
 49
0.0
 49
1.0
 49
0.0
 49
0.0
 49
0.0
 49
0.0
 49
1.0
175
     0
142
0.0008202099737533
142
0.0
142
0.0
142
0.0
142
0.0
142
0.0008202099737533
142
0.0
142
0.0
142
0.0
142
0.0
142
1.0
142
0.0
142
0.0
142
0.0
142
0.0
142
1.0
179
     0
144
0.0008202099737533
144
0.0
144
0.0
144
0.0
144
0.0
144
0.0008202099737533
144
0.0
144
0.0
144
0.0
144
0.0
144
1.0
144
0.0
144
0.0
144
0.0
144
0.0
144
1.0
147
0.0008202099737533
147
0.0
147
0.0
147
0.0
147
0.0
147
0.0008202099737533
147
0.0
147
0.0
147
0.0
147
0.0
147
1.0
147
0.0
147
0.0
147
0.0
147
0.0
147
1.0
  0
MLEADERSTYLE
  5
9CB1
102
{ACAD_REACTORS
330
9CB0
102
}
330
9CB0
100
AcDbMLeaderStyle
170
     2
171
     1
172
     0
 90
        2
 40
0.0
 41
0.0
173
     1
 91
-1056964608
340
14
 92
       -2
290
     1
 42
2.0
291
     1
 43
0.36
  3
Standard
 44
4.0
300

342
11
174
     1
178
     6
175
     1
176
     0
 93
-1056964608
 45
4.0
292
     0
297
     0
 46
4.0
 94
-1056964608
 47
1.0
 49
1.0
140
1.0
293
     1
141
0.0
294
     1
177
     0
142
1.0
295
     0
296
     0
143
0.125
1001
ACAD_MLEADERVER
1070
     2
  0
MLINESTYLE
  5
18
102
{ACAD_REACTORS
330
17
102
}
330
17
100
AcDbMlineStyle
  2
STANDARD
 70
     0
  3

 62
   256
 51
90.0
 52
90.0
 71
     2
 49
0.5
 62
   256
  6
BYLAYER
 49
-0.5
 62
   256
  6
BYLAYER
  0
ACDBPLACEHOLDER
  5
F
102
{ACAD_REACTORS
330
E
102
}
330
E
  0
SCALE
  5
9C8F
102
{ACAD_REACTORS
330
9C8E
102
}
330
9C8E
100
AcDbScale
 70
     0
300
1:1
140
1.0
141
1.0
290
     1
  0
SCALE
  5
2FF5D
102
{ACAD_REACTORS
330
9C8E
102
}
330
9C8E
100
AcDbScale
 70
     0
300
1:2
140
1.0
141
2.0
290
     0
  0
SCALE
  5
2FF5E
102
{ACAD_REACTORS
330
9C8E
102
}
330
9C8E
100
AcDbScale
 70
     0
300
1:4
140
1.0
141
4.0
290
     0
  0
SCALE
  5
2FF5F
102
{ACAD_REACTORS
330
9C8E
102
}
330
9C8E
100
AcDbScale
 70
     0
300
1:5
140
1.0
141
5.0
290
     0
  0
SCALE
  5
2FF60
102
{ACAD_REACTORS
330
9C8E
102
}
330
9C8E
100
AcDbScale
 70
     0
300
1:8
140
1.0
141
8.0
290
     0
  0
SCALE
  5
2FF61
102
{ACAD_REACTORS
330
9C8E
102
}
330
9C8E
100
AcDbScale
 70
     0
300
1:10
140
1.0
141
10.0
290
     0
  0
SCALE
  5
2FF62
102
{ACAD_REACTORS
330
9C8E
102
}
330
9C8E
100
AcDbScale
 70
     0
300
1:16
140
1.0
141
16.0
290
     0
  0
SCALE
  5
2FF63
102
{ACAD_REACTORS
330
9C8E
102
}
330
9C8E
100
AcDbScale
 70
     0
300
1:20
140
1.0
141
20.0
290
     0
  0
SCALE
  5
2FF64
102
{ACAD_REACTORS
330
9C8E
102
}
330
9C8E
100
AcDbScale
 70
     0
300
1:30
140
1.0
141
30.0
290
     0
  0
SCALE
  5
2FF65
102
{ACAD_REACTORS
330
9C8E
102
}
330
9C8E
100
AcDbScale
 70
     0
300
1:40
140
1.0
141
40.0
290
     0
  0
SCALE
  5
2FF66
102
{ACAD_REACTORS
330
9C8E
102
}
330
9C8E
100
AcDbScale
 70
     0
300
1:50
140
1.0
141
50.0
290
     0
  0
SCALE
  5
2FF67
102
{ACAD_REACTORS
330
9C8E
102
}
330
9C8E
100
AcDbScale
 70
     0
300
1:100
140
1.0
141
100.0
290
     0
  0
SCALE
  5
2FF68
102
{ACAD_REACTORS
330
9C8E
102
}
330
9C8E
100
AcDbScale
 70
     0
300
2:1
140
2.0
141
1.0
290
     0
  0
SCALE
  5
2FF69
102
{ACAD_REACTORS
330
9C8E
102
}
330
9C8E
100
AcDbScale
 70
     0
300
4:1
140
4.0
141
1.0
290
     0
  0
SCALE
  5
2FF6A
102
{ACAD_REACTORS
330
9C8E
102
}
330
9C8E
100
AcDbScale
 70
     0
300
8:1
140
8.0
141
1.0
290
     0
  0
SCALE
  5
2FF6B
102
{ACAD_REACTORS
330
9C8E
102
}
330
9C8E
100
AcDbScale
 70
     0
300
10:1
140
10.0
141
1.0
290
     0
  0
SCALE
  5
2FF6C
102
{ACAD_REACTORS
330
9C8E
102
}
330
9C8E
100
AcDbScale
 70
     0
300
100:1
140
100.0
141
1.0
290
     0
  0
SCALE
  5
2FF6D
102
{ACAD_REACTORS
330
9C8E
102
}
330
9C8E
100
AcDbScale
 70
     0
300
1/128" = 1'-0"
140
0.0078125
141
12.0
290
     0
  0
SCALE
  5
2FF6E
102
{ACAD_REACTORS
330
9C8E
102
}
330
9C8E
100
AcDbScale
 70
     0
300
1/64" = 1'-0"
140
0.015625
141
12.0
290
     0
  0
SCALE
  5
2FF6F
102
{ACAD_REACTORS
330
9C8E
102
}
330
9C8E
100
AcDbScale
 70
     0
300
1/32" = 1'-0"
140
0.03125
141
12.0
290
     0
  0
SCALE
  5
2FF70
102
{ACAD_REACTORS
330
9C8E
102
}
330
9C8E
100
AcDbScale
 70
     0
300
1/16" = 1'-0"
140
0.0625
141
12.0
290
     0
  0
SCALE
  5
2FF71
102
{ACAD_REACTORS
330
9C8E
102
}
330
9C8E
100
AcDbScale
 70
     0
300
3/32" = 1'-0"
140
0.09375
141
12.0
290
     0
  0
SCALE
  5
2FF72
102
{ACAD_REACTORS
330
9C8E
102
}
330
9C8E
100
AcDbScale
 70
     0
300
1/8" = 1'-0"
140
0.125
141
12.0
290
     0
  0
SCALE
  5
2FF73
102
{ACAD_REACTORS
330
9C8E
102
}
330
9C8E
100
AcDbScale
 70
     0
300
3/16" = 1'-0"
140
0.1875
141
12.0
290
     0
  0
SCALE
  5
2FF74
102
{ACAD_REACTORS
330
9C8E
102
}
330
9C8E
100
AcDbScale
 70
     0
300
1/4" = 1'-0"
140
0.25
141
12.0
290
     0
  0
SCALE
  5
2FF75
102
{ACAD_REACTORS
330
9C8E
102
}
330
9C8E
100
AcDbScale
 70
     0
300
3/8" = 1'-0"
140
0.375
141
12.0
290
     0
  0
SCALE
  5
2FF76
102
{ACAD_REACTORS
330
9C8E
102
}
330
9C8E
100
AcDbScale
 70
     0
300
1/2" = 1'-0"
140
0.5
141
12.0
290
     0
  0
SCALE
  5
2FF77
102
{ACAD_REACTORS
330
9C8E
102
}
330
9C8E
100
AcDbScale
 70
     0
300
3/4" = 1'-0"
140
0.75
141
12.0
290
     0
  0
SCALE
  5
2FF78
102
{ACAD_REACTORS
330
9C8E
102
}
330
9C8E
100
AcDbScale
 70
     0
300
1" = 1'-0"
140
1.0
141
12.0
290
     0
  0
SCALE
  5
2FF79
102
{ACAD_REACTORS
330
9C8E
102
}
330
9C8E
100
AcDbScale
 70
     0
300
1-1/2" = 1'-0"
140
1.5
141
12.0
290
     0
  0
SCALE
  5
2FF7A
102
{ACAD_REACTORS
330
9C8E
102
}
330
9C8E
100
AcDbScale
 70
     0
300
3" = 1'-0"
140
3.0
141
12.0
290
     0
  0
SCALE
  5
2FF7B
102
{ACAD_REACTORS
330
9C8E
102
}
330
9C8E
100
AcDbScale
 70
     0
300
6" = 1'-0"
140
6.0
141
12.0
290
     0
  0
SCALE
  5
2FF7C
102
{ACAD_REACTORS
330
9C8E
102
}
330
9C8E
100
AcDbScale
 70
     0
300
1'-0" = 1'-0"
140
12.0
141
12.0
290
     0
  0
TABLESTYLE
  5
9C8D
102
{ACAD_XDICTIONARY
360
A6AD
102
}
102
{ACAD_REACTORS
330
9C8C
102
}
330
9C8C
100
AcDbTableStyle
  3
Standard
 70
     0
 71
     0
 40
1.5
 41
1.5
280
     0
281
     0
  7
Standard
140
4.5
170
     2
 62
     0
 63
     7
283
     0
274
    -2
284
     1
 64
     0
275
    -2
285
     1
 65
     0
276
    -2
286
     1
 66
     0
277
    -2
287
     1
 67
     0
278
    -2
288
     1
 68
     0
279
    -2
289
     1
 69
     0
  7
Standard
140
6.0
170
     5
 62
     0
 63
     7
283
     0
274
    -2
284
     1
 64
     0
275
    -2
285
     1
 65
     0
276
    -2
286
     1
 66
     0
277
    -2
287
     1
 67
     0
278
    -2
288
     1
 68
     0
279
    -2
289
     1
 69
     0
  7
Standard
140
4.5
170
     5
 62
     0
 63
     7
283
     0
274
    -2
284
     1
 64
     0
275
    -2
285
     1
 65
     0
276
    -2
286
     1
 66
     0
277
    -2
287
     1
 67
     0
278
    -2
288
     1
 68
     0
279
    -2
289
     1
 69
     0
  0
VISUALSTYLE
  5
9C80
102
{ACAD_REACTORS
330
9C7A
102
}
330
9C7A
100
AcDbVisualStyle
  2
2dWireframe
 70
     4
 71
     0
 72
     2
 73
     0
 90
        0
 40
-0.6
 41
-30.0
 62
     5
 63
     7
 74
     1
 91
        4
 64
     7
 65
   257
 75
     1
175
     1
 42
1.0
 92
        0
 66
   257
 43
1.0
 76
     1
 77
     6
 78
     2
 67
     7
 79
     5
170
     0
171
     0
290
     0
174
     0
 93
        1
 44
0.0
173
     0
291
     0
 45
0.0
1001
ACAD
1000
AcDbSavedByObjectVersion
1070
     0
  0
VISUALSTYLE
  5
9C82
102
{ACAD_REACTORS
330
9C7A
102
}
330
9C7A
100
AcDbVisualStyle
  2
3D Hidden
 70
     6
 71
     1
 72
     2
 73
     2
 90
        0
 40
-0.6
 41
-30.0
 62
     5
 63
     7
 74
     2
 91
        2
 64
     7
 65
   257
 75
     2
175
     1
 42
40.0
 92
        0
 66
   257
 43
1.0
 76
     1
 77
     6
 78
     2
 67
     7
 79
     3
170
     0
171
     0
290
     0
174
     0
 93
        1
 44
0.0
173
     0
291
     0
 45
0.0
1001
ACAD
1000
AcDbSavedByObjectVersion
1070
     0
  0
VISUALSTYLE
  5
9C81
102
{ACAD_REACTORS
330
9C7A
102
}
330
9C7A
100
AcDbVisualStyle
  2
3dWireframe
 70
     5
 71
     0
 72
     2
 73
     0
 90
        0
 40
-0.6
 41
-30.0
 62
     5
 63
     7
 74
     1
 91
        4
 64
     7
 65
   257
 75
     1
175
     1
 42
1.0
 92
        0
 66
   257
 43
1.0
 76
     1
 77
     6
 78
     2
 67
     7
 79
     5
170
     0
171
     0
290
     0
174
     0
 93
        1
 44
0.0
173
     0
291
     0
 45
0.0
1001
ACAD
1000
AcDbSavedByObjectVersion
1070
     0
  0
VISUALSTYLE
  5
9C7F
102
{ACAD_REACTORS
330
9C7A
102
}
330
9C7A
100
AcDbVisualStyle
  2
Basic
 70
     7
 71
     1
 72
     0
 73
     1
 90
        0
 40
-0.6
 41
-30.0
 62
     5
 63
     7
 74
     0
 91
        4
 64
     7
 65
   257
 75
     1
175
     1
 42
1.0
 92
        8
 66
     7
 43
1.0
 76
     1
 77
     6
 78
     2
 67
     7
 79
     5
170
     0
171
     0
290
     0
174
     0
 93
        1
 44
0.0
173
     0
291
     1
 45
0.0
1001
ACAD
1000
AcDbSavedByObjectVersion
1070
     0
  0
VISUALSTYLE
  5
9C86
102
{ACAD_REACTORS
330
9C7A
102
}
330
9C7A
100
AcDbVisualStyle
  2
Brighten
 70
    12
 71
     2
 72
     2
 73
     0
 90
        0
 40
-0.6
 41
-30.0
 62
     5
 63
     7
 74
     1
 91
        4
 64
     7
 65
   257
 75
     1
175
     1
 42
1.0
 92
        8
 66
     7
 43
1.0
 76
     1
 77
     6
 78
     2
 67
     7
 79
     5
170
     0
171
     0
290
     0
174
     0
 93
        1
 44
50.0
173
     0
291
     1
 45
0.0
1001
ACAD
1000
AcDbSavedByObjectVersion
1070
     0
  0
VISUALSTYLE
  5
9C8A
102
{ACAD_REACTORS
330
9C7A
102
}
330
9C7A
100
AcDbVisualStyle
  2
ColorChange
 70
    16
 71
     2
 72
     2
 73
     3
 90
        0
 40
-0.6
 41
-30.0
 62
     5
 63
     8
 74
     1
 91
        4
 64
     7
 65
   257
 75
     1
175
     1
 42
1.0
 92
        8
 66
     8
 43
1.0
 76
     1
 77
     6
 78
     2
 67
     7
 79
     5
170
     0
171
     0
290
     0
174
     0
 93
        1
 44
0.0
173
     0
291
     1
 45
0.0
1001
ACAD
1000
AcDbSavedByObjectVersion
1070
     0
  0
VISUALSTYLE
  5
9C83
102
{ACAD_REACTORS
330
9C7A
102
}
330
9C7A
100
AcDbVisualStyle
  2
Conceptual
 70
     9
 71
     3
 72
     2
 73
     0
 90
        0
 40
-0.6
 41
-30.0
 62
     5
 63
     7
 74
     2
 91
        2
 64
     7
 65
   257
 75
     1
175
     1
 42
40.0
 92
        8
 66
     7
 43
1.0
 76
     1
 77
     6
 78
     2
 67
     7
 79
     3
170
     0
171
     0
290
     0
174
     0
 93
        1
 44
0.0
173
     0
291
     0
 45
0.0
1001
ACAD
1000
AcDbSavedByObjectVersion
1070
     0
  0
VISUALSTYLE
  5
9C85
102
{ACAD_REACTORS
330
9C7A
102
}
330
9C7A
100
AcDbVisualStyle
  2
Dim
 70
    11
 71
     2
 72
     2
 73
     0
 90
        0
 40
-0.6
 41
-30.0
 62
     5
 63
     7
 74
     1
 91
        4
 64
     7
 65
   257
 75
     1
175
     1
 42
1.0
 92
        8
 66
     7
 43
1.0
 76
     1
 77
     6
 78
     2
 67
     7
 79
     5
170
     0
171
     0
290
     0
174
     0
 93
        1
 44
-50.0
173
     0
291
     1
 45
0.0
1001
ACAD
1000
AcDbSavedByObjectVersion
1070
     0
  0
VISUALSTYLE
  5
9C89
102
{ACAD_REACTORS
330
9C7A
102
}
330
9C7A
100
AcDbVisualStyle
  2
Facepattern
 70
    15
 71
     2
 72
     2
 73
     0
 90
        0
 40
-0.6
 41
-30.0
 62
     5
 63
     7
 74
     1
 91
        4
 64
     7
 65
   257
 75
     1
175
     1
 42
1.0
 92
        8
 66
     7
 43
1.0
 76
     1
 77
     6
 78
     2
 67
     7
 79
     5
170
     0
171
     0
290
     0
174
     0
 93
        1
 44
0.0
173
     0
291
     1
 45
0.0
1001
ACAD
1000
AcDbSavedByObjectVersion
1070
     0
  0
VISUALSTYLE
  5
9C7B
102
{ACAD_REACTORS
330
9C7A
102
}
330
9C7A
100
AcDbVisualStyle
  2
Flat
 70
     0
 71
     2
 72
     1
 73
     1
 90
        2
 40
-0.6
 41
30.0
 62
     5
 63
     7
 74
     0
 91
        4
 64
     7
 65
   257
 75
     1
175
     1
 42
1.0
 92
        8
 66
     7
 43
1.0
 76
     1
 77
     6
 78
     2
 67
     7
 79
     5
170
     0
171
     0
290
     0
174
     0
 93
       13
 44
0.0
173
     0
291
     1
 45
0.0
1001
ACAD
1000
AcDbSavedByObjectVersion
1070
     0
  0
VISUALSTYLE
  5
9C7C
102
{ACAD_REACTORS
330
9C7A
102
}
330
9C7A
100
AcDbVisualStyle
  2
FlatWithEdges
 70
     1
 71
     2
 72
     1
 73
     1
 90
        2
 40
-0.6
 41
30.0
 62
     5
 63
     7
 74
     1
 91
        4
 64
     7
 65
   257
 75
     1
175
     1
 42
1.0
 92
        0
 66
   257
 43
1.0
 76
     1
 77
     6
 78
     2
 67
     7
 79
     5
170
     0
171
     0
290
     0
174
     0
 93
       13
 44
0.0
173
     0
291
     1
 45
0.0
1001
ACAD
1000
AcDbSavedByObjectVersion
1070
     0
  0
VISUALSTYLE
  5
9C7D
102
{ACAD_REACTORS
330
9C7A
102
}
330
9C7A
100
AcDbVisualStyle
  2
Gouraud
 70
     2
 71
     2
 72
     2
 73
     1
 90
        2
 40
-0.6
 41
30.0
 62
     5
 63
     7
 74
     0
 91
        4
 64
     7
 65
   257
 75
     1
175
     1
 42
1.0
 92
        0
 66
     7
 43
1.0
 76
     1
 77
     6
 78
     2
 67
     7
 79
     5
170
     0
171
     0
290
     0
174
     0
 93
       13
 44
0.0
173
     0
291
     1
 45
0.0
1001
ACAD
1000
AcDbSavedByObjectVersion
1070
     0
  0
VISUALSTYLE
  5
9C7E
102
{ACAD_REACTORS
330
9C7A
102
}
330
9C7A
100
AcDbVisualStyle
  2
GouraudWithEdges
 70
     3
 71
     2
 72
     2
 73
     1
 90
        2
 40
-0.6
 41
30.0
 62
     5
 63
     7
 74
     1
 91
        4
 64
     7
 65
   257
 75
     1
175
     1
 42
1.0
 92
        0
 66
   257
 43
1.0
 76
     1
 77
     6
 78
     2
 67
     7
 79
     5
170
     0
171
     0
290
     0
174
     0
 93
       13
 44
0.0
173
     0
291
     1
 45
0.0
1001
ACAD
1000
AcDbSavedByObjectVersion
1070
     0
  0
VISUALSTYLE
  5
9C88
102
{ACAD_REACTORS
330
9C7A
102
}
330
9C7A
100
AcDbVisualStyle
  2
Linepattern
 70
    14
 71
     2
 72
     2
 73
     0
 90
        0
 40
-0.6
 41
-30.0
 62
     5
 63
     7
 74
     1
 91
        4
 64
     7
 65
   257
 75
     7
175
     7
 42
1.0
 92
        8
 66
     7
 43
1.0
 76
     1
 77
     6
 78
     2
 67
     7
 79
     5
170
     0
171
     0
290
     0
174
     0
 93
        1
 44
0.0
173
     0
291
     1
 45
0.0
1001
ACAD
1000
AcDbSavedByObjectVersion
1070
     0
  0
VISUALSTYLE
  5
9C84
102
{ACAD_REACTORS
330
9C7A
102
}
330
9C7A
100
AcDbVisualStyle
  2
Realistic
 70
     8
 71
     2
 72
     2
 73
     0
 90
        0
 40
-0.6
 41
-30.0
 62
     5
 63
     7
 74
     1
 91
        0
 64
     7
 65
   257
 75
     1
175
     1
 42
1.0
 92
        8
 66
     8
 43
1.0
 76
     1
 77
     6
 78
     2
 67
     7
 79
     5
170
     0
171
     0
290
     0
174
     0
 93
       13
 44
0.0
173
     0
291
     0
 45
0.0
1001
ACAD
1000
AcDbSavedByObjectVersion
1070
     0
  0
VISUALSTYLE
  5
9C87
102
{ACAD_REACTORS
330
9C7A
102
}
330
9C7A
100
AcDbVisualStyle
  2
Thicken
 70
    13
 71
     2
 72
     2
 73
     0
 90
        0
 40
-0.6
 41
-30.0
 62
     5
 63
     7
 74
     1
 91
        4
 64
     7
 65
   257
 75
     1
175
     1
 42
1.0
 92
       12
 66
     7
 43
1.0
 76
     1
 77
     6
 78
     2
 67
     7
 79
     5
170
     0
171
     0
290
     0
174
     0
 93
        1
 44
0.0
173
     0
291
     1
 45
0.0
1001
ACAD
1000
AcDbSavedByObjectVersion
1070
     0
  0
DICTIONARYVAR
  5
A6CD
102
{ACAD_REACTORS
330
A6CA
102
}
330
A6CA
100
DictionaryVariables
280
     0
  1
1:1
  0
DICTIONARYVAR
  5
A6CC
102
{ACAD_REACTORS
330
A6CA
102
}
330
A6CA
100
DictionaryVariables
280
     0
  1
STANDARD
  0
DICTIONARYVAR
  5
A6CB
102
{ACAD_REACTORS
330
A6CA
102
}
330
A6CA
100
DictionaryVariables
280
     0
  1
STANDARD
  0
DICTIONARYVAR
  5
A6D0
102
{ACAD_REACTORS
330
A6CA
102
}
330
A6CA
100
DictionaryVariables
280
     0
  1
1
  0
DICTIONARYVAR
  5
A6CF
102
{ACAD_REACTORS
330
A6CA
102
}
330
A6CA
100
DictionaryVariables
280
     0
  1
0
  0
DICTIONARYVAR
  5
2BF4C
102
{ACAD_REACTORS
330
A6CA
102
}
330
A6CA
100
DictionaryVariables
280
     0
  1
0
  0
DICTIONARYVAR
  5
2BF4B
102
{ACAD_REACTORS
330
A6CA
102
}
330
A6CA
100
DictionaryVariables
280
     0
  1
0
  0
DICTIONARYVAR
  5
A6CE
102
{ACAD_REACTORS
330
A6CA
102
}
330
A6CA
100
DictionaryVariables
280
     0
  1
127
  0
DICTIONARY
  5
2FFAF
330
22
100
AcDbDictionary
280
     1
281
     1
  3
ACAD_XREC_ROUNDTRIP
360
2FFB0
  0
DICTIONARY
  5
2FFAD
330
1E
100
AcDbDictionary
280
     1
281
     1
  3
ACAD_XREC_ROUNDTRIP
360
2FFAE
  0
DICTIONARY
  5
2FFB1
330
26
100
AcDbDictionary
280
     1
281
     1
  3
ACAD_XREC_ROUNDTRIP
360
2FFB2
  0
DICTIONARY
  5
9C6B
330
9C6A
100
AcDbDictionary
280
     1
281
     1
  3
ACAD_XREC_ROUNDTRIP
360
2FFB4
  3
BUMPTILE
360
9C6D
  3
DIFFUSETILE
360
9C6C
  3
OPACITYTILE
360
9C70
  3
REFLECTIONTILE
360
9C6F
  3
REFRACTIONTILE
360
9C71
  3
SPECULARTILE
360
9C6E
  0
DICTIONARY
  5
9C63
330
9C62
100
AcDbDictionary
280
     1
281
     1
  3
ACAD_XREC_ROUNDTRIP
360
2FFB3
  3
BUMPTILE
360
9C65
  3
DIFFUSETILE
360
9C64
  3
OPACITYTILE
360
9C68
  3
REFLECTIONTILE
360
9C67
  3
REFRACTIONTILE
360
9C69
  3
SPECULARTILE
360
9C66
  0
DICTIONARY
  5
9C73
330
9C72
100
AcDbDictionary
280
     1
281
     1
  3
ACAD_XREC_ROUNDTRIP
360
2FFB5
  3
BUMPTILE
360
9C75
  3
DIFFUSETILE
360
9C74
  3
OPACITYTILE
360
9C78
  3
REFLECTIONTILE
360
9C77
  3
REFRACTIONTILE
360
9C79
  3
SPECULARTILE
360
9C76
  0
DICTIONARY
  5
A6AD
330
9C8D
100
AcDbDictionary
280
     1
281
     1
  3
ACAD_ROUNDTRIP_2008_TABLESTYLE_CELLSTYLEMAP
360
2FFA8
  3
ACAD_XREC_ROUNDTRIP
360
2FFB6
  0
XRECORD
  5
2FFB0
102
{ACAD_REACTORS
330
2FFAF
102
}
330
2FFAF
100
AcDbXrecord
280
     1
102
SHADEPLOT
 70
     0
102
SHADEPLOTRESLEVEL
 70
     2
102
SHADEPLOTCUSTOMDPI
 70
   300
  0
XRECORD
  5
2FFAE
102
{ACAD_REACTORS
330
2FFAD
102
}
330
2FFAD
100
AcDbXrecord
280
     1
102
SHADEPLOT
 70
     0
102
SHADEPLOTRESLEVEL
 70
     2
102
SHADEPLOTCUSTOMDPI
 70
   300
  0
XRECORD
  5
2FFB2
102
{ACAD_REACTORS
330
2FFB1
102
}
330
2FFB1
100
AcDbXrecord
280
     1
102
SHADEPLOT
 70
     0
102
SHADEPLOTRESLEVEL
 70
     2
102
SHADEPLOTCUSTOMDPI
 70
   300
  0
XRECORD
  5
2FFB4
102
{ACAD_REACTORS
330
9C6B
102
}
330
9C6B
100
AcDbXrecord
280
     1
102
MATERIAL
148
0.0
149
0.0
149
0.0
 93
        0
 94
      127
282
     0
 72
     0
 77
     0
171
     0
175
     0
179
     0
273
     0
  0
XRECORD
  5
9C6D
102
{ACAD_REACTORS
330
9C6B
102
}
330
9C6B
100
AcDbXrecord
280
     1
270
     1
271
     1
  0
XRECORD
  5
9C6C
102
{ACAD_REACTORS
330
9C6B
102
}
330
9C6B
100
AcDbXrecord
280
     1
270
     1
271
     1
  0
XRECORD
  5
9C70
102
{ACAD_REACTORS
330
9C6B
102
}
330
9C6B
100
AcDbXrecord
280
     1
270
     1
271
     1
  0
XRECORD
  5
9C6F
102
{ACAD_REACTORS
330
9C6B
102
}
330
9C6B
100
AcDbXrecord
280
     1
270
     1
271
     1
  0
XRECORD
  5
9C71
102
{ACAD_REACTORS
330
9C6B
102
}
330
9C6B
100
AcDbXrecord
280
     1
270
     1
271
     1
  0
XRECORD
  5
9C6E
102
{ACAD_REACTORS
330
9C6B
102
}
330
9C6B
100
AcDbXrecord
280
     1
270
     1
271
     1
  0
XRECORD
  5
2FFB3
102
{ACAD_REACTORS
330
9C63
102
}
330
9C63
100
AcDbXrecord
280
     1
102
MATERIAL
148
0.0
149
0.0
149
0.0
 93
        0
 94
      127
282
     0
 72
     0
 77
     0
171
     0
175
     0
179
     0
273
     0
  0
XRECORD
  5
9C65
102
{ACAD_REACTORS
330
9C63
102
}
330
9C63
100
AcDbXrecord
280
     1
270
     1
271
     1
  0
XRECORD
  5
9C64
102
{ACAD_REACTORS
330
9C63
102
}
330
9C63
100
AcDbXrecord
280
     1
270
     1
271
     1
  0
XRECORD
  5
9C68
102
{ACAD_REACTORS
330
9C63
102
}
330
9C63
100
AcDbXrecord
280
     1
270
     1
271
     1
  0
XRECORD
  5
9C67
102
{ACAD_REACTORS
330
9C63
102
}
330
9C63
100
AcDbXrecord
280
     1
270
     1
271
     1
  0
XRECORD
  5
9C69
102
{ACAD_REACTORS
330
9C63
102
}
330
9C63
100
AcDbXrecord
280
     1
270
     1
271
     1
  0
XRECORD
  5
9C66
102
{ACAD_REACTORS
330
9C63
102
}
330
9C63
100
AcDbXrecord
280
     1
270
     1
271
     1
  0
XRECORD
  5
2FFB5
102
{ACAD_REACTORS
330
9C73
102
}
330
9C73
100
AcDbXrecord
280
     1
102
MATERIAL
148
0.0
149
0.0
149
0.0
 93
        0
 94
      127
282
     0
 72
     0
 77
     0
171
     0
175
     0
179
     0
273
     0
  0
XRECORD
  5
9C75
102
{ACAD_REACTORS
330
9C73
102
}
330
9C73
100
AcDbXrecord
280
     1
270
     1
271
     1
  0
XRECORD
  5
9C74
102
{ACAD_REACTORS
330
9C73
102
}
330
9C73
100
AcDbXrecord
280
     1
270
     1
271
     1
  0
XRECORD
  5
9C78
102
{ACAD_REACTORS
330
9C73
102
}
330
9C73
100
AcDbXrecord
280
     1
270
     1
271
     1
  0
XRECORD
  5
9C77
102
{ACAD_REACTORS
330
9C73
102
}
330
9C73
100
AcDbXrecord
280
     1
270
     1
271
     1
  0
XRECORD
  5
9C79
102
{ACAD_REACTORS
330
9C73
102
}
330
9C73
100
AcDbXrecord
280
     1
270
     1
271
     1
  0
XRECORD
  5
9C76
102
{ACAD_REACTORS
330
9C73
102
}
330
9C73
100
AcDbXrecord
280
     1
270
     1
271
     1
  0
CELLSTYLEMAP
  5
2FFA8
102
{ACAD_REACTORS
330
A6AD
102
}
330
A6AD
100
AcDbCellStyleMap
 90
        3
300
CELLSTYLE
  1
TABLEFORMAT_BEGIN
 90
        5
170
     1
 91
        0
 92
    32768
 62
   257
 93
        1
300
CONTENTFORMAT
  1
CONTENTFORMAT_BEGIN
 90
        0
 91
        0
 92
      512
 93
        0
300

 40
0.0
140
1.0
 94
        5
 62
     0
340
11
144
6.0
309
CONTENTFORMAT_END
171
     1
301
MARGIN
  1
CELLMARGIN_BEGIN
 40
1.5
 40
1.5
 40
1.5
 40
1.5
 40
0.18
 40
0.18
309
CELLMARGIN_END
 94
        6
 95
        1
302
GRIDFORMAT
  1
GRIDFORMAT_BEGIN
 90
        0
 91
        1
 62
     0
 92
       -2
340
0
 93
        0
 40
1.125
309
GRIDFORMAT_END
 95
        2
302
GRIDFORMAT
  1
GRIDFORMAT_BEGIN
 90
        0
 91
        1
 62
     0
 92
       -2
340
0
 93
        0
 40
1.125
309
GRIDFORMAT_END
 95
        4
302
GRIDFORMAT
  1
GRIDFORMAT_BEGIN
 90
        0
 91
        1
 62
     0
 92
       -2
340
0
 93
        0
 40
1.125
309
GRIDFORMAT_END
 95
        8
302
GRIDFORMAT
  1
GRIDFORMAT_BEGIN
 90
        0
 91
        1
 62
     0
 92
       -2
340
0
 93
        0
 40
1.125
309
GRIDFORMAT_END
 95
       16
302
GRIDFORMAT
  1
GRIDFORMAT_BEGIN
 90
        0
 91
        1
 62
     0
 92
       -2
340
0
 93
        0
 40
1.125
309
GRIDFORMAT_END
 95
       32
302
GRIDFORMAT
  1
GRIDFORMAT_BEGIN
 90
        0
 91
        1
 62
     0
 92
       -2
340
0
 93
        0
 40
1.125
309
GRIDFORMAT_END
309
TABLEFORMAT_END
  1
CELLSTYLE_BEGIN
 90
        1
 91
        1
300
_TITLE
309
CELLSTYLE_END
300
CELLSTYLE
  1
TABLEFORMAT_BEGIN
 90
        5
170
     1
 91
        0
 92
        0
 62
   257
 93
        1
300
CONTENTFORMAT
  1
CONTENTFORMAT_BEGIN
 90
        0
 91
        0
 92
      512
 93
        0
300

 40
0.0
140
1.0
 94
        5
 62
     0
340
11
144
4.5
309
CONTENTFORMAT_END
171
     1
301
MARGIN
  1
CELLMARGIN_BEGIN
 40
1.5
 40
1.5
 40
1.5
 40
1.5
 40
0.18
 40
0.18
309
CELLMARGIN_END
 94
        6
 95
        1
302
GRIDFORMAT
  1
GRIDFORMAT_BEGIN
 90
        0
 91
        1
 62
     0
 92
       -2
340
0
 93
        0
 40
1.125
309
GRIDFORMAT_END
 95
        2
302
GRIDFORMAT
  1
GRIDFORMAT_BEGIN
 90
        0
 91
        1
 62
     0
 92
       -2
340
0
 93
        0
 40
1.125
309
GRIDFORMAT_END
 95
        4
302
GRIDFORMAT
  1
GRIDFORMAT_BEGIN
 90
        0
 91
        1
 62
     0
 92
       -2
340
0
 93
        0
 40
1.125
309
GRIDFORMAT_END
 95
        8
302
GRIDFORMAT
  1
GRIDFORMAT_BEGIN
 90
        0
 91
        1
 62
     0
 92
       -2
340
0
 93
        0
 40
1.125
309
GRIDFORMAT_END
 95
       16
302
GRIDFORMAT
  1
GRIDFORMAT_BEGIN
 90
        0
 91
        1
 62
     0
 92
       -2
340
0
 93
        0
 40
1.125
309
GRIDFORMAT_END
 95
       32
302
GRIDFORMAT
  1
GRIDFORMAT_BEGIN
 90
        0
 91
        1
 62
     0
 92
       -2
340
0
 93
        0
 40
1.125
309
GRIDFORMAT_END
309
TABLEFORMAT_END
  1
CELLSTYLE_BEGIN
 90
        2
 91
        1
300
_HEADER
309
CELLSTYLE_END
300
CELLSTYLE
  1
TABLEFORMAT_BEGIN
 90
        5
170
     1
 91
        0
 92
        0
 62
   257
 93
        1
300
CONTENTFORMAT
  1
CONTENTFORMAT_BEGIN
 90
        0
 91
        0
 92
      512
 93
        0
300

 40
0.0
140
1.0
 94
        2
 62
     0
340
11
144
4.5
309
CONTENTFORMAT_END
171
     1
301
MARGIN
  1
CELLMARGIN_BEGIN
 40
1.5
 40
1.5
 40
1.5
 40
1.5
 40
0.18
 40
0.18
309
CELLMARGIN_END
 94
        6
 95
        1
302
GRIDFORMAT
  1
GRIDFORMAT_BEGIN
 90
        0
 91
        1
 62
     0
 92
       -2
340
0
 93
        0
 40
1.125
309
GRIDFORMAT_END
 95
        2
302
GRIDFORMAT
  1
GRIDFORMAT_BEGIN
 90
        0
 91
        1
 62
     0
 92
       -2
340
0
 93
        0
 40
1.125
309
GRIDFORMAT_END
 95
        4
302
GRIDFORMAT
  1
GRIDFORMAT_BEGIN
 90
        0
 91
        1
 62
     0
 92
       -2
340
0
 93
        0
 40
1.125
309
GRIDFORMAT_END
 95
        8
302
GRIDFORMAT
  1
GRIDFORMAT_BEGIN
 90
        0
 91
        1
 62
     0
 92
       -2
340
0
 93
        0
 40
1.125
309
GRIDFORMAT_END
 95
       16
302
GRIDFORMAT
  1
GRIDFORMAT_BEGIN
 90
        0
 91
        1
 62
     0
 92
       -2
340
0
 93
        0
 40
1.125
309
GRIDFORMAT_END
 95
       32
302
GRIDFORMAT
  1
GRIDFORMAT_BEGIN
 90
        0
 91
        1
 62
     0
 92
       -2
340
0
 93
        0
 40
1.125
309
GRIDFORMAT_END
309
TABLEFORMAT_END
  1
CELLSTYLE_BEGIN
 90
        3
 91
        2
300
_DATA
309
CELLSTYLE_END
  0
XRECORD
  5
2FFB6
102
{ACAD_REACTORS
330
A6AD
102
}
330
A6AD
100
AcDbXrecord
280
     1
102
ACAD_ROUNDTRIP_PRE2007_TABLESTYLE
 90
      512
 91
        0
  1

 92
      512
 93
        0
  2

 94
      512
 95
        0
  3

  0
ENDSEC
  0
EOF
