  0
SECTION
  2
HEADER
  9
$ACADVER
  1
AC1015
  9
$ACADMAINTVER
 70
    20
  9
$DWGCODEPAGE
  3
ANSI_932
  9
$INSBASE
 10
0.0
 20
0.0
 30
0.0
  9
$EXTMIN
 10
20.0000000000001
 20
21.0
 30
0.0
  9
$EXTMAX
 10
809.9999999999996
 20
558.0
 30
0.0
  9
$LIMMIN
 10
0.0
 20
0.0
  9
$LIMMAX
 10
840.0
 20
594.0
  9
$ORTHOMODE
 70
     0
  9
$REGENMODE
 70
     1
  9
$FILLMODE
 70
     1
  9
$QTEXTMODE
 70
     0
  9
$MIRRTEXT
 70
     0
  9
$LTSCALE
 40
1.0
  9
$ATTMODE
 70
     1
  9
$TEXTSIZE
 40
3.0
  9
$TRACEWID
 40
1.0
  9
$TEXTSTYLE
  7
AT_VECTOR
  9
$CLAYER
  8
003
  9
$CELTYPE
  6
ByLayer
  9
$CECOLOR
 62
   256
  9
$CELTSCALE
 40
1.0
  9
$DISPSILH
 70
     0
  9
$DIMSCALE
 40
2.0
  9
$DIMASZ
 40
1.5
  9
$DIMEXO
 40
1.5
  9
$DIMDLI
 40
7.0
  9
$DIMRND
 40
0.0
  9
$DIMDLE
 40
0.0
  9
$DIMEXE
 40
1.0
  9
$DIMTP
 40
0.0
  9
$DIMTM
 40
0.0
  9
$DIMTXT
 40
3.0
  9
$DIMCEN
 40
0.0
  9
$DIMTSZ
 40
0.0
  9
$DIMTOL
 70
     0
  9
$DIMLIM
 70
     0
  9
$DIMTIH
 70
     0
  9
$DIMTOH
 70
     0
  9
$DIMSE1
 70
     0
  9
$DIMSE2
 70
     0
  9
$DIMTAD
 70
     1
  9
$DIMZIN
 70
     8
  9
$DIMBLK
  1
Open30
  9
$DIMASO
 70
     1
  9
$DIMSHO
 70
     1
  9
$DIMPOST
  1

  9
$DIMAPOST
  1

  9
$DIMALT
 70
     0
  9
$DIMALTD
 70
     3
  9
$DIMALTF
 40
0.03937007874016
  9
$DIMLFAC
 40
1.0
  9
$DIMTOFL
 70
     1
  9
$DIMTVP
 40
0.0
  9
$DIMTIX
 70
     0
  9
$DIMSOXD
 70
     0
  9
$DIMSAH
 70
     0
  9
$DIMBLK1
  1

  9
$DIMBLK2
  1

  9
$DIMSTYLE
  2
DIM
  9
$DIMCLRD
 70
     4
  9
$DIMCLRE
 70
     4
  9
$DIMCLRT
 70
     7
  9
$DIMTFAC
 40
1.0
  9
$DIMGAP
 40
1.0
  9
$DIMJUST
 70
     0
  9
$DIMSD1
 70
     0
  9
$DIMSD2
 70
     0
  9
$DIMTOLJ
 70
     0
  9
$DIMTZIN
 70
     8
  9
$DIMALTZ
 70
     0
  9
$DIMALTTZ
 70
     0
  9
$DIMUPT
 70
     0
  9
$DIMDEC
 70
     2
  9
$DIMTDEC
 70
     2
  9
$DIMALTU
 70
     2
  9
$DIMALTTD
 70
     3
  9
$DIMTXSTY
  7
DIM
  9
$DIMAUNIT
 70
     0
  9
$DIMADEC
 70
     0
  9
$DIMALTRND
 40
0.0
  9
$DIMAZIN
 70
     0
  9
$DIMDSEP
 70
    46
  9
$DIMATFIT
 70
     3
  9
$DIMFRAC
 70
     0
  9
$DIMLDRBLK
  1
Open30
  9
$DIMLUNIT
 70
     2
  9
$DIMLWD
 70
    20
  9
$DIMLWE
 70
    20
  9
$DIMTMOVE
 70
     0
  9
$LUNITS
 70
     2
  9
$LUPREC
 70
     4
  9
$SKETCHINC
 40
1.0
  9
$FILLETRAD
 40
0.0
  9
$AUNITS
 70
     0
  9
$AUPREC
 70
     0
  9
$MENU
  1
.
  9
$ELEVATION
 40
0.0
  9
$PELEVATION
 40
0.0
  9
$THICKNESS
 40
0.0
  9
$LIMCHECK
 70
     0
  9
$CHAMFERA
 40
10.0
  9
$CHAMFERB
 40
10.0
  9
$CHAMFERC
 40
20.0
  9
$CHAMFERD
 40
0.0
  9
$SKPOLY
 70
     0
  9
$TDCREATE
 40
2452888.428849190
  9
$TDUCREATE
 40
2452888.053849190
  9
$TDUPDATE
 40
2455959.426129514
  9
$TDUUPDATE
 40
2455959.051129514
  9
$TDINDWG
 40
0.5097006481
  9
$TDUSRTIMER
 40
0.5097006481
  9
$USRTIMER
 70
     1
  9
$ANGBASE
 50
0.0
  9
$ANGDIR
 70
     0
  9
$PDMODE
 70
     0
  9
$PDSIZE
 40
0.0
  9
$PLINEWID
 40
0.0
  9
$SPLFRAME
 70
     0
  9
$SPLINETYPE
 70
     6
  9
$SPLINESEGS
 70
     8
  9
$HANDSEED
  5
24D0A
  9
$SURFTAB1
 70
     6
  9
$SURFTAB2
 70
     6
  9
$SURFTYPE
 70
     6
  9
$SURFU
 70
     6
  9
$SURFV
 70
     6
  9
$UCSBASE
  2

  9
$UCSNAME
  2

  9
$UCSORG
 10
0.0
 20
0.0
 30
0.0
  9
$UCSXDIR
 10
1.0
 20
0.0
 30
0.0
  9
$UCSYDIR
 10
0.0
 20
1.0
 30
0.0
  9
$UCSORTHOREF
  2

  9
$UCSORTHOVIEW
 70
     0
  9
$UCSORGTOP
 10
0.0
 20
0.0
 30
0.0
  9
$UCSORGBOTTOM
 10
0.0
 20
0.0
 30
0.0
  9
$UCSORGLEFT
 10
0.0
 20
0.0
 30
0.0
  9
$UCSORGRIGHT
 10
0.0
 20
0.0
 30
0.0
  9
$UCSORGFRONT
 10
0.0
 20
0.0
 30
0.0
  9
$UCSORGBACK
 10
0.0
 20
0.0
 30
0.0
  9
$PUCSBASE
  2

  9
$PUCSNAME
  2

  9
$PUCSORG
 10
0.0
 20
0.0
 30
0.0
  9
$PUCSXDIR
 10
1.0
 20
0.0
 30
0.0
  9
$PUCSYDIR
 10
0.0
 20
1.0
 30
0.0
  9
$PUCSORTHOREF
  2

  9
$PUCSORTHOVIEW
 70
     0
  9
$PUCSORGTOP
 10
0.0
 20
0.0
 30
0.0
  9
$PUCSORGBOTTOM
 10
0.0
 20
0.0
 30
0.0
  9
$PUCSORGLEFT
 10
0.0
 20
0.0
 30
0.0
  9
$PUCSORGRIGHT
 10
0.0
 20
0.0
 30
0.0
  9
$PUCSORGFRONT
 10
0.0
 20
0.0
 30
0.0
  9
$PUCSORGBACK
 10
0.0
 20
0.0
 30
0.0
  9
$USERI1
 70
     0
  9
$USERI2
 70
     0
  9
$USERI3
 70
     0
  9
$USERI4
 70
     0
  9
$USERI5
 70
     0
  9
$USERR1
 40
0.0
  9
$USERR2
 40
0.0
  9
$USERR3
 40
0.0
  9
$USERR4
 40
0.0
  9
$USERR5
 40
0.0
  9
$WORLDVIEW
 70
     1
  9
$SHADEDGE
 70
     3
  9
$SHADEDIF
 70
    70
  9
$TILEMODE
 70
     1
  9
$MAXACTVP
 70
    64
  9
$PINSBASE
 10
0.0
 20
0.0
 30
0.0
  9
$PLIMCHECK
 70
     0
  9
$PEXTMIN
 10
1.000000000000000E+20
 20
1.000000000000000E+20
 30
1.000000000000000E+20
  9
$PEXTMAX
 10
-1.000000000000000E+20
 20
-1.000000000000000E+20
 30
-1.000000000000000E+20
  9
$PLIMMIN
 10
0.0
 20
0.0
  9
$PLIMMAX
 10
420.0
 20
297.0
  9
$UNITMODE
 70
     0
  9
$VISRETAIN
 70
     1
  9
$PLINEGEN
 70
     0
  9
$PSLTSCALE
 70
     1
  9
$TREEDEPTH
 70
  3020
  9
$CMLSTYLE
  2
Standard
  9
$CMLJUST
 70
     0
  9
$CMLSCALE
 40
20.0
  9
$PROXYGRAPHICS
 70
     1
  9
$MEASUREMENT
 70
     0
  9
$CELWEIGHT
370
    -1
  9
$ENDCAPS
280
     0
  9
$JOINSTYLE
280
     0
  9
$LWDISPLAY
290
     0
  9
$INSUNITS
 70
     4
  9
$HYPERLINKBASE
  1

  9
$STYLESHEET
  1
EPSON.ctb
  9
$XEDIT
290
     1
  9
$CEPSNTYPE
380
     0
  9
$PSTYLEMODE
290
     1
  9
$FINGERPRINTGUID
  2
{9AEAB59C-DF80-11D7-8237-004026CDA8AB}
  9
$VERSIONGUID
  2
{0A20C373-0215-404F-B61B-4A2023DDBFFE}
  9
$EXTNAMES
290
     1
  9
$PSVPSCALE
 40
0.0
  9
$OLESTARTUP
290
     0
  0
ENDSEC
  0
SECTION
  2
CLASSES
  0
CLASS
  1
ACDBDICTIONARYWDFLT
  2
AcDbDictionaryWithDefault
  3
ObjectDBX Classes
 90
        0
280
     0
281
     0
  0
CLASS
  1
ACDBPLACEHOLDER
  2
AcDbPlaceHolder
  3
ObjectDBX Classes
 90
        0
280
     0
281
     0
  0
CLASS
  1
LAYOUT
  2
AcDbLayout
  3
ObjectDBX Classes
 90
        0
280
     0
281
     0
  0
CLASS
  1
MATERIAL
  2
AcDbMaterial
  3
ObjectDBX Classes
 90
     1153
280
     0
281
     0
  0
CLASS
  1
VISUALSTYLE
  2
AcDbVisualStyle
  3
ObjectDBX Classes
 90
     4095
280
     0
281
     0
  0
CLASS
  1
TABLESTYLE
  2
AcDbTableStyle
  3
ObjectDBX Classes
 90
     4095
280
     0
281
     0
  0
CLASS
  1
SCALE
  2
AcDbScale
  3
ObjectDBX Classes
 90
     1153
280
     0
281
     0
  0
CLASS
  1
MLEADERSTYLE
  2
AcDbMLeaderStyle
  3
ACDB_MLEADERSTYLE_CLASS
 90
     4095
280
     0
281
     0
  0
CLASS
  1
SORTENTSTABLE
  2
AcDbSortentsTable
  3
ObjectDBX Classes
 90
        0
280
     0
281
     0
  0
CLASS
  1
CELLSTYLEMAP
  2
AcDbCellStyleMap
  3
ObjectDBX Classes
 90
     1152
280
     0
281
     0
  0
CLASS
  1
DICTIONARYVAR
  2
AcDbDictionaryVar
  3
ObjectDBX Classes
 90
        0
280
     0
281
     0
  0
CLASS
  1
MULTILEADER
  2
AcDbMLeader
  3
ACDB_MLEADER_CLASS
 90
    33793
280
     0
281
     1
  0
ENDSEC
  0
SECTION
  2
TABLES
  0
TABLE
  2
VPORT
  5
8
102
{ACAD_XDICTIONARY
360
162EC
102
}
330
0
100
AcDbSymbolTable
 70
     1
  0
VPORT
  5
E3D4
330
8
100
AcDbSymbolTableRecord
100
AcDbViewportTableRecord
  2
*Active
 70
     0
 10
0.0
 20
0.0
 11
1.0
 21
1.0
 12
420.0
 22
297.0
 13
0.0
 23
0.0
 14
10.0
 24
10.0
 15
10.0
 25
10.0
 16
0.0
 26
0.0
 36
1.0
 17
0.0
 27
0.0
 37
0.0
 40
598.7672049911292
 41
1.590250329380764
 42
50.0
 43
0.0
 44
0.0
 50
0.0
 51
0.0
 71
     0
 72
   100
 73
     1
 74
     3
 75
     0
 76
     0
 77
     0
 78
     0
281
     0
 65
     1
110
0.0
120
0.0
130
0.0
111
1.0
121
0.0
131
0.0
112
0.0
122
1.0
132
0.0
 79
     0
146
0.0
  0
ENDTAB
  0
TABLE
  2
LTYPE
  5
5
330
0
100
AcDbSymbolTable
 70
    10
  0
LTYPE
  5
14
330
5
100
AcDbSymbolTableRecord
100
AcDbLinetypeTableRecord
  2
ByBlock
 70
     0
  3

 72
    65
 73
     0
 40
0.0
  0
LTYPE
  5
15
330
5
100
AcDbSymbolTableRecord
100
AcDbLinetypeTableRecord
  2
ByLayer
 70
     0
  3

 72
    65
 73
     0
 40
0.0
  0
LTYPE
  5
16
330
5
100
AcDbSymbolTableRecord
100
AcDbLinetypeTableRecord
  2
Continuous
 70
     0
  3
Solid line
 72
    65
 73
     0
 40
0.0
  0
LTYPE
  5
19D
330
5
100
AcDbSymbolTableRecord
100
AcDbLinetypeTableRecord
  2
ACAD_ISO04W100
 70
     0
  3
ISO long-dash dot ____ . ____ . ____ . ____ . _
 72
    65
 73
     4
 40
30.0
 49
24.0
 74
     0
 49
-3.0
 74
     0
 49
0.0
 74
     0
 49
-3.0
 74
     0
  0
LTYPE
  5
19E
330
5
100
AcDbSymbolTableRecord
100
AcDbLinetypeTableRecord
  2
ACAD_ISO02W100
 70
     0
  3
ISO dash __ __ __ __ __ __ __ __ __ __ __ __ __
 72
    65
 73
     2
 40
15.0
 49
12.0
 74
     0
 49
-3.0
 74
     0
  0
LTYPE
  5
3BF
330
5
100
AcDbSymbolTableRecord
100
AcDbLinetypeTableRecord
  2
HIDDEN
 70
     0
  3
__ __ __ __ __ __ __ __ __ __ __ __ __ __ __ __
 72
    65
 73
     2
 40
0.375
 49
0.25
 74
     0
 49
-0.125
 74
     0
  0
LTYPE
  5
1A49C
330
5
100
AcDbSymbolTableRecord
100
AcDbLinetypeTableRecord
  2
YHIDDEN
 70
     0
  3
__ __ __ __ __ __ __ __ __ __ __ __ __ __ __ __
 72
    65
 73
     2
 40
3.75
 49
2.5
 74
     0
 49
-1.25
 74
     0
  0
LTYPE
  5
1A49E
330
5
100
AcDbSymbolTableRecord
100
AcDbLinetypeTableRecord
  2
HIDDEN2
 70
     0
  3
_ _ _ _ _ _ _ _ _ _ _ _ _ _ _ _ _ _ _ _ _ _ _ _
 72
    65
 73
     2
 40
0.1875
 49
0.125
 74
     0
 49
-0.0625
 74
     0
  0
ENDTAB
  0
TABLE
  2
LAYER
  5
2
102
{ACAD_XDICTIONARY
360
2859
102
}
330
0
100
AcDbSymbolTable
 70
    35
  0
LAYER
  5
10
102
{ACAD_XDICTIONARY
360
F074
102
}
330
2
100
AcDbSymbolTableRecord
100
AcDbLayerTableRecord
  2
0
 70
     0
 62
     7
  6
Continuous
370
    25
390
F
  0
LAYER
  5
33
102
{ACAD_XDICTIONARY
360
F07A
102
}
330
2
100
AcDbSymbolTableRecord
100
AcDbLayerTableRecord
  2
003
 70
     0
 62
     2
  6
Continuous
370
    25
390
F
  0
LAYER
  5
1A4
102
{ACAD_XDICTIONARY
360
F080
102
}
330
2
100
AcDbSymbolTableRecord
100
AcDbLayerTableRecord
  2
006
 70
     0
 62
     4
  6
ACAD_ISO04W100
370
    20
390
F
  0
LAYER
  5
1A5
102
{ACAD_XDICTIONARY
360
F082
102
}
330
2
100
AcDbSymbolTableRecord
100
AcDbLayerTableRecord
  2
007
 70
     0
 62
     4
  6
ACAD_ISO02W100
370
    20
390
F
  0
LAYER
  5
1A8
330
2
100
AcDbSymbolTableRecord
100
AcDbLayerTableRecord
  2
Defpoints
 70
     0
 62
     7
  6
Continuous
290
     0
370
    25
390
F
  0
LAYER
  5
2B1
102
{ACAD_XDICTIONARY
360
F088
102
}
330
2
100
AcDbSymbolTableRecord
100
AcDbLayerTableRecord
  2
010
 70
     0
 62
     4
  6
Continuous
370
    20
390
F
  0
LAYER
  5
1271F
330
2
100
AcDbSymbolTableRecord
100
AcDbLayerTableRecord
  2
YKK_ZWAK
 70
     0
 62
     7
  6
Continuous
370
    -3
390
F
  0
LAYER
  5
1A4A4
330
2
100
AcDbSymbolTableRecord
100
AcDbLayerTableRecord
  2
YKK_W1101
 70
     0
 62
     7
  6
Continuous
370
    -3
390
F
  0
LAYER
  5
1A4A6
330
2
100
AcDbSymbolTableRecord
100
AcDbLayerTableRecord
  2
YKK_W1701
 70
     0
 62
     7
  6
Continuous
370
    -3
390
F
  0
LAYER
  5
1A4AC
330
2
100
AcDbSymbolTableRecord
100
AcDbLayerTableRecord
  2
YKK_W1101_G
 70
     0
 62
     7
  6
Continuous
370
    -3
390
F
  0
LAYER
  5
1A4AE
330
2
100
AcDbSymbolTableRecord
100
AcDbLayerTableRecord
  2
YKK_W1701_G
 70
     0
 62
     7
  6
Continuous
370
    -3
390
F
  0
LAYER
  5
1A4B2
330
2
100
AcDbSymbolTableRecord
100
AcDbLayerTableRecord
  2
YSS_W1701_K
 70
     0
 62
     3
  6
Continuous
370
    -3
390
F
  0
LAYER
  5
1A4B3
330
2
100
AcDbSymbolTableRecord
100
AcDbLayerTableRecord
  2
YSS_W1101_K
 70
     0
 62
     3
  6
Continuous
370
    -3
390
F
  0
ENDTAB
  0
TABLE
  2
STYLE
  5
3
330
0
100
AcDbSymbolTable
 70
     4
  0
STYLE
  5
11
330
3
100
AcDbSymbolTableRecord
100
AcDbTextStyleTableRecord
  2
Standard
 70
     0
 40
0.0
 41
1.0
 50
0.0
 71
     0
 42
2.5
  3
txt
  4

  0
STYLE
  5
34
330
3
100
AcDbSymbolTableRecord
100
AcDbTextStyleTableRecord
  2
DIM
 70
     0
 40
0.0
 41
0.75
 50
0.0
 71
     0
 42
60.0
  3
romans.shx
  4
extfont.shx
  0
STYLE
  5
35
330
3
100
AcDbSymbolTableRecord
100
AcDbTextStyleTableRecord
  2
AT_VECTOR
 70
     0
 40
0.0
 41
1.0
 50
0.0
 71
     0
 42
3.0
  3
romans.shx
  4
extfont.shx
  0
STYLE
  5
12720
330
3
100
AcDbSymbolTableRecord
100
AcDbTextStyleTableRecord
  2
YKK_OSSTYLE1
 70
     0
 40
0.0
 41
0.9
 50
0.0
 71
     0
 42
3.0
  3
romans.shx
  4
EXTFONT.SHX
  0
ENDTAB
  0
TABLE
  2
VIEW
  5
6
330
0
100
AcDbSymbolTable
 70
     0
  0
ENDTAB
  0
TABLE
  2
UCS
  5
7
330
0
100
AcDbSymbolTable
 70
     0
  0
ENDTAB
  0
TABLE
  2
APPID
  5
9
330
0
100
AcDbSymbolTable
 70
    20
  0
APPID
  5
12
330
9
100
AcDbSymbolTableRecord
100
AcDbRegAppTableRecord
  2
ACAD
 70
     0
  0
APPID
  5
3DA
330
9
100
AcDbSymbolTableRecord
100
AcDbRegAppTableRecord
  2
BS2_OSAMARI_KUTAI
 70
     0
  0
APPID
  5
3DB
330
9
100
AcDbSymbolTableRecord
100
AcDbRegAppTableRecord
  2
BS2_OSAMARI_ISIAGE
 70
     0
  0
APPID
  5
3DC
330
9
100
AcDbSymbolTableRecord
100
AcDbRegAppTableRecord
  2
BS2_OSAMARI_IMOKU
 70
     0
  0
APPID
  5
3DD
330
9
100
AcDbSymbolTableRecord
100
AcDbRegAppTableRecord
  2
BS2_OSAMARI_OSIAGE
 70
     0
  0
APPID
  5
3DE
330
9
100
AcDbSymbolTableRecord
100
AcDbRegAppTableRecord
  2
BS2_OSAMARI_OFZK
 70
     0
  0
APPID
  5
E427
330
9
100
AcDbSymbolTableRecord
100
AcDbRegAppTableRecord
  2
ACAD_MLEADERVER
 70
     0
  0
APPID
  5
F13C
330
9
100
AcDbSymbolTableRecord
100
AcDbRegAppTableRecord
  2
ACAD_EXEMPT_FROM_CAD_STANDARDS
 70
     0
  0
APPID
  5
F7FB
330
9
100
AcDbSymbolTableRecord
100
AcDbRegAppTableRecord
  2
ACAD_PSEXT
 70
     0
  0
APPID
  5
12721
330
9
100
AcDbSymbolTableRecord
100
AcDbRegAppTableRecord
  2
ACAD_DSTYLE_DIMJAG
 70
     0
  0
APPID
  5
12722
330
9
100
AcDbSymbolTableRecord
100
AcDbRegAppTableRecord
  2
ACAD_DSTYLE_DIMTALN
 70
     0
  0
APPID
  5
1393B
330
9
100
AcDbSymbolTableRecord
100
AcDbRegAppTableRecord
  2
YALIB
 70
     0
  0
APPID
  5
1A4BB
330
9
100
AcDbSymbolTableRecord
100
AcDbRegAppTableRecord
  2
AcAecLayerStandard
 70
     0
  0
APPID
  5
1A4BC
330
9
100
AcDbSymbolTableRecord
100
AcDbRegAppTableRecord
  2
YOBJCUT10106162134
 70
     0
  0
APPID
  5
1A4BD
330
9
100
AcDbSymbolTableRecord
100
AcDbRegAppTableRecord
  2
GENIUS_GENODEF_13
 70
     0
  0
APPID
  5
1A4BE
330
9
100
AcDbSymbolTableRecord
100
AcDbRegAppTableRecord
  2
GENIUS_GENREC_14
 70
     0
  0
APPID
  5
1A4BF
330
9
100
AcDbSymbolTableRecord
100
AcDbRegAppTableRecord
  2
GENIUS_GENOBJ-N-REC_13
 70
     0
  0
APPID
  5
1A4C0
330
9
100
AcDbSymbolTableRecord
100
AcDbRegAppTableRecord
  2
MYHANDLE
 70
     0
  0
APPID
  5
1A4C1
330
9
100
AcDbSymbolTableRecord
100
AcDbRegAppTableRecord
  2
GROUP
 70
     0
  0
APPID
  5
1D429
330
9
100
AcDbSymbolTableRecord
100
AcDbRegAppTableRecord
  2
ACAD_DSTYLE_DIMTEXT_FILL
 70
     0
  0
ENDTAB
  0
TABLE
  2
DIMSTYLE
  5
A
330
0
100
AcDbSymbolTable
 70
     6
100
AcDbDimStyleTable
 71
     2
340
38
340
1A9
  0
DIMSTYLE
105
38
102
{ACAD_REACTORS
330
24770
330
2477A
330
247A9
330
247C4
330
24812
330
24813
330
24823
330
24857
330
24858
330
248F4
330
248F5
102
}
330
A
100
AcDbSymbolTableRecord
100
AcDbDimStyleTableRecord
  2
DIM
 70
     0
 40
2.0
 41
1.5
 42
1.5
 43
7.0
 44
1.0
 73
     0
 74
     0
 77
     1
 78
     8
140
3.0
141
0.0
143
0.03937007874016
147
1.0
171
     3
172
     1
176
     4
177
     4
178
     7
271
     2
272
     2
274
     3
283
     0
284
     8
340
34
341
2B
342
2B
371
    20
372
    20
1001
ACAD_DSTYLE_DIMJAG
1070
   388
1040
1.5
1001
ACAD_DSTYLE_DIMTALN
1070
   392
1070
     0
1001
ACAD_DSTYLE_DIMTEXT_FILL
1070
   376
1070
     1
1070
   377
1004
1800000001000000000000C0000000000000000000000000
  0
DIMSTYLE
105
1A9
330
A
100
AcDbSymbolTableRecord
100
AcDbDimStyleTableRecord
  2
Standard
 70
     0
340
11
  0
ENDTAB
  0
TABLE
  2
BLOCK_RECORD
  5
1
330
0
100
AcDbSymbolTable
 70
    52
  0
BLOCK_RECORD
  5
1F
102
{ACAD_XDICTIONARY
360
F144
102
}
330
1
100
AcDbSymbolTableRecord
100
AcDbBlockTableRecord
  2
*Model_Space
340
22
  0
BLOCK_RECORD
  5
1B
330
1
100
AcDbSymbolTableRecord
100
AcDbBlockTableRecord
  2
*Paper_Space
340
1E
  0
BLOCK_RECORD
  5
23
330
1
100
AcDbSymbolTableRecord
100
AcDbBlockTableRecord
  2
*Paper_Space0
340
26
  0
BLOCK_RECORD
  5
2B
330
1
100
AcDbSymbolTableRecord
100
AcDbBlockTableRecord
  2
_Open30
340
0
102
{BLKREFS
331
2418A
331
2418B
331
24193
331
24194
331
2419C
331
2419D
331
241A5
331
241A6
331
241AE
331
241AF
331
241B7
331
241B8
331
241C0
331
241C1
331
241C9
331
241CA
331
241D2
331
241D3
331
241DB
331
241DC
331
241E4
331
241E5
331
242EB
331
242EC
331
242F7
331
242F8
331
24297
331
24298
331
242A3
331
242A4
331
242AF
331
242B0
331
242BB
331
242BC
331
242C7
331
242C8
331
242D3
331
242D4
331
242DF
331
242E0
331
24303
331
24304
331
2430F
331
24310
331
24C47
331
24C48
331
24C50
331
24C51
331
24C59
331
24C5A
331
24C62
331
24C63
331
24C6B
331
24C6C
331
24C74
331
24C75
331
24C7D
331
24C7E
331
24C86
331
24C87
331
24C8F
331
24C90
331
24C98
331
24C99
331
24CA1
331
24CA2
102
}
  0
BLOCK_RECORD
  5
24BC0
330
1
100
AcDbSymbolTableRecord
100
AcDbBlockTableRecord
  2
*D41
340
0
  0
BLOCK_RECORD
  5
24BCC
330
1
100
AcDbSymbolTableRecord
100
AcDbBlockTableRecord
  2
*D42
340
0
  0
BLOCK_RECORD
  5
24BD8
330
1
100
AcDbSymbolTableRecord
100
AcDbBlockTableRecord
  2
*D43
340
0
  0
BLOCK_RECORD
  5
24BE4
330
1
100
AcDbSymbolTableRecord
100
AcDbBlockTableRecord
  2
*D44
340
0
  0
BLOCK_RECORD
  5
24BF0
330
1
100
AcDbSymbolTableRecord
100
AcDbBlockTableRecord
  2
*D45
340
0
  0
BLOCK_RECORD
  5
24BFC
330
1
100
AcDbSymbolTableRecord
100
AcDbBlockTableRecord
  2
*D46
340
0
  0
BLOCK_RECORD
  5
24C08
330
1
100
AcDbSymbolTableRecord
100
AcDbBlockTableRecord
  2
*D47
340
0
  0
BLOCK_RECORD
  5
24C14
330
1
100
AcDbSymbolTableRecord
100
AcDbBlockTableRecord
  2
*D48
340
0
  0
BLOCK_RECORD
  5
24C20
330
1
100
AcDbSymbolTableRecord
100
AcDbBlockTableRecord
  2
*D49
340
0
  0
BLOCK_RECORD
  5
24C2C
330
1
100
AcDbSymbolTableRecord
100
AcDbBlockTableRecord
  2
*D50
340
0
  0
BLOCK_RECORD
  5
24C38
330
1
100
AcDbSymbolTableRecord
100
AcDbBlockTableRecord
  2
*D51
340
0
  0
ENDTAB
  0
ENDSEC
  0
SECTION
  2
BLOCKS
  0
BLOCK
  5
20
330
1F
100
AcDbEntity
  8
0
100
AcDbBlockBegin
  2
*Model_Space
 70
     0
 10
0.0
 20
0.0
 30
0.0
  3
*Model_Space
  1

  0
ENDBLK
  5
21
330
1F
100
AcDbEntity
  8
0
100
AcDbBlockEnd
  0
BLOCK
  5
1C
330
1B
100
AcDbEntity
 67
     1
  8
0
100
AcDbBlockBegin
  2
*Paper_Space
 70
     0
 10
0.0
 20
0.0
 30
0.0
  3
*Paper_Space
  1

  0
ENDBLK
  5
1D
330
1B
100
AcDbEntity
 67
     1
  8
0
100
AcDbBlockEnd
  0
BLOCK
  5
24
330
23
100
AcDbEntity
 67
     1
  8
0
100
AcDbBlockBegin
  2
*Paper_Space0
 70
     0
 10
0.0
 20
0.0
 30
0.0
  3
*Paper_Space0
  1

  0
ENDBLK
  5
25
330
23
100
AcDbEntity
 67
     1
  8
0
100
AcDbBlockEnd
  0
BLOCK
  5
2F
330
2B
100
AcDbEntity
  8
0
100
AcDbBlockBegin
  2
_Open30
 70
     0
 10
0.0
 20
0.0
 30
0.0
  3
_Open30
  1

  0
LINE
  5
2C
330
2B
100
AcDbEntity
  8
0
  6
ByBlock
 62
     0
370
    -2
100
AcDbLine
 10
-1.0
 20
0.26794919
 30
0.0
 11
0.0
 21
0.0
 31
0.0
  0
LINE
  5
2D
330
2B
100
AcDbEntity
  8
0
  6
ByBlock
 62
     0
370
    -2
100
AcDbLine
 10
0.0
 20
0.0
 30
0.0
 11
-1.0
 21
-0.26794919
 31
0.0
  0
LINE
  5
2E
330
2B
100
AcDbEntity
  8
0
  6
ByBlock
 62
     0
370
    -2
100
AcDbLine
 10
0.0
 20
0.0
 30
0.0
 11
-1.0
 21
0.0
 31
0.0
  0
ENDBLK
  5
30
330
2B
100
AcDbEntity
  8
0
100
AcDbBlockEnd
  0
BLOCK
  5
24BC1
330
24BC0
100
AcDbEntity
  8
0
100
AcDbBlockBegin
  2
*D41
 70
     1
 10
0.0
 20
0.0
 30
0.0
  3
*D41
  1

  0
LINE
  5
24C44
330
24BC0
100
AcDbEntity
  8
0
 62
     4
370
    20
100
AcDbLine
 10
271.2827015638885
 20
140.9456645561771
 30
0.0
 11
271.2827015638885
 21
111.4490602072778
 31
0.0
  0
LINE
  5
24C45
330
24BC0
100
AcDbEntity
  8
0
 62
     4
370
    20
100
AcDbLine
 10
576.2829835638885
 20
140.9456778424929
 30
0.0
 11
576.2829835638885
 21
111.4490602072778
 31
0.0
  0
LINE
  5
24C46
330
24BC0
100
AcDbEntity
  8
0
 62
     4
370
    20
100
AcDbLine
 10
274.2827015638885
 20
113.4490602072778
 30
0.0
 11
573.2829835638884
 21
113.4490602072778
 31
0.0
  0
INSERT
  5
24C47
330
24BC0
100
AcDbEntity
  8
0
 62
     4
370
    20
100
AcDbBlockReference
  2
_Open30
 10
271.2827015638885
 20
113.4490602072778
 30
0.0
 41
3.0
 42
3.0
 43
3.0
 50
180.0
  0
INSERT
  5
24C48
330
24BC0
100
AcDbEntity
  8
0
 62
     4
370
    20
100
AcDbBlockReference
  2
_Open30
 10
576.2829835638885
 20
113.4490602072778
 30
0.0
 41
3.0
 42
3.0
 43
3.0
  0
MTEXT
  5
24C49
330
24BC0
100
AcDbEntity
  8
0
 62
     7
100
AcDbMText
 10
423.7828425638885
 20
118.4490602072778
 30
0.0
 40
6.0
 41
0.0
 71
     5
 72
     1
  1
SW
  7
DIM
 73
     1
 44
1.0
1001
ACAD
1000
MTEXTBEGIN
1070
    73
1070
     1
1070
    44
1040
1.0
1070
    74
1070
     0
1000
MTEXTEND
1000
ACAD_MTEXT_BBRT
1070
    91
1071
        3
1070
    46
1040
1.25
1070
    64
1071
-1027028792
1070
    65
1000

1070
    66
1000

1070
   442
1071
     3447
1000
ACAD_MTEXT_BERT
  0
POINT
  5
24C4A
330
24BC0
100
AcDbEntity
  8
Defpoints
 62
     0
100
AcDbPoint
 10
271.2827015638885
 20
143.9456645561771
 30
0.0
  0
POINT
  5
24C4B
330
24BC0
100
AcDbEntity
  8
Defpoints
 62
     0
100
AcDbPoint
 10
576.2829835638885
 20
143.9456778424929
 30
0.0
  0
POINT
  5
24C4C
330
24BC0
100
AcDbEntity
  8
Defpoints
 62
     0
100
AcDbPoint
 10
576.2829835638885
 20
113.4490602072778
 30
0.0
  0
ENDBLK
  5
24BC2
330
24BC0
100
AcDbEntity
  8
0
100
AcDbBlockEnd
  0
BLOCK
  5
24BCD
330
24BCC
100
AcDbEntity
  8
0
100
AcDbBlockBegin
  2
*D42
 70
     1
 10
0.0
 20
0.0
 30
0.0
  3
*D42
  1

  0
LINE
  5
24C4D
330
24BCC
100
AcDbEntity
  8
003
 62
     4
370
    20
100
AcDbLine
 10
272.2827015638966
 20
269.0526617951994
 30
0.0
 11
272.2827015638966
 21
313.5274839545181
 31
0.0
  0
LINE
  5
24C4E
330
24BCC
100
AcDbEntity
  8
003
 62
     4
370
    20
100
AcDbLine
 10
575.2829835638965
 20
269.9456778424929
 30
0.0
 11
575.2829835638965
 21
313.5274839545181
 31
0.0
  0
LINE
  5
24C4F
330
24BCC
100
AcDbEntity
  8
003
 62
     4
370
    20
100
AcDbLine
 10
275.2827015638966
 20
311.5274839545181
 30
0.0
 11
572.2829835638965
 21
311.5274839545181
 31
0.0
  0
INSERT
  5
24C50
330
24BCC
100
AcDbEntity
  8
003
 62
     4
370
    20
100
AcDbBlockReference
  2
_Open30
 10
272.2827015638966
 20
311.5274839545181
 30
0.0
 41
3.0
 42
3.0
 43
3.0
 50
180.0
  0
INSERT
  5
24C51
330
24BCC
100
AcDbEntity
  8
003
 62
     4
370
    20
100
AcDbBlockReference
  2
_Open30
 10
575.2829835638965
 20
311.5274839545181
 30
0.0
 41
3.0
 42
3.0
 43
3.0
  0
MTEXT
  5
24C52
330
24BCC
100
AcDbEntity
  8
003
 62
     7
100
AcDbMText
 10
423.7828425638965
 20
316.5274839545181
 30
0.0
 40
6.0
 41
0.0
 71
     5
 72
     1
  1
製品W=SW-2
  7
DIM
 73
     1
 44
1.0
1001
ACAD
1000
MTEXTBEGIN
1070
    73
1070
     1
1070
    44
1040
1.0
1070
    74
1070
     0
1000
MTEXTEND
1000
ACAD_MTEXT_BBRT
1070
    91
1071
        3
1070
    46
1040
1.25
1070
    64
1071
-1027028792
1070
    65
1000

1070
    66
1000

1070
   442
1071
     3462
1000
ACAD_MTEXT_BERT
  0
POINT
  5
24C53
330
24BCC
100
AcDbEntity
  8
Defpoints
 62
     0
100
AcDbPoint
 10
272.2827015638966
 20
266.0526617951993
 30
0.0
  0
POINT
  5
24C54
330
24BCC
100
AcDbEntity
  8
Defpoints
 62
     0
100
AcDbPoint
 10
575.2829835638965
 20
266.9456778424928
 30
0.0
  0
POINT
  5
24C55
330
24BCC
100
AcDbEntity
  8
Defpoints
 62
     0
100
AcDbPoint
 10
575.2829835638965
 20
311.5274839545181
 30
0.0
  0
ENDBLK
  5
24BCE
330
24BCC
100
AcDbEntity
  8
0
100
AcDbBlockEnd
  0
BLOCK
  5
24BD9
330
24BD8
100
AcDbEntity
  8
0
100
AcDbBlockBegin
  2
*D43
 70
     1
 10
0.0
 20
0.0
 30
0.0
  3
*D43
  1

  0
LINE
  5
24C56
330
24BD8
100
AcDbEntity
  8
003
 62
     4
370
    20
100
AcDbLine
 10
272.2827015638966
 20
269.0526617951994
 30
0.0
 11
272.2827015638966
 21
296.3949215687479
 31
0.0
  0
LINE
  5
24C57
330
24BD8
100
AcDbEntity
  8
003
 62
     4
370
    20
100
AcDbLine
 10
302.2827015638966
 20
279.9457637344614
 30
0.0
 11
302.2827015638966
 21
296.3949215687479
 31
0.0
  0
LINE
  5
24C58
330
24BD8
100
AcDbEntity
  8
003
 62
     4
370
    20
100
AcDbLine
 10
275.2827015638966
 20
294.3949215687479
 30
0.0
 11
299.2827015638966
 21
294.3949215687479
 31
0.0
  0
INSERT
  5
24C59
330
24BD8
100
AcDbEntity
  8
003
 62
     4
370
    20
100
AcDbBlockReference
  2
_Open30
 10
272.2827015638966
 20
294.3949215687479
 30
0.0
 41
3.0
 42
3.0
 43
3.0
 50
180.0
  0
INSERT
  5
24C5A
330
24BD8
100
AcDbEntity
  8
003
 62
     4
370
    20
100
AcDbBlockReference
  2
_Open30
 10
302.2827015638966
 20
294.3949215687479
 30
0.0
 41
3.0
 42
3.0
 43
3.0
  0
MTEXT
  5
24C5B
330
24BD8
100
AcDbEntity
  8
003
 62
     7
100
AcDbMText
 10
287.2827015638966
 20
299.3949215687479
 30
0.0
 40
6.0
 41
0.0
 71
     5
 72
     1
  1
30
  7
DIM
 73
     1
 44
1.0
1001
ACAD
1000
MTEXTBEGIN
1070
    73
1070
     1
1070
    44
1040
1.0
1070
    74
1070
     0
1000
MTEXTEND
1000
ACAD_MTEXT_BBRT
1070
    91
1071
        3
1070
    46
1040
1.25
1070
    64
1071
-1027028792
1070
    65
1000

1070
    66
1000

1070
   442
1071
     3467
1000
ACAD_MTEXT_BERT
  0
POINT
  5
24C5C
330
24BD8
100
AcDbEntity
  8
Defpoints
 62
     0
100
AcDbPoint
 10
272.2827015638966
 20
266.0526617951993
 30
0.0
  0
POINT
  5
24C5D
330
24BD8
100
AcDbEntity
  8
Defpoints
 62
     0
100
AcDbPoint
 10
302.2827015638966
 20
276.9457637344614
 30
0.0
  0
POINT
  5
24C5E
330
24BD8
100
AcDbEntity
  8
Defpoints
 62
     0
100
AcDbPoint
 10
302.2827015638966
 20
294.3949215687479
 30
0.0
  0
ENDBLK
  5
24BDA
330
24BD8
100
AcDbEntity
  8
0
100
AcDbBlockEnd
  0
BLOCK
  5
24BE5
330
24BE4
100
AcDbEntity
  8
0
100
AcDbBlockBegin
  2
*D44
 70
     1
 10
0.0
 20
0.0
 30
0.0
  3
*D44
  1

  0
LINE
  5
24C5F
330
24BE4
100
AcDbEntity
  8
003
 62
     4
370
    20
100
AcDbLine
 10
564.7829835638965
 20
211.9456778424929
 30
0.0
 11
562.5362178949234
 21
211.9456778424929
 31
0.0
  0
LINE
  5
24C60
330
24BE4
100
AcDbEntity
  8
003
 62
     4
370
    20
100
AcDbLine
 10
562.2829835638965
 20
276.9456778424928
 30
0.0
 11
562.5362178949235
 21
276.9456778424928
 31
0.0
  0
LINE
  5
24C61
330
24BE4
100
AcDbEntity
  8
003
 62
     4
370
    20
100
AcDbLine
 10
564.5362178949234
 20
214.945677842493
 30
0.0
 11
564.5362178949235
 21
273.9456778424929
 31
0.0
  0
INSERT
  5
24C62
330
24BE4
100
AcDbEntity
  8
003
 62
     4
370
    20
100
AcDbBlockReference
  2
_Open30
 10
564.5362178949234
 20
211.9456778424929
 30
0.0
 41
3.0
 42
3.0
 43
3.0
 50
270.0
  0
INSERT
  5
24C63
330
24BE4
100
AcDbEntity
  8
003
 62
     4
370
    20
100
AcDbBlockReference
  2
_Open30
 10
564.5362178949235
 20
276.9456778424928
 30
0.0
 41
3.0
 42
3.0
 43
3.0
 50
90.0
  0
MTEXT
  5
24C64
330
24BE4
100
AcDbEntity
  8
003
 62
     7
100
AcDbMText
 10
559.5362178949234
 20
244.445677842493
 30
0.0
 40
6.0
 41
0.0
 71
     5
 72
     1
  1
65
  7
DIM
 11
0.0000000000000001
 21
1.0
 31
0.0
 73
     1
 44
1.0
1001
ACAD
1000
MTEXTBEGIN
1070
    73
1070
     1
1070
    44
1040
1.0
1070
    74
1070
     0
1000
MTEXTEND
1000
ACAD_MTEXT_BBRT
1070
    91
1071
        3
1070
    46
1040
1.25
1070
    64
1071
-1027028792
1070
    65
1000

1070
    66
1000

1070
   442
1071
     3472
1000
ACAD_MTEXT_BERT
  0
POINT
  5
24C65
330
24BE4
100
AcDbEntity
  8
Defpoints
 62
     0
100
AcDbPoint
 10
567.7829835638966
 20
211.9456778424929
 30
0.0
  0
POINT
  5
24C66
330
24BE4
100
AcDbEntity
  8
Defpoints
 62
     0
100
AcDbPoint
 10
565.2829835638965
 20
276.9456778424928
 30
0.0
  0
POINT
  5
24C67
330
24BE4
100
AcDbEntity
  8
Defpoints
 62
     0
100
AcDbPoint
 10
564.5362178949235
 20
276.9456778424928
 30
0.0
  0
ENDBLK
  5
24BE6
330
24BE4
100
AcDbEntity
  8
0
100
AcDbBlockEnd
  0
BLOCK
  5
24BF1
330
24BF0
100
AcDbEntity
  8
0
100
AcDbBlockBegin
  2
*D45
 70
     1
 10
0.0
 20
0.0
 30
0.0
  3
*D45
  1

  0
LINE
  5
24C68
330
24BF0
100
AcDbEntity
  8
003
 62
     4
370
    20
100
AcDbLine
 10
659.462636716727
 20
422.4787087895085
 30
0.0
 11
697.2246485627205
 21
422.4787087895085
 31
0.0
  0
LINE
  5
24C69
330
24BF0
100
AcDbEntity
  8
003
 62
     4
370
    20
100
AcDbLine
 10
659.462636716727
 20
531.828106355482
 30
0.0
 11
697.2246485627205
 21
531.828106355482
 31
0.0
  0
LINE
  5
24C6A
330
24BF0
100
AcDbEntity
  8
003
 62
     4
370
    20
100
AcDbLine
 10
695.2246485627205
 20
425.4787087895086
 30
0.0
 11
695.2246485627205
 21
528.828106355482
 31
0.0
  0
INSERT
  5
24C6B
330
24BF0
100
AcDbEntity
  8
003
 62
     4
370
    20
100
AcDbBlockReference
  2
_Open30
 10
695.2246485627205
 20
422.4787087895085
 30
0.0
 41
3.0
 42
3.0
 43
3.0
 50
270.0
  0
INSERT
  5
24C6C
330
24BF0
100
AcDbEntity
  8
003
 62
     4
370
    20
100
AcDbBlockReference
  2
_Open30
 10
695.2246485627205
 20
531.828106355482
 30
0.0
 41
3.0
 42
3.0
 43
3.0
 50
90.0
  0
MTEXT
  5
24C6D
330
24BF0
100
AcDbEntity
  8
003
 62
     7
100
AcDbMText
 10
690.2246485627204
 20
477.1534075724954
 30
0.0
 40
6.0
 41
0.0
 71
     5
 72
     1
  1
製品H
  7
DIM
 11
0.0000000000000001
 21
1.0
 31
0.0
 73
     1
 44
1.0
1001
ACAD
1000
MTEXTBEGIN
1070
    73
1070
     1
1070
    44
1040
1.0
1070
    74
1070
     0
1000
MTEXTEND
1000
ACAD_MTEXT_BBRT
1070
    91
1071
        3
1070
    46
1040
1.25
1070
    64
1071
-1027028792
1070
    65
1000

1070
    66
1000

1070
   442
1071
     3487
1000
ACAD_MTEXT_BERT
  0
POINT
  5
24C6E
330
24BF0
100
AcDbEntity
  8
Defpoints
 62
     0
100
AcDbPoint
 10
656.462636716727
 20
422.4787087895085
 30
0.0
  0
POINT
  5
24C6F
330
24BF0
100
AcDbEntity
  8
Defpoints
 62
     0
100
AcDbPoint
 10
656.462636716727
 20
531.828106355482
 30
0.0
  0
POINT
  5
24C70
330
24BF0
100
AcDbEntity
  8
Defpoints
 62
     0
100
AcDbPoint
 10
695.2246485627205
 20
531.828106355482
 30
0.0
  0
ENDBLK
  5
24BF2
330
24BF0
100
AcDbEntity
  8
0
100
AcDbBlockEnd
  0
BLOCK
  5
24BFD
330
24BFC
100
AcDbEntity
  8
0
100
AcDbBlockBegin
  2
*D46
 70
     1
 10
0.0
 20
0.0
 30
0.0
  3
*D46
  1

  0
LINE
  5
24C71
330
24BFC
100
AcDbEntity
  8
003
 62
     4
370
    20
100
AcDbLine
 10
564.9525842401181
 20
417.5287087897037
 30
0.0
 11
564.9525842401181
 21
393.8809083129165
 31
0.0
  0
LINE
  5
24C72
330
24BFC
100
AcDbEntity
  8
003
 62
     4
370
    20
100
AcDbLine
 10
656.462636716727
 20
417.5287087897035
 30
0.0
 11
656.462636716727
 21
393.8809083129165
 31
0.0
  0
LINE
  5
24C73
330
24BFC
100
AcDbEntity
  8
003
 62
     4
370
    20
100
AcDbLine
 10
567.952584240118
 20
395.8809083129165
 30
0.0
 11
653.462636716727
 21
395.8809083129165
 31
0.0
  0
INSERT
  5
24C74
330
24BFC
100
AcDbEntity
  8
003
 62
     4
370
    20
100
AcDbBlockReference
  2
_Open30
 10
564.9525842401181
 20
395.8809083129165
 30
0.0
 41
3.0
 42
3.0
 43
3.0
 50
180.0
  0
INSERT
  5
24C75
330
24BFC
100
AcDbEntity
  8
003
 62
     4
370
    20
100
AcDbBlockReference
  2
_Open30
 10
656.462636716727
 20
395.8809083129165
 30
0.0
 41
3.0
 42
3.0
 43
3.0
  0
MTEXT
  5
24C76
330
24BFC
100
AcDbEntity
  8
003
 62
     7
100
AcDbMText
 10
610.7076104784225
 20
400.8809083129165
 30
0.0
 40
6.0
 41
0.0
 71
     5
 72
     1
  1
製品W
  7
DIM
 73
     1
 44
1.0
1001
ACAD
1000
MTEXTBEGIN
1070
    73
1070
     1
1070
    44
1040
1.0
1070
    74
1070
     0
1000
MTEXTEND
1000
ACAD_MTEXT_BBRT
1070
    91
1071
        3
1070
    46
1040
1.25
1070
    64
1071
-1027028792
1070
    65
1000

1070
    66
1000

1070
   442
1071
     3492
1000
ACAD_MTEXT_BERT
  0
POINT
  5
24C77
330
24BFC
100
AcDbEntity
  8
Defpoints
 62
     0
100
AcDbPoint
 10
564.9525842401181
 20
420.5287087897037
 30
0.0
  0
POINT
  5
24C78
330
24BFC
100
AcDbEntity
  8
Defpoints
 62
     0
100
AcDbPoint
 10
656.462636716727
 20
420.5287087897035
 30
0.0
  0
POINT
  5
24C79
330
24BFC
100
AcDbEntity
  8
Defpoints
 62
     0
100
AcDbPoint
 10
656.462636716727
 20
395.8809083129165
 30
0.0
  0
ENDBLK
  5
24BFE
330
24BFC
100
AcDbEntity
  8
0
100
AcDbBlockEnd
  0
BLOCK
  5
24C09
330
24C08
100
AcDbEntity
  8
0
100
AcDbBlockBegin
  2
*D47
 70
     1
 10
0.0
 20
0.0
 30
0.0
  3
*D47
  1

  0
LINE
  5
24C7A
330
24C08
100
AcDbEntity
  8
003
 62
     4
370
    20
100
AcDbLine
 10
545.2829835638965
 20
279.9456778424929
 30
0.0
 11
545.2829835638965
 21
296.3949215687479
 31
0.0
  0
LINE
  5
24C7B
330
24C08
100
AcDbEntity
  8
003
 62
     4
370
    20
100
AcDbLine
 10
575.2829835638965
 20
269.9456778424929
 30
0.0
 11
575.2829835638965
 21
296.3949215687479
 31
0.0
  0
LINE
  5
24C7C
330
24C08
100
AcDbEntity
  8
003
 62
     4
370
    20
100
AcDbLine
 10
548.2829835638965
 20
294.3949215687479
 30
0.0
 11
572.2829835638965
 21
294.3949215687479
 31
0.0
  0
INSERT
  5
24C7D
330
24C08
100
AcDbEntity
  8
003
 62
     4
370
    20
100
AcDbBlockReference
  2
_Open30
 10
545.2829835638965
 20
294.3949215687479
 30
0.0
 41
3.0
 42
3.0
 43
3.0
 50
180.0
  0
INSERT
  5
24C7E
330
24C08
100
AcDbEntity
  8
003
 62
     4
370
    20
100
AcDbBlockReference
  2
_Open30
 10
575.2829835638965
 20
294.3949215687479
 30
0.0
 41
3.0
 42
3.0
 43
3.0
  0
MTEXT
  5
24C7F
330
24C08
100
AcDbEntity
  8
003
 62
     7
100
AcDbMText
 10
560.2829835638965
 20
299.3949215687479
 30
0.0
 40
6.0
 41
0.0
 71
     5
 72
     1
  1
30
  7
DIM
 73
     1
 44
1.0
1001
ACAD
1000
MTEXTBEGIN
1070
    73
1070
     1
1070
    44
1040
1.0
1070
    74
1070
     0
1000
MTEXTEND
1000
ACAD_MTEXT_BBRT
1070
    91
1071
        3
1070
    46
1040
1.25
1070
    64
1071
-1027028792
1070
    65
1000

1070
    66
1000

1070
   442
1071
     3502
1000
ACAD_MTEXT_BERT
  0
POINT
  5
24C80
330
24C08
100
AcDbEntity
  8
Defpoints
 62
     0
100
AcDbPoint
 10
545.2829835638965
 20
276.9456778424928
 30
0.0
  0
POINT
  5
24C81
330
24C08
100
AcDbEntity
  8
Defpoints
 62
     0
100
AcDbPoint
 10
575.2829835638965
 20
266.9456778424928
 30
0.0
  0
POINT
  5
24C82
330
24C08
100
AcDbEntity
  8
Defpoints
 62
     0
100
AcDbPoint
 10
575.2829835638965
 20
294.3949215687479
 30
0.0
  0
ENDBLK
  5
24C0A
330
24C08
100
AcDbEntity
  8
0
100
AcDbBlockEnd
  0
BLOCK
  5
24C15
330
24C14
100
AcDbEntity
  8
0
100
AcDbBlockBegin
  2
*D48
 70
     1
 10
0.0
 20
0.0
 30
0.0
  3
*D48
  1

  0
LINE
  5
24C83
330
24C14
100
AcDbEntity
  8
0
 62
     4
370
    20
100
AcDbLine
 10
429.4327015638968
 20
143.9456778424932
 30
0.0
 11
484.2846394199674
 21
143.9456778424931
 31
0.0
  0
LINE
  5
24C84
330
24C14
100
AcDbEntity
  8
0
 62
     4
370
    20
100
AcDbLine
 10
572.2829835638965
 20
213.9456778424929
 30
0.0
 11
480.2846394199674
 21
213.9456778424929
 31
0.0
  0
LINE
  5
24C85
330
24C14
100
AcDbEntity
  8
0
 62
     4
370
    20
100
AcDbLine
 10
482.2846394199674
 20
146.9456778424931
 30
0.0
 11
482.2846394199674
 21
210.945677842493
 31
0.0
  0
INSERT
  5
24C86
330
24C14
100
AcDbEntity
  8
0
 62
     4
370
    20
100
AcDbBlockReference
  2
_Open30
 10
482.2846394199674
 20
143.9456778424931
 30
0.0
 41
3.0
 42
3.0
 43
3.0
 50
270.0
  0
INSERT
  5
24C87
330
24C14
100
AcDbEntity
  8
0
 62
     4
370
    20
100
AcDbBlockReference
  2
_Open30
 10
482.2846394199674
 20
213.9456778424929
 30
0.0
 41
3.0
 42
3.0
 43
3.0
 50
90.0
  0
MTEXT
  5
24C88
330
24C14
100
AcDbEntity
  8
0
 62
     7
100
AcDbMText
 10
477.2846394199674
 20
178.9456778424931
 30
0.0
 40
6.0
 41
0.0
 71
     5
 72
     1
  1
70
  7
DIM
 11
0.0000000000000001
 21
1.0
 31
0.0
 73
     1
 44
1.0
1001
ACAD
1000
MTEXTBEGIN
1070
    73
1070
     1
1070
    44
1040
1.0
1070
    74
1070
     0
1000
MTEXTEND
1000
ACAD_MTEXT_BBRT
1070
    91
1071
        3
1070
    46
1040
1.25
1070
    64
1071
-1027028792
1070
    65
1000

1070
    66
1000

1070
   442
1071
     3517
1000
ACAD_MTEXT_BERT
  0
POINT
  5
24C89
330
24C14
100
AcDbEntity
  8
Defpoints
 62
     0
100
AcDbPoint
 10
426.4327015638968
 20
143.9456778424932
 30
0.0
  0
POINT
  5
24C8A
330
24C14
100
AcDbEntity
  8
Defpoints
 62
     0
100
AcDbPoint
 10
575.2829835638965
 20
213.9456778424929
 30
0.0
  0
POINT
  5
24C8B
330
24C14
100
AcDbEntity
  8
Defpoints
 62
     0
100
AcDbPoint
 10
482.2846394199674
 20
213.9456778424929
 30
0.0
  0
ENDBLK
  5
24C16
330
24C14
100
AcDbEntity
  8
0
100
AcDbBlockEnd
  0
BLOCK
  5
24C21
330
24C20
100
AcDbEntity
  8
0
100
AcDbBlockBegin
  2
*D49
 70
     1
 10
0.0
 20
0.0
 30
0.0
  3
*D49
  1

  0
LINE
  5
24C8C
330
24C20
100
AcDbEntity
  8
0
 62
     4
370
    20
100
AcDbLine
 10
572.2829835638965
 20
213.9456778424929
 30
0.0
 11
480.2846394199674
 21
213.9456778424929
 31
0.0
  0
LINE
  5
24C8D
330
24C20
100
AcDbEntity
  8
0
 62
     4
370
    20
100
AcDbLine
 10
542.2829835638965
 20
276.9456778424928
 30
0.0
 11
480.2846394199674
 21
276.9456778424928
 31
0.0
  0
LINE
  5
24C8E
330
24C20
100
AcDbEntity
  8
0
 62
     4
370
    20
100
AcDbLine
 10
482.2846394199674
 20
216.945677842493
 30
0.0
 11
482.2846394199674
 21
273.9456778424929
 31
0.0
  0
INSERT
  5
24C8F
330
24C20
100
AcDbEntity
  8
0
 62
     4
370
    20
100
AcDbBlockReference
  2
_Open30
 10
482.2846394199674
 20
213.9456778424929
 30
0.0
 41
3.0
 42
3.0
 43
3.0
 50
270.0
  0
INSERT
  5
24C90
330
24C20
100
AcDbEntity
  8
0
 62
     4
370
    20
100
AcDbBlockReference
  2
_Open30
 10
482.2846394199674
 20
276.9456778424928
 30
0.0
 41
3.0
 42
3.0
 43
3.0
 50
90.0
  0
MTEXT
  5
24C91
330
24C20
100
AcDbEntity
  8
0
 62
     7
100
AcDbMText
 10
477.2846394199674
 20
245.445677842493
 30
0.0
 40
6.0
 41
0.0
 71
     5
 72
     1
  1
63
  7
DIM
 11
0.0000000000000001
 21
1.0
 31
0.0
 73
     1
 44
1.0
1001
ACAD
1000
MTEXTBEGIN
1070
    73
1070
     1
1070
    44
1040
1.0
1070
    74
1070
     0
1000
MTEXTEND
1000
ACAD_MTEXT_BBRT
1070
    91
1071
        3
1070
    46
1040
1.25
1070
    64
1071
-1027028792
1070
    65
1000

1070
    66
1000

1070
   442
1071
     3522
1000
ACAD_MTEXT_BERT
  0
POINT
  5
24C92
330
24C20
100
AcDbEntity
  8
Defpoints
 62
     0
100
AcDbPoint
 10
575.2829835638965
 20
213.9456778424929
 30
0.0
  0
POINT
  5
24C93
330
24C20
100
AcDbEntity
  8
Defpoints
 62
     0
100
AcDbPoint
 10
545.2829835638965
 20
276.9456778424928
 30
0.0
  0
POINT
  5
24C94
330
24C20
100
AcDbEntity
  8
Defpoints
 62
     0
100
AcDbPoint
 10
482.2846394199674
 20
276.9456778424928
 30
0.0
  0
ENDBLK
  5
24C22
330
24C20
100
AcDbEntity
  8
0
100
AcDbBlockEnd
  0
BLOCK
  5
24C2D
330
24C2C
100
AcDbEntity
  8
0
100
AcDbBlockBegin
  2
*D50
 70
     1
 10
0.0
 20
0.0
 30
0.0
  3
*D50
  1

  0
LINE
  5
24C95
330
24C2C
100
AcDbEntity
  8
003
 62
     4
370
    20
100
AcDbLine
 10
271.2827015638885
 20
140.9457637344612
 30
0.0
 11
271.2827015638885
 21
125.4490602072778
 31
0.0
  0
LINE
  5
24C96
330
24C2C
100
AcDbEntity
  8
003
 62
     4
370
    20
100
AcDbLine
 10
292.2827015638965
 20
205.0456778424928
 30
0.0
 11
292.2827015638965
 21
125.4490602072778
 31
0.0
  0
LINE
  5
24C97
330
24C2C
100
AcDbEntity
  8
003
 62
     4
370
    20
100
AcDbLine
 10
274.2827015638885
 20
127.4490602072778
 30
0.0
 11
289.2827015638965
 21
127.4490602072778
 31
0.0
  0
INSERT
  5
24C98
330
24C2C
100
AcDbEntity
  8
003
 62
     4
370
    20
100
AcDbBlockReference
  2
_Open30
 10
271.2827015638885
 20
127.4490602072778
 30
0.0
 41
3.0
 42
3.0
 43
3.0
 50
180.0
  0
INSERT
  5
24C99
330
24C2C
100
AcDbEntity
  8
003
 62
     4
370
    20
100
AcDbBlockReference
  2
_Open30
 10
292.2827015638965
 20
127.4490602072778
 30
0.0
 41
3.0
 42
3.0
 43
3.0
  0
MTEXT
  5
24C9A
330
24C2C
100
AcDbEntity
  8
003
 62
     7
100
AcDbMText
 10
281.7827015638925
 20
132.4490602072778
 30
0.0
 40
6.0
 41
0.0
 71
     5
 72
     1
  1
21
  7
DIM
 73
     1
 44
1.0
1001
ACAD
1000
MTEXTBEGIN
1070
    73
1070
     1
1070
    44
1040
1.0
1070
    74
1070
     0
1000
MTEXTEND
1000
ACAD_MTEXT_BBRT
1070
    91
1071
        3
1070
    46
1040
1.25
1070
    64
1071
-1027028792
1070
    65
1000

1070
    66
1000

1070
   442
1071
  3345858
1000
ACAD_MTEXT_BERT
  0
POINT
  5
24C9B
330
24C2C
100
AcDbEntity
  8
Defpoints
 62
     0
100
AcDbPoint
 10
271.2827015638885
 20
143.9457637344612
 30
0.0
  0
POINT
  5
24C9C
330
24C2C
100
AcDbEntity
  8
Defpoints
 62
     0
100
AcDbPoint
 10
292.2827015638965
 20
208.0456778424927
 30
0.0
  0
POINT
  5
24C9D
330
24C2C
100
AcDbEntity
  8
Defpoints
 62
     0
100
AcDbPoint
 10
292.2827015638965
 20
127.4490602072778
 30
0.0
  0
ENDBLK
  5
24C2E
330
24C2C
100
AcDbEntity
  8
0
100
AcDbBlockEnd
  0
BLOCK
  5
24C39
330
24C38
100
AcDbEntity
  8
0
100
AcDbBlockBegin
  2
*D51
 70
     1
 10
0.0
 20
0.0
 30
0.0
  3
*D51
  1

  0
LINE
  5
24C9E
330
24C38
100
AcDbEntity
  8
003
 62
     4
370
    20
100
AcDbLine
 10
576.2829835638885
 20
140.9457637344612
 30
0.0
 11
576.2829835638885
 21
125.4490602072778
 31
0.0
  0
LINE
  5
24C9F
330
24C38
100
AcDbEntity
  8
003
 62
     4
370
    20
100
AcDbLine
 10
555.2829835638964
 20
205.0456778424929
 30
0.0
 11
555.2829835638964
 21
125.4490602072778
 31
0.0
  0
LINE
  5
24CA0
330
24C38
100
AcDbEntity
  8
003
 62
     4
370
    20
100
AcDbLine
 10
573.2829835638884
 20
127.4490602072778
 30
0.0
 11
558.2829835638964
 21
127.4490602072778
 31
0.0
  0
INSERT
  5
24CA1
330
24C38
100
AcDbEntity
  8
003
 62
     4
370
    20
100
AcDbBlockReference
  2
_Open30
 10
576.2829835638885
 20
127.4490602072778
 30
0.0
 41
3.0
 42
3.0
 43
3.0
  0
INSERT
  5
24CA2
330
24C38
100
AcDbEntity
  8
003
 62
     4
370
    20
100
AcDbBlockReference
  2
_Open30
 10
555.2829835638964
 20
127.4490602072778
 30
0.0
 41
3.0
 42
3.0
 43
3.0
 50
180.0
  0
MTEXT
  5
24CA3
330
24C38
100
AcDbEntity
  8
003
 62
     7
100
AcDbMText
 10
565.7829835638924
 20
132.4490602072778
 30
0.0
 40
6.0
 41
0.0
 71
     5
 72
     1
  1
21
  7
DIM
 73
     1
 44
1.0
1001
ACAD
1000
MTEXTBEGIN
1070
    73
1070
     1
1070
    44
1040
1.0
1070
    74
1070
     0
1000
MTEXTEND
1000
ACAD_MTEXT_BBRT
1070
    91
1071
        3
1070
    46
1040
1.25
1070
    64
1071
-1027028792
1070
    65
1000

1070
    66
1000

1070
   442
1071
     3527
1000
ACAD_MTEXT_BERT
  0
POINT
  5
24CA4
330
24C38
100
AcDbEntity
  8
Defpoints
 62
     0
100
AcDbPoint
 10
576.2829835638885
 20
143.9457637344612
 30
0.0
  0
POINT
  5
24CA5
330
24C38
100
AcDbEntity
  8
Defpoints
 62
     0
100
AcDbPoint
 10
555.2829835638964
 20
208.0456778424929
 30
0.0
  0
POINT
  5
24CA6
330
24C38
100
AcDbEntity
  8
Defpoints
 62
     0
100
AcDbPoint
 10
555.2829835638964
 20
127.4490602072778
 30
0.0
  0
ENDBLK
  5
24C3A
330
24C38
100
AcDbEntity
  8
0
100
AcDbBlockEnd
  0
ENDSEC
  0
SECTION
  2
ENTITIES
  0
POINT
  5
F7F2
330
1F
100
AcDbEntity
  8
0
100
AcDbPoint
 10
20.0000000000001
 20
558.0
 30
0.0
  0
POINT
  5
F806
330
1F
100
AcDbEntity
  8
0
100
AcDbPoint
 10
809.9999999999996
 20
21.0
 30
0.0
  0
TEXT
  5
1270A
330
1F
100
AcDbEntity
  8
0
100
AcDbText
 10
40.45819394134241
 20
30.38714182789863
 30
0.0
 40
4.0
  1
12.02.01　作成
  7
AT_VECTOR
 11
40.45819394134241
 21
30.38714182789863
 31
0.0
100
AcDbText
 73
     1
  0
LINE
  5
127E9
330
1F
100
AcDbEntity
  8
YKK_ZWAK
  6
Continuous
 62
   254
100
AcDbLine
 10
40.0
 20
36.00000000000012
 30
0.0
 11
741.5835985999996
 21
36.00000000000012
 31
0.0
  0
LINE
  5
127EA
330
1F
100
AcDbEntity
  8
YKK_ZWAK
  6
Continuous
 62
   131
100
AcDbLine
 10
266.9835873999997
 20
52.80070140000032
 30
0.0
 11
395.7835901999997
 21
52.80070140000032
 31
0.0
  0
LINE
  5
127EB
330
1F
100
AcDbEntity
  8
YKK_ZWAK
  6
Continuous
 62
   254
100
AcDbLine
 10
779.3835999999993
 20
72.40000140000041
 30
0.0
 11
40.0
 21
72.40000140000041
 31
0.0
  0
LINE
  5
127EC
330
1F
100
AcDbEntity
  8
YKK_ZWAK
  6
Continuous
 62
   254
100
AcDbLine
 10
741.5835985999996
 20
71.00000140000031
 30
0.0
 11
40.0
 21
71.00000140000031
 31
0.0
  0
LINE
  5
127ED
330
1F
100
AcDbEntity
  8
YKK_ZWAK
  6
Continuous
 62
   254
100
AcDbLine
 10
779.3835999999994
 20
558.0
 30
0.0
 11
40.00000000000011
 21
558.0
 31
0.0
  0
LINE
  5
127EE
330
1F
100
AcDbEntity
  8
YKK_ZWAK
  6
Continuous
 62
   254
100
AcDbLine
 10
40.0
 20
72.40000140000041
 30
0.0
 11
40.00000000000011
 21
558.0
 31
0.0
  0
LINE
  5
127EF
330
1F
100
AcDbEntity
  8
YKK_ZWAK
  6
HIDDEN
 62
   131
100
AcDbLine
 10
44.59865000000002
 20
42.70180000000016
 30
0.0
 11
262.1745873999998
 21
42.70180000000038
 31
0.0
  0
LINE
  5
127F0
330
1F
100
AcDbEntity
  8
YKK_ZWAK
  6
HIDDEN
 62
   131
100
AcDbLine
 10
44.59865000000002
 20
49.63040000000012
 30
0.0
 11
262.1745873999998
 21
49.63040000000034
 31
0.0
  0
LINE
  5
127F1
330
1F
100
AcDbEntity
  8
YKK_ZWAK
  6
HIDDEN
 62
   131
100
AcDbLine
 10
44.59865000000002
 20
56.55900140000028
 30
0.0
 11
262.1745873999998
 21
56.55900140000028
 31
0.0
  0
LINE
  5
127F2
330
1F
100
AcDbEntity
  8
YKK_ZWAK
  6
HIDDEN
 62
   131
100
AcDbLine
 10
44.59865000000002
 20
63.48760140000024
 30
0.0
 11
262.1745873999998
 21
63.48760140000024
 31
0.0
  0
LINE
  5
127F3
330
1F
100
AcDbEntity
  8
YKK_ZWAK
  6
Continuous
 62
   254
100
AcDbLine
 10
40.0
 20
36.00000000000012
 30
0.0
 11
40.0
 21
71.00000140000031
 31
0.0
  0
TEXT
  5
127F4
330
1F
100
AcDbEntity
  8
YKK_ZWAK
  6
Continuous
 62
   131
100
AcDbText
 10
44.71447200000016
 20
64.55348160000028
 30
0.0
 40
4.199999999999999
  1
変 更 記 事
 41
0.9
  7
YKK_OSSTYLE1
100
AcDbText
  0
TEXT
  5
127F5
330
1F
100
AcDbEntity
  8
YKK_ZWAK
  6
Continuous
 62
   254
100
AcDbText
 10
385.9018063999998
 20
37.5205188207384
 30
0.0
 40
7.0
  1
殿
 41
0.9
  7
YKK_OSSTYLE1
100
AcDbText
  0
LINE
  5
127F6
330
1F
100
AcDbEntity
  8
YKK_ZWAK
  6
Continuous
 62
   254
100
AcDbLine
 10
394.3835901999997
 20
71.00000140000031
 30
0.0
 11
394.3835901999997
 21
36.00000000000012
 31
0.0
  0
LINE
  5
127F7
330
1F
100
AcDbEntity
  8
YKK_ZWAK
  6
Continuous
 62
   254
100
AcDbLine
 10
266.9835873999997
 20
71.00000140000031
 30
0.0
 11
266.9835873999997
 21
36.00000000000012
 31
0.0
  0
TEXT
  5
127F8
330
1F
100
AcDbEntity
  8
YKK_ZWAK
  6
Continuous
 62
   131
100
AcDbText
 10
270.7528493999998
 20
48.14570140000035
 30
0.0
 40
4.199999999999999
  1
施　　工
 41
0.9
  7
YKK_OSSTYLE1
100
AcDbText
  0
TEXT
  5
127F9
330
1F
100
AcDbEntity
  8
YKK_ZWAK
  6
Continuous
 62
   131
100
AcDbText
 10
270.7528493999998
 20
65.46720420000031
 30
0.0
 40
4.199999999999999
  1
設計監理
 41
0.9
  7
YKK_OSSTYLE1
100
AcDbText
  0
TEXT
  5
127FA
330
1F
100
AcDbEntity
  8
YKK_ZWAK
  6
Continuous
 62
   254
100
AcDbText
 10
385.9018063999998
 20
54.84202022073862
 30
0.0
 40
7.0
  1
殿
 41
0.9
  7
YKK_OSSTYLE1
100
AcDbText
  0
LINE
  5
127FD
330
1F
100
AcDbEntity
  8
YKK_ZWAK
  6
Continuous
 62
   254
100
AcDbLine
 10
779.3835999999994
 20
558.0
 30
0.0
 11
779.3835999999993
 21
72.40000140000041
 31
0.0
  0
LINE
  5
127FE
330
1F
100
AcDbEntity
  8
YKK_ZWAK
  6
Continuous
 62
   254
100
AcDbLine
 10
612.7835957999995
 20
45.80000000000029
 30
0.0
 11
713.5832485999998
 21
45.80000000000029
 31
0.0
  0
LINE
  5
127FF
330
1F
100
AcDbEntity
  8
YKK_ZWAK
  6
Continuous
 62
   131
100
AcDbLine
 10
592.7677957999999
 20
64.00070140000036
 30
0.0
 11
524.5835943999995
 21
64.00070140000036
 31
0.0
  0
LINE
  5
12800
330
1F
100
AcDbEntity
  8
YKK_ZWAK
  6
Continuous
 62
   254
100
AcDbLine
 10
524.5835943999995
 20
71.00000140000031
 30
0.0
 11
524.5835943999995
 21
36.00000000000012
 31
0.0
  0
LINE
  5
12801
330
1F
100
AcDbEntity
  8
YKK_ZWAK
  6
Continuous
 62
   131
100
AcDbLine
 10
395.7835901999997
 20
52.80070140000032
 30
0.0
 11
524.5835943999995
 21
52.80070140000032
 31
0.0
  0
TEXT
  5
12802
330
1F
100
AcDbEntity
  8
YKK_ZWAK
  6
Continuous
 62
   131
100
AcDbText
 10
398.0008780425182
 20
47.85170280000023
 30
0.0
 40
4.199999999999999
  1
図面内容
 41
0.9
  7
YKK_OSSTYLE1
100
AcDbText
  0
TEXT
  5
12803
330
1F
100
AcDbEntity
  8
YKK_ZWAK
  6
Continuous
 62
   131
100
AcDbText
 10
398.3958123999997
 20
65.46720420000031
 30
0.0
 40
4.199999999999999
  1
工 事 名
 41
0.9
  7
YKK_OSSTYLE1
100
AcDbText
  0
TEXT
  5
12804
330
1F
100
AcDbEntity
  8
YKK_ZWAK
  6
Continuous
 62
   254
100
AcDbText
 10
508.0150028640185
 20
54.77075850212634
 30
0.0
 40
7.0
  1
工事
 41
0.9
  7
YKK_OSSTYLE1
100
AcDbText
  0
LINE
  5
12805
330
1F
100
AcDbEntity
  8
YKK_ZWAK
  6
Continuous
 62
   254
100
AcDbLine
 10
612.7835957999995
 20
71.00000140000031
 30
0.0
 11
612.7835957999995
 21
36.00000000000012
 31
0.0
  0
LINE
  5
12806
330
1F
100
AcDbEntity
  8
YKK_ZWAK
  6
Continuous
 62
   254
100
AcDbLine
 10
591.7835957999995
 20
71.00000140000031
 30
0.0
 11
591.7835957999995
 21
36.00000000000012
 31
0.0
  0
LINE
  5
12807
330
1F
100
AcDbEntity
  8
YKK_ZWAK
  6
Continuous
 62
   131
100
AcDbLine
 10
600.2558245999996
 20
37.65496380000025
 30
0.0
 11
609.7796997999994
 21
47.17883760000029
 31
0.0
  0
LINE
  5
12808
330
1F
100
AcDbEntity
  8
YKK_ZWAK
  6
Continuous
 62
   131
100
AcDbLine
 10
569.3835943999995
 20
71.00000140000031
 30
0.0
 11
569.3835943999995
 21
36.00000000000012
 31
0.0
  0
LINE
  5
12809
330
1F
100
AcDbEntity
  8
YKK_ZWAK
  6
Continuous
 62
   131
100
AcDbLine
 10
546.9835943999994
 20
71.00000140000031
 30
0.0
 11
546.9835943999994
 21
36.00000000000012
 31
0.0
  0
TEXT
  5
1280A
330
1F
100
AcDbEntity
  8
YKK_ZWAK
  6
Continuous
 62
   131
100
AcDbText
 10
529.0385113564176
 20
37.05395500000043
 30
0.0
 40
4.899999999999999
  1
 ． ．
 41
0.9
  7
YKK_OSSTYLE1
100
AcDbText
  0
LINE
  5
1280B
330
1F
100
AcDbEntity
  8
YKK_ZWAK
  6
Continuous
 62
   131
100
AcDbLine
 10
617.8235784399998
 20
38.10000000000025
 30
0.0
 11
617.8235784399998
 21
36.00000000000012
 31
0.0
  0
TEXT
  5
1280C
330
1F
100
AcDbEntity
  8
YKK_ZWAK
  6
Continuous
 62
   131
100
AcDbText
 10
550.938089142928
 20
65.21975000000032
 30
0.0
 40
4.199999999999999
  1
担  当
 41
0.9
  7
YKK_OSSTYLE1
100
AcDbText
  0
TEXT
  5
1280D
330
1F
100
AcDbEntity
  8
YKK_ZWAK
  6
Continuous
 62
   131
100
AcDbText
 10
529.572708742928
 20
65.21975000000032
 30
0.0
 40
4.199999999999999
  1
照  査
 41
0.9
  7
YKK_OSSTYLE1
100
AcDbText
  0
TEXT
  5
1280E
330
1F
100
AcDbEntity
  8
YKK_ZWAK
  6
Continuous
 62
   131
100
AcDbText
 10
573.7035563429278
 20
65.23795140000027
 30
0.0
 40
4.199999999999999
  1
作  図
 41
0.9
  7
YKK_OSSTYLE1
100
AcDbText
  0
TEXT
  5
1280F
330
1F
100
AcDbEntity
  8
YKK_ZWAK
  6
Continuous
 62
   131
100
AcDbText
 10
615.4507133999995
 20
65.46720140000036
 30
0.0
 40
4.199999999999999
  1
御承認印
 41
0.9
  7
YKK_OSSTYLE1
100
AcDbText
  0
LINE
  5
12810
330
1F
100
AcDbEntity
  8
YKK_ZWAK
  6
Continuous
 62
   131
100
AcDbLine
 10
592.7677957999999
 20
64.00070140000036
 30
0.0
 11
612.7835957999995
 21
64.00070140000036
 31
0.0
  0
LINE
  5
12811
330
1F
100
AcDbEntity
  8
YKK_ZWAK
  6
Continuous
 62
   131
100
AcDbLine
 10
594.9537445999997
 20
53.26383680000038
 30
0.0
 11
604.6471261999995
 21
62.95721840000021
 31
0.0
  0
TEXT
  5
12812
330
1F
100
AcDbEntity
  8
YKK_ZWAK
  6
Continuous
 62
   131
100
AcDbText
 10
595.2958557429281
 20
65.46294820000014
 30
0.0
 40
4.199999999999999
  1
尺  度
 41
0.9
  7
YKK_OSSTYLE1
100
AcDbText
  0
CIRCLE
  5
12813
330
1F
100
AcDbEntity
  8
YKK_ZWAK
  6
Continuous
 62
     8
100
AcDbCircle
 10
791.1799999999997
 20
140.6080028000002
 30
0.0
 40
8.819999999999998
  0
LINE
  5
12814
330
1F
100
AcDbEntity
  8
YKK_ZWAK
  6
Continuous
 62
     8
100
AcDbLine
 10
782.3599999999998
 20
120.8120028000002
 30
0.0
 11
799.9999999999996
 21
120.8120028000002
 31
0.0
  0
LINE
  5
12815
330
1F
100
AcDbEntity
  8
YKK_ZWAK
  6
Continuous
 62
     8
100
AcDbLine
 10
782.3599999999998
 20
101.0160014000004
 30
0.0
 11
799.9999999999996
 21
101.0160014000004
 31
0.0
  0
CIRCLE
  5
12816
330
1F
100
AcDbEntity
  8
YKK_ZWAK
  6
Continuous
 62
     8
100
AcDbCircle
 10
791.1799999999997
 20
120.8120028000002
 30
0.0
 40
8.819999999999998
  0
CIRCLE
  5
12817
330
1F
100
AcDbEntity
  8
YKK_ZWAK
  6
Continuous
 62
     8
100
AcDbCircle
 10
791.1799999999997
 20
101.0160014000004
 30
0.0
 40
8.819999999999998
  0
LINE
  5
12818
330
1F
100
AcDbEntity
  8
YKK_ZWAK
  6
Continuous
 62
     8
100
AcDbLine
 10
782.3599999999998
 20
81.22000140000011
 30
0.0
 11
799.9999999999996
 21
81.22000140000011
 31
0.0
  0
CIRCLE
  5
12819
330
1F
100
AcDbEntity
  8
YKK_ZWAK
  6
Continuous
 62
     8
100
AcDbCircle
 10
791.1799999999997
 20
81.22000140000011
 30
0.0
 40
8.819999999999998
  0
LINE
  5
1281A
330
1F
100
AcDbEntity
  8
YKK_ZWAK
  6
Continuous
 62
   254
100
AcDbLine
 10
741.5835985999996
 20
71.00000140000031
 30
0.0
 11
741.5835985999996
 21
36.00000000000012
 31
0.0
  0
LINE
  5
1281B
330
1F
100
AcDbEntity
  8
YKK_ZWAK
  6
Continuous
 62
   254
100
AcDbLine
 10
713.5832485999996
 20
71.00000140000031
 30
0.0
 11
713.5832485999996
 21
36.00000000000012
 31
0.0
  0
ARC
  5
1281C
330
1F
100
AcDbEntity
  8
YKK_ZWAK
  6
Continuous
 62
   254
100
AcDbCircle
 10
774.1185096151524
 20
46.25489935034204
 30
0.0
 40
4.291374954660761
100
AcDbArc
 50
285.4429145291092
 51
349.9044812349556
  0
ARC
  5
1281D
330
1F
100
AcDbEntity
  8
YKK_ZWAK
  6
Continuous
 62
   254
100
AcDbCircle
 10
755.0324199971438
 20
42.60518138328836
 30
0.0
 40
11.08246594050609
100
AcDbArc
 50
168.7637177031448
 51
199.8007915269911
  0
ARC
  5
1281E
330
1F
100
AcDbEntity
  8
YKK_ZWAK
  6
Continuous
 62
   254
100
AcDbCircle
 10
751.1657775921399
 20
42.67194135901092
 30
0.0
 40
2.368496244058475
100
AcDbArc
 50
171.0820302641947
 51
216.7192279251603
  0
LINE
  5
1281F
330
1F
100
AcDbEntity
  8
YKK_ZWAK
  6
Continuous
 62
   254
100
AcDbLine
 10
767.6389061999993
 20
36.7936334000002
 30
0.0
 11
767.6389061999993
 21
51.7409686000002
 31
0.0
  0
LINE
  5
12820
330
1F
100
AcDbEntity
  8
YKK_ZWAK
  6
Continuous
 62
   254
100
AcDbLine
 10
762.6113955999995
 20
55.90359700000011
 30
0.0
 11
762.6113955999995
 21
36.7936334000002
 31
0.0
  0
LINE
  5
12821
330
1F
100
AcDbEntity
  8
YKK_ZWAK
  6
Continuous
 62
   254
100
AcDbLine
 10
760.5030865999993
 20
51.41660820000026
 30
0.0
 11
760.5030865999993
 21
36.82063240000037
 31
0.0
  0
LINE
  5
12822
330
1F
100
AcDbEntity
  8
YKK_ZWAK
  6
Continuous
 62
   254
100
AcDbLine
 10
755.6107305999995
 20
40.92913680000026
 30
0.0
 11
755.6107305999995
 21
50.65982980000024
 31
0.0
  0
LINE
  5
12823
330
1F
100
AcDbEntity
  8
YKK_ZWAK
  6
Continuous
 62
   254
100
AcDbLine
 10
760.1787303999993
 20
36.76657280000029
 30
0.0
 11
749.1506391999995
 21
36.73951080000018
 31
0.0
  0
LINE
  5
12824
330
1F
100
AcDbEntity
  8
YKK_ZWAK
  6
Continuous
 62
   254
100
AcDbLine
 10
749.9885503999993
 20
40.92913680000026
 30
0.0
 11
755.6107305999995
 21
40.92913680000026
 31
0.0
  0
ARC
  5
12825
330
1F
100
AcDbEntity
  8
YKK_ZWAK
  6
Continuous
 62
   254
100
AcDbCircle
 10
748.0236827759166
 20
40.5574926410726
 30
0.0
 40
3.822905774762699
100
AcDbArc
 50
207.3143541467588
 51
263.5946407474016
  0
ARC
  5
12826
330
1F
100
AcDbEntity
  8
YKK_ZWAK
  6
Continuous
 62
   254
100
AcDbCircle
 10
750.2336781667264
 20
42.43503977285047
 30
0.0
 40
1.52572188408749
100
AcDbArc
 50
230.9727955865909
 51
260.7549113263766
  0
LINE
  5
12827
330
1F
100
AcDbEntity
  8
YKK_ZWAK
  6
Continuous
 62
   254
100
AcDbLine
 10
749.1506391999995
 20
36.73951080000018
 30
0.0
 11
747.6640169999995
 21
36.73951080000018
 31
0.0
  0
LINE
  5
12828
330
1F
100
AcDbEntity
  8
YKK_ZWAK
  6
Continuous
 62
   254
100
AcDbLine
 10
760.5030865999993
 20
36.82063240000037
 30
0.0
 11
760.1787303999993
 21
36.76657280000029
 31
0.0
  0
LINE
  5
12829
330
1F
100
AcDbEntity
  8
YKK_ZWAK
  6
Continuous
 62
   254
100
AcDbLine
 10
755.1782383999994
 20
40.92913680000026
 30
0.0
 11
755.5296397999994
 21
40.92913680000026
 31
0.0
  0
LINE
  5
1282A
330
1F
100
AcDbEntity
  8
YKK_ZWAK
  6
Continuous
 62
   254
100
AcDbLine
 10
755.6107305999995
 20
40.93021760000022
 30
0.0
 11
755.6118099999995
 21
40.92913680000026
 31
0.0
  0
LINE
  5
1282B
330
1F
100
AcDbEntity
  8
YKK_ZWAK
  6
Continuous
 62
   254
100
AcDbLine
 10
766.8550391999998
 20
36.7936334000002
 30
0.0
 11
767.6389061999993
 21
36.7936334000002
 31
0.0
  0
LINE
  5
1282C
330
1F
100
AcDbEntity
  8
YKK_ZWAK
  6
Continuous
 62
   254
100
AcDbLine
 10
762.6113955999995
 20
36.7936334000002
 30
0.0
 11
766.8550391999998
 21
36.7936334000002
 31
0.0
  0
TEXT
  5
1282D
330
1F
100
AcDbEntity
  8
YKK_ZWAK
  6
Continuous
 62
   131
100
AcDbText
 10
719.7812535651284
 20
65.1378668178637
 30
0.0
 40
4.479999999999999
  1
図　番
 41
0.9
  7
YKK_OSSTYLE1
100
AcDbText
  0
TEXT
  5
1282E
330
1F
100
AcDbEntity
  8
YKK_ZWAK
  6
Continuous
 62
   131
100
AcDbText
 10
717.2623240538522
 20
46.91549063572745
 30
0.0
 40
4.479999999999999
  1
通し図番
 41
0.9
  7
YKK_OSSTYLE1
100
AcDbText
  0
LINE
  5
1282F
330
1F
100
AcDbEntity
  8
YKK_ZWAK
  6
Continuous
 62
   131
100
AcDbLine
 10
713.5832485999998
 20
64.00000140000031
 30
0.0
 11
741.5835985999996
 21
64.00000140000031
 31
0.0
  0
LINE
  5
12830
330
1F
100
AcDbEntity
  8
YKK_ZWAK
  6
Continuous
 62
   131
100
AcDbLine
 10
741.5835985999996
 20
45.80070000000034
 30
0.0
 11
713.5832485999998
 21
45.80070000000034
 31
0.0
  0
LINE
  5
12831
330
1F
100
AcDbEntity
  8
YKK_ZWAK
  6
Continuous
 62
   254
100
AcDbLine
 10
713.5832485999998
 20
52.80070140000032
 30
0.0
 11
741.5835985999996
 21
52.80070140000032
 31
0.0
  0
TEXT
  5
12832
330
1F
100
AcDbEntity
  8
YKK_ZWAK
  6
Continuous
 62
   131
100
AcDbText
 10
685.7599305487767
 20
46.83089352384388
 30
0.0
 40
3.959199999999999
  1
年   月   日
 41
0.9
  7
YKK_OSSTYLE1
100
AcDbText
  0
ARC
  5
12833
330
1F
100
AcDbEntity
  8
YKK_ZWAK
  6
Continuous
 62
   254
100
AcDbCircle
 10
751.1039154459985
 20
35.14607220780283
 30
0.0
 40
13.3089797551028
100
AcDbArc
 50
79.38097907998531
 51
112.0582515030162
  0
ARC
  5
12834
330
1F
100
AcDbEntity
  8
YKK_ZWAK
  6
Continuous
 62
   254
100
AcDbCircle
 10
752.8250225948842
 20
35.53689122258663
 30
0.0
 40
20.74827378314429
100
AcDbArc
 50
78.78009531611624
 51
91.46937906064943
  0
LINE
  5
12835
330
1F
100
AcDbEntity
  8
YKK_ZWAK
  6
Continuous
 62
   254
100
AcDbLine
 10
754.5295287999993
 20
51.79502960000025
 30
0.0
 11
750.8318357586659
 21
51.72506825574021
 31
0.0
  0
LINE
  5
12836
330
1F
100
AcDbEntity
  8
YKK_ZWAK
  6
Continuous
 62
   254
100
AcDbLine
 10
754.2592391999993
 20
44.47004200000026
 30
0.0
 11
750.2648305999993
 21
44.46541780000018
 31
0.0
  0
LINE
  5
12837
330
1F
100
AcDbEntity
  8
YKK_ZWAK
  6
Continuous
 62
   254
100
AcDbLine
 10
755.8456967999992
 20
70.20221000000026
 30
0.0
 11
751.3130189999996
 21
62.17444200000011
 31
0.0
  0
LINE
  5
12838
330
1F
100
AcDbEntity
  8
YKK_ZWAK
  6
Continuous
 62
   254
100
AcDbLine
 10
752.2196323999993
 20
70.20221000000026
 30
0.0
 11
755.8456967999992
 21
70.20221000000026
 31
0.0
  0
LINE
  5
12839
330
1F
100
AcDbEntity
  8
YKK_ZWAK
  6
Continuous
 62
   254
100
AcDbLine
 10
748.0153959999996
 20
62.20144100000027
 30
0.0
 11
743.4203509999996
 21
70.09415240000009
 31
0.0
  0
ARC
  5
1283A
330
1F
100
AcDbEntity
  8
YKK_ZWAK
  6
Continuous
 62
   254
100
AcDbCircle
 10
749.5428671603957
 20
51.83435215743305
 30
0.0
 40
5.037359110950339
100
AcDbArc
 50
158.4108324489182
 51
179.7177524498308
  0
ARC
  5
1283B
330
1F
100
AcDbEntity
  8
YKK_ZWAK
  6
Continuous
 62
   254
100
AcDbCircle
 10
748.0103468024275
 20
44.07254465782864
 30
0.0
 40
3.908086150713168
100
AcDbArc
 50
121.82711365127
 51
169.0847490152585
  0
LINE
  5
1283C
330
1F
100
AcDbEntity
  8
YKK_ZWAK
  6
Continuous
 62
   254
100
AcDbLine
 10
749.1506391999995
 20
49.92998740000041
 30
0.0
 11
744.5015527999995
 21
49.92998740000041
 31
0.0
  0
LINE
  5
1283D
330
1F
100
AcDbEntity
  8
YKK_ZWAK
  6
Continuous
 62
   254
100
AcDbLine
 10
744.5015527999995
 20
49.92998740000041
 30
0.0
 11
744.5015527999995
 21
51.85916683890003
 31
0.0
  0
ARC
  5
1283E
330
1F
100
AcDbEntity
  8
YKK_ZWAK
  6
Continuous
 62
   254
100
AcDbCircle
 10
750.273392091671
 20
43.02066509552071
 30
0.0
 40
1.444778071622274
100
AcDbArc
 50
90.33952633950251
 51
178.036390201176
  0
ARC
  5
1283F
330
1F
100
AcDbEntity
  8
YKK_ZWAK
  6
Continuous
 62
   254
100
AcDbCircle
 10
751.258961812979
 20
49.99306161508878
 30
0.0
 40
2.109265890543419
100
AcDbArc
 50
138.4638179599293
 51
181.7135938864657
  0
ARC
  5
12840
330
1F
100
AcDbEntity
  8
YKK_ZWAK
  6
Continuous
 62
   254
100
AcDbCircle
 10
750.6985435078685
 20
50.0293443162792
 30
0.0
 40
1.700954585808626
100
AcDbArc
 50
85.50551117325783
 51
126.7803821238679
  0
ARC
  5
12841
330
1F
100
AcDbEntity
  8
YKK_ZWAK
  6
Continuous
 62
   254
100
AcDbCircle
 10
747.1900477496139
 20
52.94459453367483
 30
0.0
 40
2.443647515679661
100
AcDbArc
 50
109.0212664518414
 51
161.512640403375
  0
ARC
  5
12842
330
1F
100
AcDbEntity
  8
YKK_ZWAK
  6
Continuous
 62
   254
100
AcDbCircle
 10
752.3057897363884
 20
38.5989349282903
 30
0.0
 40
17.68008828611943
100
AcDbArc
 50
89.89164772910941
 51
109.3084827099164
  0
LINE
  5
12843
330
1F
100
AcDbEntity
  8
YKK_ZWAK
  6
Continuous
 62
   254
100
AcDbLine
 10
748.0153959999996
 20
57.74157720000028
 30
0.0
 11
748.0153959999996
 21
62.20144100000027
 31
0.0
  0
LINE
  5
12844
330
1F
100
AcDbEntity
  8
YKK_ZWAK
  6
Continuous
 62
   254
100
AcDbLine
 10
751.3130189999996
 20
57.74157720000028
 30
0.0
 11
748.0153959999996
 21
57.74157720000028
 31
0.0
  0
LINE
  5
12845
330
1F
100
AcDbEntity
  8
YKK_ZWAK
  6
Continuous
 62
   254
100
AcDbLine
 10
751.3130189999996
 20
62.17444200000011
 30
0.0
 11
751.3130189999996
 21
57.74157720000028
 31
0.0
  0
LINE
  5
12846
330
1F
100
AcDbEntity
  8
YKK_ZWAK
  6
Continuous
 62
   254
100
AcDbLine
 10
743.4203509999996
 20
70.09415240000009
 30
0.0
 11
746.9342179999998
 21
70.09415240000009
 31
0.0
  0
LINE
  5
12847
330
1F
100
AcDbEntity
  8
YKK_ZWAK
  6
Continuous
 62
   254
100
AcDbLine
 10
752.2196323999993
 20
70.20221000000026
 30
0.0
 11
749.6641941999997
 21
65.22880660000021
 31
0.0
  0
LINE
  5
12848
330
1F
100
AcDbEntity
  8
YKK_ZWAK
  6
Continuous
 62
   254
100
AcDbLine
 10
749.4479725999996
 20
65.39098680000018
 30
0.0
 11
749.6641941999997
 21
65.22880660000021
 31
0.0
  0
LINE
  5
12849
330
1F
100
AcDbEntity
  8
YKK_ZWAK
  6
Continuous
 62
   254
100
AcDbLine
 10
746.9342179999998
 20
70.09415240000009
 30
0.0
 11
749.4479725999996
 21
65.39098680000018
 31
0.0
  0
ARC
  5
1284A
330
1F
100
AcDbEntity
  8
YKK_ZWAK
  6
Continuous
 62
   254
100
AcDbCircle
 10
775.584049233494
 20
63.01228063775636
 30
0.0
 40
2.162466367416001
100
AcDbArc
 50
0.0016629214395004
 51
89.99603715016002
  0
ARC
  5
1284B
330
1F
100
AcDbEntity
  8
YKK_ZWAK
  6
Continuous
 62
   254
100
AcDbCircle
 10
763.9627892334941
 20
62.93115903775663
 30
0.0
 40
2.162466367416001
100
AcDbArc
 50
0.0016629214395004
 51
89.99603715016002
  0
LINE
  5
1284C
330
1F
100
AcDbEntity
  8
YKK_ZWAK
  6
Continuous
 62
   254
100
AcDbLine
 10
767.5578195999995
 20
57.87669680000011
 30
0.0
 11
767.5578195999995
 21
70.28333160000022
 31
0.0
  0
LINE
  5
1284D
330
1F
100
AcDbEntity
  8
YKK_ZWAK
  6
Continuous
 62
   254
100
AcDbLine
 10
756.0431961999994
 20
57.76863780000041
 30
0.0
 11
756.0431961999994
 21
70.17521240000007
 31
0.0
  0
LINE
  5
1284E
330
1F
100
AcDbEntity
  8
YKK_ZWAK
  6
Continuous
 62
   254
100
AcDbLine
 10
770.9635239999999
 20
57.87669680000011
 30
0.0
 11
767.5578195999995
 21
57.87669680000011
 31
0.0
  0
LINE
  5
1284F
330
1F
100
AcDbEntity
  8
YKK_ZWAK
  6
Continuous
 62
   254
100
AcDbLine
 10
774.2070677999994
 20
55.90359700000011
 30
0.0
 11
762.6113955999995
 21
55.90359700000011
 31
0.0
  0
LINE
  5
12850
330
1F
100
AcDbEntity
  8
YKK_ZWAK
  6
Continuous
 62
   254
100
AcDbLine
 10
768.8552429999996
 20
41.87522040000033
 30
0.0
 11
774.1800687999995
 21
41.87522040000033
 31
0.0
  0
LINE
  5
12851
330
1F
100
AcDbEntity
  8
YKK_ZWAK
  6
Continuous
 62
   254
100
AcDbLine
 10
772.3960851999994
 20
46.01072380000016
 30
0.0
 11
768.8552429999996
 21
46.01072380000016
 31
0.0
  0
LINE
  5
12852
330
1F
100
AcDbEntity
  8
YKK_ZWAK
  6
Continuous
 62
   254
100
AcDbLine
 10
767.6389061999993
 20
51.7409686000002
 30
0.0
 11
772.2879659999993
 21
51.7409686000002
 31
0.0
  0
ARC
  5
12853
330
1F
100
AcDbEntity
  8
YKK_ZWAK
  6
Continuous
 62
   254
100
AcDbCircle
 10
755.8925043950879
 20
51.51474864947033
 30
0.0
 40
4.611623791769603
100
AcDbArc
 50
358.7805904544195
 51
38.76562607987978
  0
ARC
  5
12854
330
1F
100
AcDbEntity
  8
YKK_ZWAK
  6
Continuous
 62
   254
100
AcDbCircle
 10
754.0396270347561
 20
50.24597950176496
 30
0.0
 40
1.624672258159005
100
AcDbArc
 50
14.7551995016551
 51
72.44994796056321
  0
LINE
  5
12855
330
1F
100
AcDbEntity
  8
YKK_ZWAK
  6
Continuous
 62
   254
100
AcDbLine
 10
754.2592391999993
 20
48.06494520000035
 30
0.0
 11
754.2592391999993
 21
44.47004200000026
 31
0.0
  0
LINE
  5
12856
330
1F
100
AcDbEntity
  8
YKK_ZWAK
  6
Continuous
 62
   254
100
AcDbLine
 10
753.5564629999996
 20
48.22712540000032
 30
0.0
 11
754.2592391999993
 21
48.06494520000035
 31
0.0
  0
LINE
  5
12857
330
1F
100
AcDbEntity
  8
YKK_ZWAK
  6
Continuous
 62
   254
100
AcDbLine
 10
768.8552429999996
 20
46.01072380000016
 30
0.0
 11
768.8552429999996
 21
41.87522040000033
 31
0.0
  0
LINE
  5
12858
330
1F
100
AcDbEntity
  8
YKK_ZWAK
  6
Continuous
 62
   254
100
AcDbLine
 10
762.5573275999999
 20
62.41768220000029
 30
0.0
 11
759.3678405999997
 21
62.41768220000029
 31
0.0
  0
ARC
  5
12859
330
1F
100
AcDbEntity
  8
YKK_ZWAK
  6
Continuous
 62
   254
100
AcDbCircle
 10
756.1138951653685
 20
51.50351313816611
 30
0.0
 40
4.448479416583054
100
AcDbArc
 50
40.6642229148782
 51
80.31693568605502
  0
LINE
  5
1285A
330
1F
100
AcDbEntity
  8
YKK_ZWAK
  6
Continuous
 62
   254
100
AcDbLine
 10
759.3678405999997
 20
57.76863780000041
 30
0.0
 11
756.0431961999994
 21
57.76863780000041
 31
0.0
  0
LINE
  5
1285B
330
1F
100
AcDbEntity
  8
YKK_ZWAK
  6
Continuous
 62
   254
100
AcDbLine
 10
759.3678405999997
 20
62.41768220000029
 30
0.0
 11
759.3678405999997
 21
57.76863780000041
 31
0.0
  0
LINE
  5
1285C
330
1F
100
AcDbEntity
  8
YKK_ZWAK
  6
Continuous
 62
   254
100
AcDbLine
 10
766.1252387999996
 20
62.93128340000032
 30
0.0
 11
766.1252387999996
 21
57.84969780000017
 31
0.0
  0
LINE
  5
1285D
330
1F
100
AcDbEntity
  8
YKK_ZWAK
  6
Continuous
 62
   254
100
AcDbLine
 10
762.9898197999993
 20
62.25550200000032
 30
0.0
 11
762.5573275999999
 21
62.41768220000029
 31
0.0
  0
LINE
  5
1285E
330
1F
100
AcDbEntity
  8
YKK_ZWAK
  6
Continuous
 62
   254
100
AcDbLine
 10
762.9898197999993
 20
57.84969780000017
 30
0.0
 11
762.9898197999993
 21
62.25550200000032
 31
0.0
  0
LINE
  5
1285F
330
1F
100
AcDbEntity
  8
YKK_ZWAK
  6
Continuous
 62
   254
100
AcDbLine
 10
766.1252387999996
 20
57.84969780000017
 30
0.0
 11
762.9898197999993
 21
57.84969780000017
 31
0.0
  0
ARC
  5
12860
330
1F
100
AcDbEntity
  8
YKK_ZWAK
  6
Continuous
 62
   254
100
AcDbCircle
 10
774.055350246352
 20
51.55972370845268
 30
0.0
 40
4.341106057659208
100
AcDbArc
 50
14.44572328130105
 51
87.08746338393826
  0
ARC
  5
12861
330
1F
100
AcDbEntity
  8
YKK_ZWAK
  6
Continuous
 62
   254
100
AcDbCircle
 10
770.0933759170369
 20
47.95901455525847
 30
0.0
 40
3.69669741183696
100
AcDbArc
 50
343.6902032742224
 51
354.7536235027183
  0
ARC
  5
12862
330
1F
100
AcDbEntity
  8
YKK_ZWAK
  6
Continuous
 62
   254
100
AcDbCircle
 10
772.3971179983108
 20
47.31647000858209
 30
0.0
 40
1.305746617034933
100
AcDbArc
 50
269.9546811075394
 51
342.9014484926452
  0
ARC
  5
12863
330
1F
100
AcDbEntity
  8
YKK_ZWAK
  6
Continuous
 62
   254
100
AcDbCircle
 10
772.4483148110122
 20
50.52093327878413
 30
0.0
 40
1.228897466365798
100
AcDbArc
 50
16.43123456657787
 51
96.91661395567166
  0
ARC
  5
12864
330
1F
100
AcDbEntity
  8
YKK_ZWAK
  6
Continuous
 62
   254
100
AcDbCircle
 10
770.1148127421894
 20
49.79237254736983
 30
0.0
 40
3.673387293269126
100
AcDbArc
 50
4.934227406572636
 51
17.03551963047907
  0
LINE
  5
12865
330
1F
100
AcDbEntity
  8
YKK_ZWAK
  6
Continuous
 62
   254
100
AcDbLine
 10
774.1800687999995
 20
41.87522040000033
 30
0.0
 11
775.2612089999996
 21
42.1184592000003
 31
0.0
  0
LINE
  5
12866
330
1F
100
AcDbEntity
  8
YKK_ZWAK
  6
Continuous
 62
   254
100
AcDbLine
 10
773.7568011999993
 20
50.24354120000032
 30
0.0
 11
773.7745867999996
 21
47.60936870703028
 31
0.0
  0
ARC
  5
12867
330
1F
100
AcDbEntity
  8
YKK_ZWAK
  6
Continuous
 62
   254
100
AcDbCircle
 10
757.749344722565
 20
48.81275498863295
 30
0.0
 40
20.86005999632355
100
AcDbArc
 50
350.990268174173
 51
10.67624520887895
  0
LINE
  5
12868
330
1F
100
AcDbEntity
  8
YKK_ZWAK
  6
Continuous
 62
   254
100
AcDbLine
 10
777.7479729999992
 20
57.90375740000024
 30
0.0
 11
774.5854877999999
 21
57.90375740000024
 31
0.0
  0
LINE
  5
12869
330
1F
100
AcDbEntity
  8
YKK_ZWAK
  6
Continuous
 62
   254
100
AcDbLine
 10
774.5854877999999
 20
62.28256260000023
 30
0.0
 11
774.1530081999993
 21
62.44474280000043
 31
0.0
  0
LINE
  5
1286A
330
1F
100
AcDbEntity
  8
YKK_ZWAK
  6
Continuous
 62
   254
100
AcDbLine
 10
774.1530081999993
 20
62.44474280000043
 30
0.0
 11
770.9635239999999
 21
62.44474280000043
 31
0.0
  0
LINE
  5
1286B
330
1F
100
AcDbEntity
  8
YKK_ZWAK
  6
Continuous
 62
   254
100
AcDbLine
 10
770.9635239999999
 20
62.44474280000043
 30
0.0
 11
770.9635239999999
 21
57.87669680000011
 31
0.0
  0
LINE
  5
1286C
330
1F
100
AcDbEntity
  8
YKK_ZWAK
  6
Continuous
 62
   254
100
AcDbLine
 10
774.5854877999999
 20
57.90375740000024
 30
0.0
 11
774.5854877999999
 21
62.28256260000023
 31
0.0
  0
LINE
  5
1286D
330
1F
100
AcDbEntity
  8
YKK_ZWAK
  6
Continuous
 62
   254
100
AcDbLine
 10
774.5854877999999
 20
57.95435480000026
 30
0.0
 11
774.6360865999994
 21
57.90375740000024
 31
0.0
  0
LINE
  5
1286E
330
1F
100
AcDbEntity
  8
YKK_ZWAK
  6
Continuous
 62
   254
100
AcDbLine
 10
777.7479729999992
 20
62.93128340000032
 30
0.0
 11
777.7479729999992
 21
57.90375740000024
 31
0.0
  0
LINE
  5
1286F
330
1F
100
AcDbEntity
  8
YKK_ZWAK
  6
Continuous
 62
   254
100
AcDbLine
 10
767.5578195999995
 20
70.28333160000022
 30
0.0
 11
770.8283427999996
 21
70.28333160000022
 31
0.0
  0
LINE
  5
12870
330
1F
100
AcDbEntity
  8
YKK_ZWAK
  6
Continuous
 62
   254
100
AcDbLine
 10
759.2597325999996
 20
65.0767274000001
 30
0.0
 11
762.6384183999997
 21
70.22927200000015
 31
0.0
  0
LINE
  5
12871
330
1F
100
AcDbEntity
  8
YKK_ZWAK
  6
Continuous
 62
   254
100
AcDbLine
 10
759.2597325999996
 20
70.17521240000007
 30
0.0
 11
759.2597325999996
 21
65.0767274000001
 31
0.0
  0
LINE
  5
12872
330
1F
100
AcDbEntity
  8
YKK_ZWAK
  6
Continuous
 62
   254
100
AcDbLine
 10
756.0431961999994
 20
70.17521240000007
 30
0.0
 11
759.2597325999996
 21
70.17521240000007
 31
0.0
  0
LINE
  5
12873
330
1F
100
AcDbEntity
  8
YKK_ZWAK
  6
Continuous
 62
   254
100
AcDbLine
 10
763.9629387999997
 20
65.0936254000004
 30
0.0
 11
762.9236991999995
 21
65.0936254000004
 31
0.0
  0
LINE
  5
12874
330
1F
100
AcDbEntity
  8
YKK_ZWAK
  6
Continuous
 62
   254
100
AcDbLine
 10
766.4634885999995
 20
70.22927200000015
 30
0.0
 11
762.9236991999995
 21
65.0936254000004
 31
0.0
  0
LINE
  5
12875
330
1F
100
AcDbEntity
  8
YKK_ZWAK
  6
Continuous
 62
   254
100
AcDbLine
 10
762.6384183999997
 20
70.22927200000015
 30
0.0
 11
766.4634885999995
 21
70.22927200000015
 31
0.0
  0
LINE
  5
12876
330
1F
100
AcDbEntity
  8
YKK_ZWAK
  6
Continuous
 62
   254
100
AcDbLine
 10
777.6668513999997
 20
69.63461080000036
 30
0.0
 11
774.5449591999991
 21
65.17474700000014
 31
0.0
  0
LINE
  5
12877
330
1F
100
AcDbEntity
  8
YKK_ZWAK
  6
Continuous
 62
   254
100
AcDbLine
 10
774.2611273999995
 20
70.28333160000022
 30
0.0
 11
778.0452713999999
 21
70.28333160000022
 31
0.0
  0
LINE
  5
12878
330
1F
100
AcDbEntity
  8
YKK_ZWAK
  6
Continuous
 62
   254
100
AcDbLine
 10
775.5841987999994
 20
65.17474700000014
 30
0.0
 11
774.5449591999991
 21
65.17474700000014
 31
0.0
  0
LINE
  5
12879
330
1F
100
AcDbEntity
  8
YKK_ZWAK
  6
Continuous
 62
   254
100
AcDbLine
 10
770.8283427999996
 20
65.09163040000032
 30
0.0
 11
774.2611273999995
 21
70.28333160000022
 31
0.0
  0
LINE
  5
1287A
330
1F
100
AcDbEntity
  8
YKK_ZWAK
  6
Continuous
 62
   254
100
AcDbLine
 10
770.8283427999996
 20
70.28333160000022
 30
0.0
 11
770.8283427999996
 21
65.09163040000032
 31
0.0
  0
LINE
  5
1287B
330
1F
100
AcDbEntity
  8
YKK_ZWAK
  6
Continuous
 62
   254
100
AcDbLine
 10
778.0452713999999
 20
70.28333160000022
 30
0.0
 11
777.6668513999997
 21
69.63461080000036
 31
0.0
  0
LINE
  5
1287C
330
1F
100
AcDbEntity
  8
YKK_ZWAK
  6
Continuous
 62
     8
100
AcDbLine
 10
782.3599999999998
 20
259.3840056000003
 30
0.0
 11
799.9999999999996
 21
259.3840056000003
 31
0.0
  0
LINE
  5
1287D
330
1F
100
AcDbEntity
  8
YKK_ZWAK
  6
Continuous
 62
     8
100
AcDbLine
 10
782.3599999999998
 20
239.5880056000002
 30
0.0
 11
799.9999999999996
 21
239.5880056000002
 31
0.0
  0
LINE
  5
1287E
330
1F
100
AcDbEntity
  8
YKK_ZWAK
  6
Continuous
 62
     8
100
AcDbLine
 10
782.3599999999998
 20
219.7920042000002
 30
0.0
 11
799.9999999999996
 21
219.7920042000002
 31
0.0
  0
LINE
  5
1287F
330
1F
100
AcDbEntity
  8
YKK_ZWAK
  6
Continuous
 62
     8
100
AcDbLine
 10
782.3599999999998
 20
199.9960042000001
 30
0.0
 11
799.9999999999996
 21
199.9960042000001
 31
0.0
  0
LINE
  5
12880
330
1F
100
AcDbEntity
  8
YKK_ZWAK
  6
Continuous
 62
     8
100
AcDbLine
 10
782.3599999999998
 20
180.2000042000003
 30
0.0
 11
799.9999999999996
 21
180.2000042000003
 31
0.0
  0
LINE
  5
12881
330
1F
100
AcDbEntity
  8
YKK_ZWAK
  6
Continuous
 62
     8
100
AcDbLine
 10
782.3599999999998
 20
160.4040028000003
 30
0.0
 11
799.9999999999996
 21
160.4040028000003
 31
0.0
  0
LINE
  5
12882
330
1F
100
AcDbEntity
  8
YKK_ZWAK
  6
Continuous
 62
     8
100
AcDbLine
 10
782.3599999999998
 20
140.6080028000002
 30
0.0
 11
799.9999999999996
 21
140.6080028000002
 31
0.0
  0
CIRCLE
  5
12883
330
1F
100
AcDbEntity
  8
YKK_ZWAK
  6
Continuous
 62
     8
100
AcDbCircle
 10
791.1799999999997
 20
259.3840056000003
 30
0.0
 40
8.819999999999998
  0
CIRCLE
  5
12884
330
1F
100
AcDbEntity
  8
YKK_ZWAK
  6
Continuous
 62
     8
100
AcDbCircle
 10
791.1799999999997
 20
219.7920042000002
 30
0.0
 40
8.819999999999998
  0
CIRCLE
  5
12885
330
1F
100
AcDbEntity
  8
YKK_ZWAK
  6
Continuous
 62
     8
100
AcDbCircle
 10
791.1799999999997
 20
180.2000042000003
 30
0.0
 40
8.819999999999998
  0
CIRCLE
  5
12886
330
1F
100
AcDbEntity
  8
YKK_ZWAK
  6
Continuous
 62
     8
100
AcDbCircle
 10
791.1799999999997
 20
239.5880056000002
 30
0.0
 40
8.819999999999998
  0
CIRCLE
  5
12887
330
1F
100
AcDbEntity
  8
YKK_ZWAK
  6
Continuous
 62
     8
100
AcDbCircle
 10
791.1799999999997
 20
199.9960042000001
 30
0.0
 40
8.819999999999998
  0
CIRCLE
  5
12888
330
1F
100
AcDbEntity
  8
YKK_ZWAK
  6
Continuous
 62
     8
100
AcDbCircle
 10
791.1799999999997
 20
160.4040028000003
 30
0.0
 40
8.819999999999998
  0
TEXT
  5
1288A
330
1F
100
AcDbEntity
  8
YKK_ZWAK
  6
Continuous
 62
   131
100
AcDbText
 10
551.4385113564176
 20
37.05395500000043
 30
0.0
 40
4.899999999999999
  1
 ． ．
 41
0.9
  7
YKK_OSSTYLE1
100
AcDbText
  0
TEXT
  5
1288B
330
1F
100
AcDbEntity
  8
YKK_ZWAK
  6
Continuous
 62
   131
100
AcDbText
 10
573.8385113564175
 20
37.05395500000043
 30
0.0
 40
4.899999999999999
  1
 ． ．
 41
0.9
  7
YKK_OSSTYLE1
100
AcDbText
  0
LINE
  5
1288C
330
1F
100
AcDbEntity
  8
YKK_ZWAK
  6
Continuous
 62
   131
100
AcDbLine
 10
622.8635610799995
 20
38.10000000000025
 30
0.0
 11
622.8635610799995
 21
36.00000000000012
 31
0.0
  0
LINE
  5
1288D
330
1F
100
AcDbEntity
  8
YKK_ZWAK
  6
Continuous
 62
   131
100
AcDbLine
 10
627.9035437199996
 20
38.10000000000025
 30
0.0
 11
627.9035437199996
 21
36.00000000000012
 31
0.0
  0
LINE
  5
1288E
330
1F
100
AcDbEntity
  8
YKK_ZWAK
  6
Continuous
 62
   131
100
AcDbLine
 10
632.9435263599997
 20
38.10000000000025
 30
0.0
 11
632.9435263599997
 21
36.00000000000012
 31
0.0
  0
LINE
  5
1288F
330
1F
100
AcDbEntity
  8
YKK_ZWAK
  6
Continuous
 62
   131
100
AcDbLine
 10
637.9835089999999
 20
38.10000000000025
 30
0.0
 11
637.9835089999999
 21
36.00000000000012
 31
0.0
  0
LINE
  5
12890
330
1F
100
AcDbEntity
  8
YKK_ZWAK
  6
Continuous
 62
   131
100
AcDbLine
 10
643.0234916399996
 20
38.10000000000025
 30
0.0
 11
643.0234916399996
 21
36.00000000000012
 31
0.0
  0
LINE
  5
12891
330
1F
100
AcDbEntity
  8
YKK_ZWAK
  6
Continuous
 62
   131
100
AcDbLine
 10
648.0634742799995
 20
38.10000000000025
 30
0.0
 11
648.0634742799995
 21
36.00000000000012
 31
0.0
  0
LINE
  5
12892
330
1F
100
AcDbEntity
  8
YKK_ZWAK
  6
Continuous
 62
   131
100
AcDbLine
 10
653.1034569199995
 20
38.10000000000025
 30
0.0
 11
653.1034569199995
 21
36.00000000000012
 31
0.0
  0
LINE
  5
12893
330
1F
100
AcDbEntity
  8
YKK_ZWAK
  6
Continuous
 62
   131
100
AcDbLine
 10
658.1434395599996
 20
38.10000000000025
 30
0.0
 11
658.1434395599996
 21
36.00000000000012
 31
0.0
  0
LINE
  5
12894
330
1F
100
AcDbEntity
  8
YKK_ZWAK
  6
Continuous
 62
   131
100
AcDbLine
 10
663.1834221999997
 20
38.10000000000025
 30
0.0
 11
663.1834221999997
 21
36.00000000000012
 31
0.0
  0
LINE
  5
12895
330
1F
100
AcDbEntity
  8
YKK_ZWAK
  6
Continuous
 62
   131
100
AcDbLine
 10
668.2234048399998
 20
38.10000000000025
 30
0.0
 11
668.2234048399998
 21
36.00000000000012
 31
0.0
  0
LINE
  5
12896
330
1F
100
AcDbEntity
  8
YKK_ZWAK
  6
Continuous
 62
   131
100
AcDbLine
 10
673.26338748
 20
38.10000000000025
 30
0.0
 11
673.26338748
 21
36.00000000000012
 31
0.0
  0
LINE
  5
12897
330
1F
100
AcDbEntity
  8
YKK_ZWAK
  6
Continuous
 62
   131
100
AcDbLine
 10
678.3033701199997
 20
38.10000000000025
 30
0.0
 11
678.3033701199997
 21
36.00000000000012
 31
0.0
  0
LINE
  5
12898
330
1F
100
AcDbEntity
  8
YKK_ZWAK
  6
Continuous
 62
   131
100
AcDbLine
 10
683.3433527599999
 20
38.10000000000025
 30
0.0
 11
683.3433527599999
 21
36.00000000000012
 31
0.0
  0
LINE
  5
12899
330
1F
100
AcDbEntity
  8
YKK_ZWAK
  6
Continuous
 62
   131
100
AcDbLine
 10
688.3833354
 20
38.10000000000025
 30
0.0
 11
688.3833354
 21
36.00000000000012
 31
0.0
  0
LINE
  5
1289A
330
1F
100
AcDbEntity
  8
YKK_ZWAK
  6
Continuous
 62
   131
100
AcDbLine
 10
693.4233180399997
 20
38.10000000000025
 30
0.0
 11
693.4233180399997
 21
36.00000000000012
 31
0.0
  0
LINE
  5
1289B
330
1F
100
AcDbEntity
  8
YKK_ZWAK
  6
Continuous
 62
   131
100
AcDbLine
 10
698.4633006799998
 20
38.10000000000025
 30
0.0
 11
698.4633006799998
 21
36.00000000000012
 31
0.0
  0
LINE
  5
1289C
330
1F
100
AcDbEntity
  8
YKK_ZWAK
  6
Continuous
 62
   131
100
AcDbLine
 10
703.50328332
 20
38.10000000000025
 30
0.0
 11
703.50328332
 21
36.00000000000012
 31
0.0
  0
LINE
  5
1289D
330
1F
100
AcDbEntity
  8
YKK_ZWAK
  6
Continuous
 62
   131
100
AcDbLine
 10
708.5432659600001
 20
38.10000000000025
 30
0.0
 11
708.5432659600001
 21
36.00000000000012
 31
0.0
  0
TEXT
  5
128A2
330
1F
100
AcDbEntity
  8
YKK_ZWAK
  6
Continuous
 62
   254
100
AcDbText
 10
397.8675096381488
 20
38.38034557673893
 30
0.0
 40
7.0
  1
みらんちゃん固定型（姿図・横断面図）
 41
0.85
  7
YKK_OSSTYLE1
 72
     1
 11
459.5491763048154
 21
38.38034557673893
 31
0.0
100
AcDbText
 73
     1
  0
TEXT
  5
128A3
330
1F
100
AcDbEntity
  8
YKK_ZWAK
  6
Continuous
 62
   254
100
AcDbText
 10
593.3822952813766
 20
56.99387636782906
 30
0.0
 40
5.599999999999999
  1
1
 41
0.9
  7
YKK_OSSTYLE1
 72
     4
 11
595.4222952813766
 21
59.79387636782906
 31
0.0
100
AcDbText
  0
TEXT
  5
128A4
330
1F
100
AcDbEntity
  8
YKK_ZWAK
  6
Continuous
 62
   254
100
AcDbText
 10
600.9338208516219
 20
52.42615495014736
 30
0.0
 40
5.599999999999999
  1
2
 41
0.9
  7
YKK_OSSTYLE1
 72
     4
 11
603.3338208516219
 21
55.22615495014736
 31
0.0
100
AcDbText
  0
TEXT
  5
21CD8
330
1F
100
AcDbEntity
  8
0
100
AcDbText
 10
718.4146959686857
 20
23.25114259729506
 30
0.0
 40
10.0
  1
-Ａｋ４－１-
  7
AT_VECTOR
 72
     1
 11
760.7956483496381
 21
28.25114259729506
 31
0.0
100
AcDbText
 73
     2
  0
LINE
  5
2476E
330
1F
100
AcDbEntity
  8
003
100
AcDbLine
 10
300.2827015638966
 20
272.9457637344613
 30
0.0
 11
421.4327015638968
 21
272.9457637344615
 31
0.0
  0
LINE
  5
2476F
330
1F
100
AcDbEntity
  8
003
100
AcDbLine
 10
300.2827015638966
 20
240.9457332344612
 30
0.0
 11
421.4327015638968
 21
240.9457332344612
 31
0.0
  0
DIMENSION
  5
24770
330
1F
100
AcDbEntity
  8
0
100
AcDbDimension
  2
*D41
 10
576.2829835638885
 20
113.4490602072778
 30
0.0
 11
423.7828425638885
 21
118.4490602072778
 31
0.0
 70
    32
  1
SW
 71
     5
 42
305.000282
  3
DIM
100
AcDbAlignedDimension
 13
271.2827015638885
 23
143.9456645561771
 33
0.0
 14
576.2829835638885
 24
143.9456778424929
 34
0.0
100
AcDbRotatedDimension
  0
LINE
  5
24771
330
1F
100
AcDbEntity
  8
003
100
AcDbLine
 10
421.4327015638968
 20
236.4457637344615
 30
0.0
 11
317.6827015638967
 21
236.4457637344615
 31
0.0
  0
LINE
  5
24772
330
1F
100
AcDbEntity
  8
003
100
AcDbLine
 10
421.4327015638968
 20
235.2457637344599
 30
0.0
 11
317.6827015638967
 21
235.2457637344614
 31
0.0
  0
LINE
  5
24773
330
1F
100
AcDbEntity
  8
007
100
AcDbLine
 10
350.8824195638963
 20
238.1457770207767
 30
0.0
 11
328.5824195638963
 21
238.1457770207767
 31
0.0
  0
LINE
  5
24774
330
1F
100
AcDbEntity
  8
007
100
AcDbLine
 10
350.3824195638963
 20
239.6457770207767
 30
0.0
 11
329.0824195638963
 21
239.6457770207767
 31
0.0
  0
LINE
  5
24775
330
1F
100
AcDbEntity
  8
007
100
AcDbLine
 10
350.3824195638963
 20
235.1457770207767
 30
0.0
 11
329.0824195638963
 21
235.1457770207767
 31
0.0
  0
LINE
  5
24776
330
1F
100
AcDbEntity
  8
007
100
AcDbLine
 10
351.8824195638963
 20
234.8457770207767
 30
0.0
 11
323.5824195638963
 21
234.8457770207767
 31
0.0
  0
LINE
  5
24777
330
1F
100
AcDbEntity
  8
007
100
AcDbLine
 10
351.8824195638963
 20
224.8457770207767
 30
0.0
 11
326.5824195638963
 21
224.8457770207767
 31
0.0
  0
LINE
  5
24778
330
1F
100
AcDbEntity
  8
003
100
AcDbLine
 10
302.2827015638966
 20
276.9457637344614
 30
0.0
 11
421.4327015638968
 21
276.9457637344614
 31
0.0
  0
LINE
  5
24779
330
1F
100
AcDbEntity
  8
003
100
AcDbLine
 10
302.2827015638966
 20
275.7457637344613
 30
0.0
 11
421.4327015638968
 21
275.7457637344614
 31
0.0
  0
DIMENSION
  5
2477A
330
1F
100
AcDbEntity
  8
003
100
AcDbDimension
  2
*D42
 10
575.2829835638965
 20
311.5274839545181
 30
0.0
 11
423.7828425638965
 21
311.5274839545181
 31
0.0
 70
   160
  1
製品W=SW-2
 71
     5
 42
303.000282
  3
DIM
100
AcDbAlignedDimension
 13
272.2827015638966
 23
266.0526617951993
 33
0.0
 14
575.2829835638965
 24
266.9456778424928
 34
0.0
100
AcDbRotatedDimension
  0
LINE
  5
2477B
330
1F
100
AcDbEntity
  8
003
100
AcDbLine
 10
296.8827015638965
 20
260.7457637344613
 30
0.0
 11
296.8827015638965
 21
266.9457637344611
 31
0.0
  0
LINE
  5
2477C
330
1F
100
AcDbEntity
  8
003
100
AcDbLine
 10
300.2827015638966
 20
240.9457332344612
 30
0.0
 11
300.2827015638966
 21
272.9457637344613
 31
0.0
  0
LINE
  5
2477D
330
1F
100
AcDbEntity
  8
003
100
AcDbLine
 10
302.2827015638966
 20
240.9457332344612
 30
0.0
 11
302.2827015638966
 21
272.9457637344613
 31
0.0
  0
LINE
  5
2477E
330
1F
100
AcDbEntity
  8
003
100
AcDbLine
 10
299.2827015638966
 20
238.1457637344613
 30
0.0
 11
299.2827015638966
 21
261.9457637344611
 31
0.0
  0
LINE
  5
2477F
330
1F
100
AcDbEntity
  8
003
100
AcDbLine
 10
291.382701563897
 20
261.9457637344614
 30
0.0
 11
291.382701563897
 21
241.9457637344615
 31
0.0
  0
LINE
  5
24780
330
1F
100
AcDbEntity
  8
003
100
AcDbLine
 10
296.3827015638967
 20
261.9457637344614
 30
0.0
 11
296.3827015638967
 21
241.9457637344615
 31
0.0
  0
LINE
  5
24781
330
1F
100
AcDbEntity
  8
003
100
AcDbLine
 10
273.4827015638968
 20
243.4618997628872
 30
0.0
 11
273.4827015638968
 21
266.9457637344613
 31
0.0
  0
LINE
  5
24782
330
1F
100
AcDbEntity
  8
003
100
AcDbLine
 10
272.2827015638966
 20
211.9457637344612
 30
0.0
 11
272.2827015638966
 21
266.9457637344613
 31
0.0
  0
LINE
  5
24783
330
1F
100
AcDbEntity
  8
003
100
AcDbLine
 10
273.4827015638966
 20
211.9457637344615
 30
0.0
 11
273.4827015638968
 21
235.2457637344614
 31
0.0
  0
LINE
  5
24784
330
1F
100
AcDbEntity
  8
003
100
AcDbLine
 10
316.4827015638969
 20
236.9457637344613
 30
0.0
 11
280.5827015638968
 21
236.9457637344613
 31
0.0
  0
LINE
  5
24785
330
1F
100
AcDbEntity
  8
003
100
AcDbLine
 10
325.4827015638968
 20
238.1457637344613
 30
0.0
 11
299.2827015638966
 21
238.1457637344613
 31
0.0
  0
LINE
  5
24786
330
1F
100
AcDbEntity
  8
003
100
AcDbLine
 10
285.2827015638966
 20
238.1457637344613
 30
0.0
 11
285.2827015638966
 21
239.3457637344614
 31
0.0
  0
LINE
  5
24787
330
1F
100
AcDbEntity
  8
003
100
AcDbLine
 10
298.0827015638968
 20
238.1457637344613
 30
0.0
 11
298.0827015638968
 21
260.7457637344613
 31
0.0
  0
LINE
  5
24788
330
1F
100
AcDbEntity
  8
006
100
AcDbLine
 10
275.7827015638966
 20
237.5357637344614
 30
0.0
 11
275.7827015638966
 21
245.5357637344614
 31
0.0
  0
LINE
  5
24789
330
1F
100
AcDbEntity
  8
003
100
AcDbLine
 10
285.2827015638966
 20
238.1457637344613
 30
0.0
 11
280.5827015638968
 21
238.1457637344613
 31
0.0
  0
LINE
  5
2478A
330
1F
100
AcDbEntity
  8
003
100
AcDbLine
 10
298.0627015638968
 20
238.1457637344613
 30
0.0
 11
273.4827015638968
 21
238.1457637344613
 31
0.0
  0
LINE
  5
2478B
330
1F
100
AcDbEntity
  8
003
100
AcDbLine
 10
276.4827015638969
 20
236.4457637344615
 30
0.0
 11
273.4827015638968
 21
236.4457637344615
 31
0.0
  0
LINE
  5
2478C
330
1F
100
AcDbEntity
  8
003
100
AcDbLine
 10
279.9827015638966
 20
238.1457637344613
 30
0.0
 11
273.4827015638968
 21
238.1457637344613
 31
0.0
  0
LINE
  5
2478D
330
1F
100
AcDbEntity
  8
003
100
AcDbLine
 10
279.9827015638968
 20
236.9457637344613
 30
0.0
 11
273.4827015638968
 21
236.9457637344613
 31
0.0
  0
LINE
  5
2478E
330
1F
100
AcDbEntity
  8
003
100
AcDbLine
 10
276.4827015638969
 20
235.2457637344614
 30
0.0
 11
273.4827015638968
 21
235.2457637344614
 31
0.0
  0
LINE
  5
2478F
330
1F
100
AcDbEntity
  8
003
100
AcDbLine
 10
273.4827015638968
 20
236.4457637344615
 30
0.0
 11
273.4827015638968
 21
238.1457637344613
 31
0.0
  0
LINE
  5
24790
330
1F
100
AcDbEntity
  8
003
100
AcDbLine
 10
273.4827015638968
 20
236.9457637344613
 30
0.0
 11
273.4827015638968
 21
238.1457637344613
 31
0.0
  0
ARC
  5
24791
330
1F
100
AcDbEntity
  8
003
100
AcDbCircle
 10
280.2827015638966
 20
238.1457637344613
 30
0.0
 40
0.3000000000000682
100
AcDbArc
 50
0.0000000000260551
 51
179.999999999987
  0
ARC
  5
24792
330
1F
100
AcDbEntity
  8
003
100
AcDbCircle
 10
280.2827015638966
 20
236.9457637344615
 30
0.0
 40
0.2999999999999829
100
AcDbArc
 50
0.0
 51
180.0
  0
LINE
  5
24793
330
1F
100
AcDbEntity
  8
003
100
AcDbLine
 10
276.4827015638969
 20
235.2457637344614
 30
0.0
 11
276.4827015638969
 21
236.9457637344613
 31
0.0
  0
LINE
  5
24794
330
1F
100
AcDbEntity
  8
003
100
AcDbLine
 10
285.2827015638966
 20
239.3457637344614
 30
0.0
 11
277.8330429988776
 21
239.3457637344614
 31
0.0
  0
ARC
  5
24795
330
1F
100
AcDbEntity
  8
003
100
AcDbCircle
 10
275.7827015638966
 20
241.5357637344616
 30
0.0
 40
1.8
100
AcDbArc
 50
29.98163936884825
 51
330.1585454638335
  0
ARC
  5
24796
330
1F
100
AcDbEntity
  8
003
100
AcDbCircle
 10
275.7827015638966
 20
241.5357637344616
 30
0.0
 40
3.0
100
AcDbArc
 50
29.98163936884825
 51
140.0554948101842
  0
LINE
  5
24797
330
1F
100
AcDbEntity
  8
003
100
AcDbLine
 10
278.3812583220426
 20
243.0349310949302
 30
0.0
 11
277.3418356187856
 21
242.4352641507435
 31
0.0
  0
ARC
  5
24798
330
1F
100
AcDbEntity
  8
003
100
AcDbCircle
 10
275.7827015638966
 20
241.5357637344616
 30
0.0
 40
3.0
100
AcDbArc
 50
313.1136059458989
 51
330.018477256839
  0
LINE
  5
24799
330
1F
100
AcDbEntity
  8
003
100
AcDbLine
 10
278.3812613735956
 20
240.0366016633638
 30
0.0
 11
277.3440317457655
 21
240.6400807195559
 31
0.0
  0
LINE
  5
2479A
330
1F
100
AcDbEntity
  8
006
100
AcDbLine
 10
279.7827015638966
 20
241.5357637344614
 30
0.0
 11
271.7827015638966
 21
241.5357637344614
 31
0.0
  0
LINE
  5
2479B
330
1F
100
AcDbEntity
  8
003
100
AcDbLine
 10
298.0827015638968
 20
260.4457637344613
 30
0.0
 11
296.3827015638967
 21
260.4457637344613
 31
0.0
  0
LINE
  5
2479C
330
1F
100
AcDbEntity
  8
003
100
AcDbLine
 10
298.0827015638968
 20
260.7457637344613
 30
0.0
 11
296.8827015638965
 21
260.7457637344613
 31
0.0
  0
LINE
  5
2479D
330
1F
100
AcDbEntity
  8
003
100
AcDbLine
 10
296.3827015638967
 20
241.9457637344615
 30
0.0
 11
291.382701563897
 21
241.9457637344615
 31
0.0
  0
LINE
  5
2479E
330
1F
100
AcDbEntity
  8
003
100
AcDbLine
 10
298.0827015638968
 20
253.4457637344615
 30
0.0
 11
296.3827015638967
 21
253.4457637344615
 31
0.0
  0
LINE
  5
2479F
330
1F
100
AcDbEntity
  8
007
100
AcDbLine
 10
328.5824195638963
 20
239.1457770207767
 30
0.0
 11
328.5824195638963
 21
235.6457770207767
 31
0.0
  0
LINE
  5
247A0
330
1F
100
AcDbEntity
  8
003
100
AcDbLine
 10
317.6827015638967
 20
231.9457637344612
 30
0.0
 11
316.4827015638969
 21
231.9457637344612
 31
0.0
  0
LINE
  5
247A1
330
1F
100
AcDbEntity
  8
003
100
AcDbLine
 10
316.4827015638969
 20
231.9457637344612
 30
0.0
 11
316.4827015638969
 21
236.9457637344613
 31
0.0
  0
ARC
  5
247A2
330
1F
100
AcDbEntity
  8
007
100
AcDbCircle
 10
329.0824195638963
 20
235.6457770207767
 30
0.0
 40
0.5
100
AcDbArc
 50
180.0
 51
270.0
  0
LINE
  5
247A3
330
1F
100
AcDbEntity
  8
003
100
AcDbLine
 10
325.4827015638968
 20
236.9457637344613
 30
0.0
 11
325.4827015638968
 21
238.1457637344613
 31
0.0
  0
LINE
  5
247A4
330
1F
100
AcDbEntity
  8
003
100
AcDbLine
 10
325.4827015638968
 20
236.9457637344613
 30
0.0
 11
317.6827015638967
 21
236.9457637344613
 31
0.0
  0
LINE
  5
247A5
330
1F
100
AcDbEntity
  8
007
100
AcDbLine
 10
323.5824195638963
 20
234.8457770207767
 30
0.0
 11
323.5824195638963
 21
227.8457770207767
 31
0.0
  0
ARC
  5
247A6
330
1F
100
AcDbEntity
  8
007
100
AcDbCircle
 10
326.5824195638963
 20
227.8457770207767
 30
0.0
 40
3.0
100
AcDbArc
 50
180.0
 51
270.0
  0
LINE
  5
247A7
330
1F
100
AcDbEntity
  8
003
100
AcDbLine
 10
317.6827015638967
 20
231.9457637344612
 30
0.0
 11
317.6827015638967
 21
236.9457637344613
 31
0.0
  0
ARC
  5
247A8
330
1F
100
AcDbEntity
  8
007
100
AcDbCircle
 10
329.0824195638963
 20
239.1457770207767
 30
0.0
 40
0.5
100
AcDbArc
 50
90.0
 51
180.0
  0
DIMENSION
  5
247A9
330
1F
100
AcDbEntity
  8
003
100
AcDbDimension
  2
*D43
 10
302.2827015638966
 20
294.3949215687479
 30
0.0
 11
287.2827015638966
 21
299.3949215687479
 31
0.0
 70
    32
 71
     5
 42
30.0
  3
DIM
100
AcDbAlignedDimension
 13
272.2827015638966
 23
266.0526617951993
 33
0.0
 14
302.2827015638966
 24
276.9457637344614
 34
0.0
100
AcDbRotatedDimension
  0
LINE
  5
247AA
330
1F
100
AcDbEntity
  8
003
100
AcDbLine
 10
302.2827015638966
 20
275.7457637344613
 30
0.0
 11
299.2827015638966
 21
275.7457637344613
 31
0.0
  0
LINE
  5
247AB
330
1F
100
AcDbEntity
  8
003
100
AcDbLine
 10
302.2827015638966
 20
276.9457637344614
 30
0.0
 11
282.2827015638966
 21
276.9457637344614
 31
0.0
  0
LINE
  5
247AC
330
1F
100
AcDbEntity
  8
003
100
AcDbLine
 10
293.8565655354707
 20
275.7457637344613
 30
0.0
 11
282.2827015638966
 21
275.7457637344613
 31
0.0
  0
ARC
  5
247AD
330
1F
100
AcDbEntity
  8
003
100
AcDbCircle
 10
282.2827015638966
 20
266.9457637344613
 30
0.0
 40
8.8
100
AcDbArc
 50
90.0
 51
180.0
  0
ARC
  5
247AE
330
1F
100
AcDbEntity
  8
003
100
AcDbCircle
 10
282.2827015638966
 20
266.9457637344613
 30
0.0
 40
10.0
100
AcDbArc
 50
90.0
 51
180.0
  0
LINE
  5
247AF
330
1F
100
AcDbEntity
  8
003
100
AcDbLine
 10
298.0827015638968
 20
261.9457637344614
 30
0.0
 11
298.0827015638968
 21
266.9457637344613
 31
0.0
  0
LINE
  5
247B0
330
1F
100
AcDbEntity
  8
003
100
AcDbLine
 10
298.0827015638968
 20
261.9457637344611
 30
0.0
 11
298.0827015638968
 21
266.9457637344611
 31
0.0
  0
LINE
  5
247B1
330
1F
100
AcDbEntity
  8
003
100
AcDbLine
 10
299.2827015638966
 20
261.9457637344614
 30
0.0
 11
298.0827015638968
 21
261.9457637344614
 31
0.0
  0
LINE
  5
247B2
330
1F
100
AcDbEntity
  8
003
100
AcDbLine
 10
299.2827015638966
 20
261.9457637344611
 30
0.0
 11
298.0827015638968
 21
261.9457637344611
 31
0.0
  0
LINE
  5
247B3
330
1F
100
AcDbEntity
  8
003
100
AcDbLine
 10
299.2827015638966
 20
261.9457637344614
 30
0.0
 11
299.2827015638966
 21
275.7457637344613
 31
0.0
  0
LINE
  5
247B4
330
1F
100
AcDbEntity
  8
003
100
AcDbLine
 10
295.0053099677104
 20
270.5482368051336
 30
0.0
 11
295.3120179382592
 21
271.7083930415573
 31
0.0
  0
ARC
  5
247B5
330
1F
100
AcDbEntity
  8
003
100
AcDbCircle
 10
295.7827015638966
 20
273.4457637344614
 30
0.0
 40
3.0
100
AcDbArc
 50
254.9815227431633
 51
266.1774462707292
  0
ARC
  5
247B6
330
1F
100
AcDbEntity
  8
003
100
AcDbCircle
 10
295.7827015638966
 20
273.4457637344614
 30
0.0
 40
3.0
100
AcDbArc
 50
129.9445051898157
 51
195.0183606311533
  0
LINE
  5
247B7
330
1F
100
AcDbEntity
  8
003
100
AcDbLine
 10
292.8851730521926
 20
272.6683780361994
 30
0.0
 11
294.0441844568729
 21
272.9793323155037
 31
0.0
  0
LINE
  5
247B8
330
1F
100
AcDbEntity
  8
003
100
AcDbLine
 10
295.1827015638967
 20
263.9457637344614
 30
0.0
 11
295.1827015638967
 21
268.1457637344612
 31
0.0
  0
LINE
  5
247B9
330
1F
100
AcDbEntity
  8
003
100
AcDbLine
 10
295.5827015638968
 20
268.1457637344612
 30
0.0
 11
295.1827015638967
 21
268.1457637344612
 31
0.0
  0
LINE
  5
247BA
330
1F
100
AcDbEntity
  8
003
100
AcDbLine
 10
296.3827015638967
 20
263.9457637344614
 30
0.0
 11
296.3827015638967
 21
266.9457637344613
 31
0.0
  0
LINE
  5
247BB
330
1F
100
AcDbEntity
  8
003
100
AcDbLine
 10
296.3827015638967
 20
263.9457637344614
 30
0.0
 11
295.1827015638967
 21
263.9457637344614
 31
0.0
  0
LINE
  5
247BC
330
1F
100
AcDbEntity
  8
003
100
AcDbLine
 10
296.3827015638967
 20
261.9457637344614
 30
0.0
 11
291.382701563897
 21
261.9457637344614
 31
0.0
  0
LINE
  5
247BD
330
1F
100
AcDbEntity
  8
003
100
AcDbLine
 10
295.5827015638968
 20
268.1457637344612
 30
0.0
 11
295.5827015638968
 21
270.4524378250422
 31
0.0
  0
LINE
  5
247BE
330
1F
100
AcDbEntity
  8
006
100
AcDbLine
 10
292.9542744391506
 20
270.6173366097151
 30
0.0
 11
298.6111286886428
 21
276.2741908592074
 31
0.0
  0
LINE
  5
247BF
330
1F
100
AcDbEntity
  8
006
100
AcDbLine
 10
298.6111286886428
 20
270.6173366097151
 30
0.0
 11
292.9542744391506
 21
276.2741908592076
 31
0.0
  0
LINE
  5
247C0
330
1F
100
AcDbEntity
  8
003
100
AcDbLine
 10
298.0827015638968
 20
266.9457637344613
 30
0.0
 11
296.3827015638967
 21
266.9457637344613
 31
0.0
  0
LINE
  5
247C1
330
1F
100
AcDbEntity
  8
003
100
AcDbLine
 10
298.0827015638968
 20
266.9457637344611
 30
0.0
 11
296.8827015638965
 21
266.9457637344611
 31
0.0
  0
ARC
  5
247C2
330
1F
100
AcDbEntity
  8
003
100
AcDbCircle
 10
295.7827015638966
 20
273.4457637344614
 30
0.0
 40
1.8
100
AcDbArc
 50
254.8414545361739
 51
195.0183606311533
  0
LINE
  5
247C3
330
1F
100
AcDbEntity
  8
003
100
AcDbLine
 10
302.2827015638966
 20
275.7457637344613
 30
0.0
 11
302.2827015638966
 21
276.9457637344614
 31
0.0
  0
DIMENSION
  5
247C4
330
1F
100
AcDbEntity
  8
003
100
AcDbDimension
  2
*D44
 10
564.5362178949235
 20
276.9456778424928
 30
0.0
 11
559.5362178949234
 21
244.445677842493
 31
0.0
 70
    32
 71
     5
 42
64.99999999999989
  3
DIM
100
AcDbAlignedDimension
 13
567.7829835638966
 23
211.9456778424929
 33
0.0
 14
565.2829835638965
 24
276.9456778424928
 34
0.0
 50
90.0
100
AcDbRotatedDimension
  0
LINE
  5
247C5
330
1F
100
AcDbEntity
  8
003
100
AcDbLine
 10
547.2829835638965
 20
240.945634056177
 30
0.0
 11
547.2829835638965
 21
272.9456645561772
 31
0.0
  0
LINE
  5
247C6
330
1F
100
AcDbEntity
  8
003
100
AcDbLine
 10
545.2829835638965
 20
240.9456340561771
 30
0.0
 11
545.2829835638965
 21
272.9456645561772
 31
0.0
  0
LINE
  5
247C7
330
1F
100
AcDbEntity
  8
003
100
AcDbLine
 10
551.1829835638966
 20
261.9456778424928
 30
0.0
 11
551.1829835638966
 21
241.9456778424928
 31
0.0
  0
LINE
  5
247C8
330
1F
100
AcDbEntity
  8
003
100
AcDbLine
 10
556.1829835638966
 20
261.9456778424928
 30
0.0
 11
556.1829835638966
 21
251.9456778424928
 31
0.0
  0
LINE
  5
247C9
330
1F
100
AcDbEntity
  8
003
100
AcDbLine
 10
574.0829835638967
 20
243.4618138709186
 30
0.0
 11
574.0829835638967
 21
266.9456778424928
 31
0.0
  0
LINE
  5
247CA
330
1F
100
AcDbEntity
  8
003
100
AcDbLine
 10
575.2829835638965
 20
211.9456778424928
 30
0.0
 11
575.2829835638965
 21
266.9456778424928
 31
0.0
  0
LINE
  5
247CB
330
1F
100
AcDbEntity
  8
003
100
AcDbLine
 10
550.6829835638966
 20
260.7456778424928
 30
0.0
 11
550.6829835638966
 21
266.9456778424926
 31
0.0
  0
LINE
  5
247CC
330
1F
100
AcDbEntity
  8
003
100
AcDbLine
 10
548.2829835638965
 20
238.1456778424927
 30
0.0
 11
548.2829835638965
 21
261.9456778424926
 31
0.0
  0
LINE
  5
247CD
330
1F
100
AcDbEntity
  8
003
100
AcDbLine
 10
547.2829835638965
 20
240.945634056177
 30
0.0
 11
426.4327015638968
 21
240.9456340561769
 31
0.0
  0
LINE
  5
247CE
330
1F
100
AcDbEntity
  8
003
100
AcDbLine
 10
522.0829835638967
 20
238.1456778424927
 30
0.0
 11
548.2829835638965
 21
238.1456778424927
 31
0.0
  0
LINE
  5
247CF
330
1F
100
AcDbEntity
  8
003
100
AcDbLine
 10
531.0829835638967
 20
236.9456778424926
 30
0.0
 11
566.9829835638968
 21
236.9456778424926
 31
0.0
  0
LINE
  5
247D0
330
1F
100
AcDbEntity
  8
007
100
AcDbLine
 10
426.4327015638968
 20
239.0456778424927
 30
0.0
 11
495.9829835638973
 21
239.0456778424927
 31
0.0
  0
LINE
  5
247D1
330
1F
100
AcDbEntity
  8
007
100
AcDbLine
 10
426.4327015638968
 20
238.1455778424927
 30
0.0
 11
495.9829835638973
 21
238.1455778424927
 31
0.0
  0
LINE
  5
247D2
330
1F
100
AcDbEntity
  8
007
100
AcDbLine
 10
426.4327015638968
 20
234.8456778424928
 30
0.0
 11
495.9829835638973
 21
234.8456778424927
 31
0.0
  0
LINE
  5
247D3
330
1F
100
AcDbEntity
  8
003
100
AcDbLine
 10
426.4327015638968
 20
236.4456778424929
 30
0.0
 11
529.8829835638964
 21
236.4456778424929
 31
0.0
  0
LINE
  5
247D4
330
1F
100
AcDbEntity
  8
003
100
AcDbLine
 10
426.4327015638968
 20
235.2456778424912
 30
0.0
 11
529.8829835638964
 21
235.2456778424928
 31
0.0
  0
LINE
  5
247D5
330
1F
100
AcDbEntity
  8
007
100
AcDbLine
 10
495.9829835638973
 20
225.3456778424927
 30
0.0
 11
426.4327015638968
 21
225.3456778424927
 31
0.0
  0
LINE
  5
247D6
330
1F
100
AcDbEntity
  8
007
100
AcDbLine
 10
421.4327015638968
 20
225.3457770207767
 30
0.0
 11
351.8824195638963
 21
225.3457770207768
 31
0.0
  0
LINE
  5
247D7
330
1F
100
AcDbEntity
  8
007
100
AcDbLine
 10
351.8824195638963
 20
238.1456770207767
 30
0.0
 11
421.4327015638968
 21
238.1456770207767
 31
0.0
  0
LINE
  5
247D8
330
1F
100
AcDbEntity
  8
007
100
AcDbLine
 10
351.8824195638963
 20
239.0457770207768
 30
0.0
 11
421.4327015638968
 21
239.0457770207768
 31
0.0
  0
LINE
  5
247D9
330
1F
100
AcDbEntity
  8
007
100
AcDbLine
 10
351.8824195638963
 20
234.8457770207767
 30
0.0
 11
421.4327015638968
 21
234.8457770207768
 31
0.0
  0
LEADER
  5
247DA
330
1F
100
AcDbEntity
  8
003
100
AcDbLeader
  3
DIM
 73
     0
 74
     0
 40
6.000000000000002
 41
14.7
 76
     3
 10
348.9976480957766
 20
226.5261620629673
 30
0.0
 10
355.7943605235397
 20
214.7539108136467
 30
0.0
 10
360.1801187476854
 20
214.7539108136467
 30
0.0
1001
ACAD
1000
DSTYLE
1002
{
1070
   147
1040
1.0
1070
    77
1070
     1
1002
}
  0
MTEXT
  5
247DB
102
{ACAD_REACTORS
330
247DA
102
}
330
1F
100
AcDbEntity
  8
003
 62
     7
100
AcDbMText
 10
362.1801187476854
 20
216.7539108136467
 30
0.0
 40
6.0
 41
0.0
 71
     7
 72
     1
  1
内網戸
  7
DIM
 73
     1
 44
1.0
1001
ACAD
1000
MTEXTBEGIN
1070
    73
1070
     1
1070
    44
1040
1.0
1070
    74
1070
     0
1000
MTEXTEND
  0
LINE
  5
247DC
330
1F
100
AcDbEntity
  8
007
100
AcDbLine
 10
350.8824195638963
 20
239.1457770207767
 30
0.0
 11
350.8824195638963
 21
235.6457770207767
 31
0.0
  0
LINE
  5
247DD
330
1F
100
AcDbEntity
  8
007
100
AcDbLine
 10
351.8824195638963
 20
239.0457770207768
 30
0.0
 11
351.8824195638963
 21
224.8457770207767
 31
0.0
  0
LINE
  5
247DE
330
1F
100
AcDbEntity
  8
007
100
AcDbLine
 10
351.8824195638963
 20
236.0457770207768
 30
0.0
 11
350.8824195638963
 21
236.0457770207768
 31
0.0
  0
ARC
  5
247DF
330
1F
100
AcDbEntity
  8
007
100
AcDbCircle
 10
350.3824195638963
 20
235.6457770207767
 30
0.0
 40
0.5
100
AcDbArc
 50
270.0
 51
0.0
  0
ARC
  5
247E0
330
1F
100
AcDbEntity
  8
007
100
AcDbCircle
 10
350.3824195638963
 20
239.1457770207767
 30
0.0
 40
0.5
100
AcDbArc
 50
0.0
 51
90.0
  0
LINE
  5
247E1
330
1F
100
AcDbEntity
  8
007
100
AcDbLine
 10
496.9829835638972
 20
238.1456778424927
 30
0.0
 11
519.282983563897
 21
238.1456778424927
 31
0.0
  0
LINE
  5
247E2
330
1F
100
AcDbEntity
  8
007
100
AcDbLine
 10
497.4829835638972
 20
239.6456778424926
 30
0.0
 11
518.782983563897
 21
239.6456778424926
 31
0.0
  0
LINE
  5
247E3
330
1F
100
AcDbEntity
  8
007
100
AcDbLine
 10
497.4829835638972
 20
235.1456778424926
 30
0.0
 11
518.782983563897
 21
235.1456778424926
 31
0.0
  0
LINE
  5
247E4
330
1F
100
AcDbEntity
  8
007
100
AcDbLine
 10
495.9829835638973
 20
234.8456778424927
 30
0.0
 11
524.2829835638969
 21
234.8456778424927
 31
0.0
  0
LINE
  5
247E5
330
1F
100
AcDbEntity
  8
007
100
AcDbLine
 10
495.9829835638973
 20
224.8456778424927
 30
0.0
 11
521.2829835638969
 21
224.8456778424927
 31
0.0
  0
LINE
  5
247E6
330
1F
100
AcDbEntity
  8
007
100
AcDbLine
 10
496.9829835638972
 20
239.1456778424926
 30
0.0
 11
496.9829835638972
 21
235.6456778424927
 31
0.0
  0
LINE
  5
247E7
330
1F
100
AcDbEntity
  8
007
100
AcDbLine
 10
495.9829835638973
 20
239.0456778424927
 30
0.0
 11
495.9829835638973
 21
224.8456778424927
 31
0.0
  0
ARC
  5
247E8
330
1F
100
AcDbEntity
  8
007
100
AcDbCircle
 10
497.4829835638972
 20
235.6456778424927
 30
0.0
 40
0.5
100
AcDbArc
 50
180.0
 51
270.0
  0
LINE
  5
247E9
330
1F
100
AcDbEntity
  8
007
100
AcDbLine
 10
495.9829835638973
 20
236.0456778424928
 30
0.0
 11
496.9829835638972
 21
236.0456778424928
 31
0.0
  0
ARC
  5
247EA
330
1F
100
AcDbEntity
  8
007
100
AcDbCircle
 10
497.4829835638972
 20
239.1456778424926
 30
0.0
 40
0.5
100
AcDbArc
 50
90.0
 51
180.0
  0
LINE
  5
247EB
330
1F
100
AcDbEntity
  8
007
100
AcDbLine
 10
519.282983563897
 20
239.1456778424926
 30
0.0
 11
519.282983563897
 21
235.6456778424927
 31
0.0
  0
LINE
  5
247EC
330
1F
100
AcDbEntity
  8
003
100
AcDbLine
 10
522.0829835638967
 20
236.9456778424926
 30
0.0
 11
529.8829835638964
 21
236.9456778424926
 31
0.0
  0
ARC
  5
247ED
330
1F
100
AcDbEntity
  8
007
100
AcDbCircle
 10
518.782983563897
 20
235.6456778424927
 30
0.0
 40
0.5
100
AcDbArc
 50
270.0
 51
0.0
  0
LINE
  5
247EE
330
1F
100
AcDbEntity
  8
003
100
AcDbLine
 10
522.0829835638967
 20
238.1456778424927
 30
0.0
 11
522.0829835638967
 21
236.9456778424926
 31
0.0
  0
LINE
  5
247EF
330
1F
100
AcDbEntity
  8
007
100
AcDbLine
 10
524.2829835638969
 20
234.8456778424927
 30
0.0
 11
524.2829835638969
 21
227.8456778424927
 31
0.0
  0
ARC
  5
247F0
330
1F
100
AcDbEntity
  8
007
100
AcDbCircle
 10
521.2829835638969
 20
227.8456778424927
 30
0.0
 40
3.0
100
AcDbArc
 50
270.0
 51
0.0
  0
LINE
  5
247F1
330
1F
100
AcDbEntity
  8
003
100
AcDbLine
 10
529.8829835638964
 20
231.9456778424926
 30
0.0
 11
531.0829835638967
 21
231.9456778424926
 31
0.0
  0
LINE
  5
247F2
330
1F
100
AcDbEntity
  8
003
100
AcDbLine
 10
531.0829835638967
 20
231.9456778424926
 30
0.0
 11
531.0829835638967
 21
236.9456778424926
 31
0.0
  0
LINE
  5
247F3
330
1F
100
AcDbEntity
  8
003
100
AcDbLine
 10
529.8829835638964
 20
231.9456778424926
 30
0.0
 11
529.8829835638964
 21
236.9456778424926
 31
0.0
  0
ARC
  5
247F4
330
1F
100
AcDbEntity
  8
007
100
AcDbCircle
 10
518.782983563897
 20
239.1456778424926
 30
0.0
 40
0.5
100
AcDbArc
 50
0.0
 51
90.0
  0
LINE
  5
247F5
330
1F
100
AcDbEntity
  8
003
100
AcDbLine
 10
574.0829835638967
 20
211.9456778424928
 30
0.0
 11
574.0829835638967
 21
235.2456778424928
 31
0.0
  0
LINE
  5
247F6
330
1F
100
AcDbEntity
  8
006
100
AcDbLine
 10
567.7829835638966
 20
241.5356778424928
 30
0.0
 11
575.7829835638965
 21
241.5356778424928
 31
0.0
  0
LINE
  5
247F7
330
1F
100
AcDbEntity
  8
006
100
AcDbLine
 10
571.7829835638965
 20
237.5356778424928
 30
0.0
 11
571.7829835638965
 21
245.5356778424928
 31
0.0
  0
LINE
  5
247F8
330
1F
100
AcDbEntity
  8
003
100
AcDbLine
 10
562.2829835638965
 20
238.1456778424927
 30
0.0
 11
562.2829835638965
 21
239.3456778424927
 31
0.0
  0
LINE
  5
247F9
330
1F
100
AcDbEntity
  8
003
100
AcDbLine
 10
549.4829835638967
 20
238.1456778424927
 30
0.0
 11
549.4829835638967
 21
260.7456778424928
 31
0.0
  0
LINE
  5
247FA
330
1F
100
AcDbEntity
  8
003
100
AcDbLine
 10
549.5029835638968
 20
238.1456778424927
 30
0.0
 11
574.0829835638967
 21
238.1456778424927
 31
0.0
  0
LINE
  5
247FB
330
1F
100
AcDbEntity
  8
003
100
AcDbLine
 10
567.5829835638967
 20
238.1456778424927
 30
0.0
 11
574.0829835638967
 21
238.1456778424927
 31
0.0
  0
LINE
  5
247FC
330
1F
100
AcDbEntity
  8
003
100
AcDbLine
 10
567.5829835638967
 20
236.9456778424926
 30
0.0
 11
574.0829835638967
 21
236.9456778424926
 31
0.0
  0
LINE
  5
247FD
330
1F
100
AcDbEntity
  8
003
100
AcDbLine
 10
574.0829835638967
 20
236.9456778424926
 30
0.0
 11
574.0829835638967
 21
238.1456778424927
 31
0.0
  0
LINE
  5
247FE
330
1F
100
AcDbEntity
  8
003
100
AcDbLine
 10
574.0829835638967
 20
236.4456778424929
 30
0.0
 11
574.0829835638967
 21
238.1456778424927
 31
0.0
  0
LINE
  5
247FF
330
1F
100
AcDbEntity
  8
003
100
AcDbLine
 10
571.0829835638967
 20
236.4456778424929
 30
0.0
 11
574.0829835638967
 21
236.4456778424929
 31
0.0
  0
LINE
  5
24800
330
1F
100
AcDbEntity
  8
003
100
AcDbLine
 10
571.0829835638967
 20
235.2456778424928
 30
0.0
 11
574.0829835638967
 21
235.2456778424928
 31
0.0
  0
LINE
  5
24801
330
1F
100
AcDbEntity
  8
003
100
AcDbLine
 10
571.0829835638967
 20
235.2456778424928
 30
0.0
 11
571.0829835638967
 21
236.9456778424926
 31
0.0
  0
LINE
  5
24802
330
1F
100
AcDbEntity
  8
003
100
AcDbLine
 10
562.2829835638965
 20
238.1456778424927
 30
0.0
 11
566.9829835638966
 21
238.1456778424927
 31
0.0
  0
ARC
  5
24803
330
1F
100
AcDbEntity
  8
003
100
AcDbCircle
 10
567.2829835638965
 20
236.9456778424928
 30
0.0
 40
0.2999999999999829
100
AcDbArc
 50
0.0
 51
180.0
  0
ARC
  5
24804
330
1F
100
AcDbEntity
  8
003
100
AcDbCircle
 10
567.282983563897
 20
238.1456778424927
 30
0.0
 40
0.3000000000000682
100
AcDbArc
 50
0.0000000000130276
 51
179.9999999999739
  0
LINE
  5
24805
330
1F
100
AcDbEntity
  8
003
100
AcDbLine
 10
551.1829835638966
 20
241.9456778424928
 30
0.0
 11
553.6829835638966
 21
241.9456778424928
 31
0.0
  0
LINE
  5
24806
330
1F
100
AcDbEntity
  8
003
100
AcDbLine
 10
549.4829835638967
 20
260.7456778424928
 30
0.0
 11
550.6829835638966
 21
260.7456778424928
 31
0.0
  0
LINE
  5
24807
330
1F
100
AcDbEntity
  8
003
100
AcDbLine
 10
549.4829835638966
 20
253.4456778424929
 30
0.0
 11
551.1829835638966
 21
253.4456778424929
 31
0.0
  0
LINE
  5
24808
330
1F
100
AcDbEntity
  8
003
100
AcDbLine
 10
549.4829835638966
 20
260.4456778424928
 30
0.0
 11
551.1829835638966
 21
260.4456778424928
 31
0.0
  0
LINE
  5
24809
330
1F
100
AcDbEntity
  8
003
100
AcDbLine
 10
569.1844237541977
 20
240.0365157713952
 30
0.0
 11
570.2216533820275
 21
240.6399948275873
 31
0.0
  0
ARC
  5
2480A
330
1F
100
AcDbEntity
  8
003
100
AcDbCircle
 10
571.7829835638965
 20
241.535677842493
 30
0.0
 40
3.0
100
AcDbArc
 50
209.981522743161
 51
226.8863940541011
  0
LINE
  5
2480B
330
1F
100
AcDbEntity
  8
003
100
AcDbLine
 10
569.1844268057509
 20
243.0348452029616
 30
0.0
 11
570.2238495090077
 21
242.4351782587748
 31
0.0
  0
ARC
  5
2480C
330
1F
100
AcDbEntity
  8
003
100
AcDbCircle
 10
571.7829835638965
 20
241.535677842493
 30
0.0
 40
3.0
100
AcDbArc
 50
39.94450518981577
 51
150.0183606311517
  0
ARC
  5
2480D
330
1F
100
AcDbEntity
  8
003
100
AcDbCircle
 10
571.7829835638965
 20
241.535677842493
 30
0.0
 40
1.8
100
AcDbArc
 50
209.8414545361665
 51
150.0183606311517
  0
LINE
  5
2480E
330
1F
100
AcDbEntity
  8
003
100
AcDbLine
 10
562.2829835638965
 20
239.3456778424927
 30
0.0
 11
569.7326421289155
 21
239.3456778424927
 31
0.0
  0
LINE
  5
2480F
330
1F
100
AcDbEntity
  8
003
100
AcDbLine
 10
547.2829835638965
 20
272.9456645561772
 30
0.0
 11
426.4327015638968
 21
272.9456645561774
 31
0.0
  0
LINE
  5
24810
330
1F
100
AcDbEntity
  8
003
100
AcDbLine
 10
545.2829835638965
 20
276.9456778424928
 30
0.0
 11
426.4327015638968
 21
276.9456778424925
 31
0.0
  0
LINE
  5
24811
330
1F
100
AcDbEntity
  8
003
100
AcDbLine
 10
545.2829835638965
 20
275.7456778424928
 30
0.0
 11
426.4327015638968
 21
275.7456778424928
 31
0.0
  0
DIMENSION
  5
24812
330
1F
100
AcDbEntity
  8
003
100
AcDbDimension
  2
*D45
 10
695.2246485627205
 20
531.828106355482
 30
0.0
 11
690.2246485627204
 21
477.1534075724954
 31
0.0
 70
    32
  1
製品H
 71
     5
 42
109.3493975659734
  3
DIM
100
AcDbAlignedDimension
 13
656.462636716727
 23
422.4787087895085
 33
0.0
 14
656.462636716727
 24
531.828106355482
 34
0.0
 50
90.0
100
AcDbRotatedDimension
  0
DIMENSION
  5
24813
330
1F
100
AcDbEntity
  8
003
100
AcDbDimension
  2
*D46
 10
656.462636716727
 20
395.8809083129165
 30
0.0
 11
610.7076104784225
 21
400.8809083129165
 31
0.0
 70
    32
  1
製品W
 71
     5
 42
91.51005247660895
  3
DIM
100
AcDbAlignedDimension
 13
564.9525842401181
 23
420.5287087897037
 33
0.0
 14
656.462636716727
 24
420.5287087897035
 34
0.0
100
AcDbRotatedDimension
  0
LINE
  5
24814
330
1F
100
AcDbEntity
  8
003
100
AcDbLine
 10
570.7076104784225
 20
365.7995361874546
 30
0.0
 11
650.7076104784225
 21
365.7995361874546
 31
0.0
  0
LINE
  5
24815
330
1F
100
AcDbEntity
  8
003
100
AcDbLine
 10
570.7076104784225
 20
380.7995361874546
 30
0.0
 11
650.7076104784225
 21
380.7995361874546
 31
0.0
  0
TEXT
  5
24816
330
1F
100
AcDbEntity
  8
0
100
AcDbText
 10
592.8409438117559
 20
369.2995361874546
 30
0.0
 40
8.0
  1
外観姿図
  7
AT_VECTOR
 72
     1
 11
610.7076104784225
 21
373.2995361874546
 31
0.0
100
AcDbText
 73
     2
  0
LINE
  5
24817
330
1F
100
AcDbEntity
  8
003
100
AcDbLine
 10
570.7076104784225
 20
380.7995361874546
 30
0.0
 11
570.7076104784225
 21
365.7995361874546
 31
0.0
  0
MTEXT
  5
24818
102
{ACAD_REACTORS
330
24819
102
}
330
1F
100
AcDbEntity
  8
003
 62
     7
100
AcDbMText
 10
664.2337740310765
 20
379.3492566627517
 30
0.0
 40
6.0
 41
0.0
 71
     7
 72
     1
  1
取付金具（下部）
  7
DIM
 73
     1
 44
1.0
1001
ACAD
1000
MTEXTBEGIN
1070
    73
1070
     1
1070
    44
1040
1.0
1070
    74
1070
     0
1000
MTEXTEND
  0
LEADER
  5
24819
330
1F
100
AcDbEntity
  8
003
100
AcDbLeader
  3
DIM
 73
     0
 74
     0
 40
6.000000000000001
 41
39.29999999999998
 76
     3
 10
633.4118716048066
 20
422.3492280126599
 30
0.0
 10
660.7823541824273
 20
377.3492566627517
 30
0.0
 10
662.2337740310765
 20
377.3492566627517
 30
0.0
1001
ACAD
1000
DSTYLE
1002
{
1070
   147
1040
1.0
1070
    77
1070
     1
1002
}
  0
LINE
  5
2481A
330
1F
100
AcDbEntity
  8
003
100
AcDbLine
 10
650.7076104784225
 20
380.7995361874546
 30
0.0
 11
650.7076104784225
 21
365.7995361874546
 31
0.0
  0
LEADER
  5
2481B
330
1F
100
AcDbEntity
  8
003
100
AcDbLeader
  3
DIM
 73
     0
 74
     0
 40
6.000000000000001
 41
9.600000000000001
 76
     3
 10
628.0042992451744
 20
484.6082932363085
 30
0.0
 10
634.2652161092614
 20
495.4525193468721
 30
0.0
 10
662.7659387768185
 20
495.4525193468721
 30
0.0
1001
ACAD
1000
DSTYLE
1002
{
1070
   147
1040
1.0
1070
    77
1070
     1
1002
}
  0
MTEXT
  5
2481C
102
{ACAD_REACTORS
330
2481B
102
}
330
1F
100
AcDbEntity
  8
003
 62
     7
100
AcDbMText
 10
664.7659387768185
 20
497.452519346872
 30
0.0
 40
6.0
 41
0.0
 71
     7
 72
     1
  1
羽根
  7
DIM
 73
     1
 44
1.0
1001
ACAD
1000
MTEXTBEGIN
1070
    73
1070
     1
1070
    44
1040
1.0
1070
    74
1070
     0
1000
MTEXTEND
  0
LEADER
  5
2481D
330
1F
100
AcDbEntity
  8
003
100
AcDbLeader
  3
DIM
 73
     0
 40
6.0
 41
18.68571428571429
 76
     3
 10
570.0471249017453
 20
476.1107958228335
 30
0.0
 10
558.4458192827423
 20
496.2048465890811
 30
0.0
 10
554.6080450081896
 20
496.2048465890811
 30
0.0
1001
ACAD
1000
DSTYLE
1002
{
1070
   147
1040
1.0
1070
    77
1070
     1
1002
}
  0
MTEXT
  5
2481E
102
{ACAD_REACTORS
330
2481D
102
}
330
1F
100
AcDbEntity
  8
003
 62
     7
100
AcDbMText
 10
552.6080450081897
 20
498.2048465890811
 30
0.0
 40
6.0
 41
0.0
 71
     9
 72
     1
  1
Ｈ材1型
  7
DIM
 73
     1
 44
1.0
1001
ACAD
1000
MTEXTBEGIN
1070
    73
1070
     1
1070
    44
1040
1.0
1070
    74
1070
     0
1000
MTEXTEND
  0
LEADER
  5
2481F
330
1F
100
AcDbEntity
  8
003
100
AcDbLeader
  3
DIM
 73
     0
 40
6.000000000000003
 41
54.38571428571428
 76
     3
 10
566.5511922009312
 20
530.2614703813974
 30
0.0
 10
560.3669901058609
 20
540.9728226143329
 30
0.0
 10
559.9479114314735
 20
540.9728226143329
 30
0.0
1001
ACAD
1000
DSTYLE
1002
{
1070
   147
1040
1.0
1070
    77
1070
     1
1002
}
  0
MTEXT
  5
24820
102
{ACAD_REACTORS
330
2481F
102
}
330
1F
100
AcDbEntity
  8
003
 62
     7
100
AcDbMText
 10
557.9479114314734
 20
542.9728226143329
 30
0.0
 40
6.0
 41
0.0
 71
     9
 72
     1
  1
安全キャップ（4ヶ所）
  7
DIM
 73
     1
 44
1.0
1001
ACAD
1000
MTEXTBEGIN
1070
    73
1070
     1
1070
    44
1040
1.0
1070
    74
1070
     0
1000
MTEXTEND
  0
MTEXT
  5
24821
102
{ACAD_REACTORS
330
24822
102
}
330
1F
100
AcDbEntity
  8
003
 62
     7
100
AcDbMText
 10
645.9265133804072
 20
544.5993738080499
 30
0.0
 40
6.0
 41
0.0
 71
     7
 72
     1
  1
取付金具（上部）
  7
DIM
 73
     1
 44
1.0
1001
ACAD
1000
MTEXTBEGIN
1070
    73
1070
     1
1070
    44
1040
1.0
1070
    74
1070
     0
1000
MTEXTEND
  0
LEADER
  5
24822
330
1F
100
AcDbEntity
  8
003
100
AcDbLeader
  3
DIM
 73
     0
 74
     0
 40
6.000000000000001
 41
39.29999999999998
 76
     3
 10
633.7572533616525
 20
532.8019678445023
 30
0.0
 10
639.4137883320669
 20
542.5993738080499
 30
0.0
 10
643.9265133804073
 20
542.5993738080499
 30
0.0
1001
ACAD
1000
DSTYLE
1002
{
1070
   147
1040
1.0
1070
    77
1070
     1
1002
}
  0
DIMENSION
  5
24823
330
1F
100
AcDbEntity
  8
003
100
AcDbDimension
  2
*D47
 10
575.2829835638965
 20
294.3949215687479
 30
0.0
 11
560.2829835638965
 21
299.3949215687479
 31
0.0
 70
    32
 71
     5
 42
30.0
  3
DIM
100
AcDbAlignedDimension
 13
545.2829835638965
 23
276.9456778424928
 33
0.0
 14
575.2829835638965
 24
266.9456778424928
 34
0.0
100
AcDbRotatedDimension
  0
MTEXT
  5
24824
102
{ACAD_REACTORS
330
24825
102
}
330
1F
100
AcDbEntity
  8
003
 62
     7
100
AcDbMText
 10
597.1241954009492
 20
250.4851077711377
 30
0.0
 40
6.0
 41
0.0
 71
     7
 72
     1
  1
Ｈ材1型
  7
DIM
 73
     1
 44
1.0
1001
ACAD
1000
MTEXTBEGIN
1070
    73
1070
     1
1070
    44
1040
1.0
1070
    74
1070
     0
1000
MTEXTEND
  0
LEADER
  5
24825
330
1F
100
AcDbEntity
  8
003
100
AcDbLeader
  3
DIM
 73
     0
 74
     0
 40
6.0
 41
18.68571428571429
 76
     3
 10
575.2829835638965
 20
227.6528407999191
 30
0.0
 10
587.3104985075594
 20
248.4851077711377
 30
0.0
 10
595.1241954009492
 20
248.4851077711377
 30
0.0
1001
ACAD
1000
DSTYLE
1002
{
1070
   147
1040
1.0
1070
    77
1070
     1
1002
}
  0
ARC
  5
24826
330
1F
100
AcDbEntity
  8
003
100
AcDbCircle
 10
565.2829835638965
 20
266.9456778424928
 30
0.0
 40
8.8
100
AcDbArc
 50
0.0
 51
90.0
  0
ARC
  5
24827
330
1F
100
AcDbEntity
  8
003
100
AcDbCircle
 10
565.2829835638965
 20
266.9456778424928
 30
0.0
 40
10.0
100
AcDbArc
 50
0.0
 51
90.0
  0
LINE
  5
24828
330
1F
100
AcDbEntity
  8
003
100
AcDbLine
 10
553.7091195923223
 20
275.7456778424928
 30
0.0
 11
565.2829835638965
 21
275.7456778424928
 31
0.0
  0
LINE
  5
24829
330
1F
100
AcDbEntity
  8
003
100
AcDbLine
 10
545.2829835638965
 20
276.9456778424928
 30
0.0
 11
565.2829835638965
 21
276.9456778424928
 31
0.0
  0
LINE
  5
2482A
330
1F
100
AcDbEntity
  8
003
100
AcDbLine
 10
552.5603751600828
 20
270.548150913165
 30
0.0
 11
552.2536671895339
 21
271.7083071495888
 31
0.0
  0
ARC
  5
2482B
330
1F
100
AcDbEntity
  8
003
100
AcDbCircle
 10
551.782983563897
 20
273.4456778424928
 30
0.0
 40
3.0
100
AcDbArc
 50
273.8225537292708
 51
285.0184772568367
  0
LINE
  5
2482C
330
1F
100
AcDbEntity
  8
003
100
AcDbLine
 10
554.6805120756005
 20
272.6682921442309
 30
0.0
 11
553.5215006709204
 21
272.9792464235352
 31
0.0
  0
ARC
  5
2482D
330
1F
100
AcDbEntity
  8
003
100
AcDbCircle
 10
551.782983563897
 20
273.4456778424928
 30
0.0
 40
3.0
100
AcDbArc
 50
344.9816393688467
 51
50.05549481018423
  0
LINE
  5
2482E
330
1F
100
AcDbEntity
  8
003
100
AcDbLine
 10
551.9829835638965
 20
268.1456778424927
 30
0.0
 11
552.3829835638967
 21
268.1456778424927
 31
0.0
  0
LINE
  5
2482F
330
1F
100
AcDbEntity
  8
003
100
AcDbLine
 10
551.1829835638966
 20
263.9456778424928
 30
0.0
 11
552.3829835638964
 21
263.9456778424928
 31
0.0
  0
LINE
  5
24830
330
1F
100
AcDbEntity
  8
003
100
AcDbLine
 10
551.1829835638966
 20
263.9456778424928
 30
0.0
 11
551.1829835638966
 21
266.9456778424928
 31
0.0
  0
LINE
  5
24831
330
1F
100
AcDbEntity
  8
003
100
AcDbLine
 10
552.3829835638964
 20
263.9456778424928
 30
0.0
 11
552.3829835638967
 21
268.1456778424927
 31
0.0
  0
LINE
  5
24832
330
1F
100
AcDbEntity
  8
003
100
AcDbLine
 10
551.1829835638966
 20
261.9456778424928
 30
0.0
 11
556.1829835638966
 21
261.9456778424928
 31
0.0
  0
LINE
  5
24833
330
1F
100
AcDbEntity
  8
003
100
AcDbLine
 10
551.9829835638965
 20
268.1456778424927
 30
0.0
 11
551.9829835638965
 21
270.4523519330737
 31
0.0
  0
LINE
  5
24834
330
1F
100
AcDbEntity
  8
003
100
AcDbLine
 10
545.2829835638965
 20
275.7456778424928
 30
0.0
 11
545.2829835638965
 21
276.9456778424928
 31
0.0
  0
LINE
  5
24835
330
1F
100
AcDbEntity
  8
003
100
AcDbLine
 10
545.2829835638965
 20
275.7456778424928
 30
0.0
 11
548.2829835638965
 21
275.7456778424928
 31
0.0
  0
LINE
  5
24836
330
1F
100
AcDbEntity
  8
003
100
AcDbLine
 10
549.4829835638967
 20
266.9456778424926
 30
0.0
 11
550.6829835638966
 21
266.9456778424926
 31
0.0
  0
LINE
  5
24837
330
1F
100
AcDbEntity
  8
003
100
AcDbLine
 10
549.4829835638967
 20
261.9456778424926
 30
0.0
 11
549.4829835638967
 21
266.9456778424926
 31
0.0
  0
LINE
  5
24838
330
1F
100
AcDbEntity
  8
003
100
AcDbLine
 10
549.4829835638966
 20
261.9456778424928
 30
0.0
 11
549.4829835638966
 21
266.9456778424928
 31
0.0
  0
LINE
  5
24839
330
1F
100
AcDbEntity
  8
003
100
AcDbLine
 10
548.2829835638965
 20
261.9456778424926
 30
0.0
 11
549.4829835638967
 21
261.9456778424926
 31
0.0
  0
LINE
  5
2483A
330
1F
100
AcDbEntity
  8
003
100
AcDbLine
 10
548.2829835638965
 20
261.9456778424928
 30
0.0
 11
549.4829835638966
 21
261.9456778424928
 31
0.0
  0
LINE
  5
2483B
330
1F
100
AcDbEntity
  8
003
100
AcDbLine
 10
548.2829835638965
 20
261.9456778424928
 30
0.0
 11
548.2829835638965
 21
275.7456778424928
 31
0.0
  0
LINE
  5
2483C
330
1F
100
AcDbEntity
  8
006
100
AcDbLine
 10
548.9545564391505
 20
270.6172507177466
 30
0.0
 11
554.6114106886427
 21
276.2741049672391
 31
0.0
  0
LINE
  5
2483D
330
1F
100
AcDbEntity
  8
006
100
AcDbLine
 10
554.6114106886427
 20
270.6172507177466
 30
0.0
 11
548.9545564391503
 21
276.2741049672388
 31
0.0
  0
LINE
  5
2483E
330
1F
100
AcDbEntity
  8
003
100
AcDbLine
 10
549.4829835638966
 20
266.9456778424928
 30
0.0
 11
551.1829835638966
 21
266.9456778424928
 31
0.0
  0
ARC
  5
2483F
330
1F
100
AcDbEntity
  8
003
100
AcDbCircle
 10
551.782983563897
 20
273.4456778424928
 30
0.0
 40
1.8
100
AcDbArc
 50
344.9816393688467
 51
285.158545463826
  0
TEXT
  5
24840
330
1F
100
AcDbEntity
  8
0
100
AcDbText
 10
44.00000000000011
 20
537.0
 30
0.0
 40
6.0
  1
名称
  7
AT_VECTOR
 11
44.00000000000011
 21
540.0
 31
0.0
100
AcDbText
 73
     2
  0
TEXT
  5
24841
330
1F
100
AcDbEntity
  8
0
100
AcDbText
 10
44.00000000000011
 20
549.0
 30
0.0
 40
6.0
  1
形式
  7
AT_VECTOR
 11
44.00000000000011
 21
552.0
 31
0.0
100
AcDbText
 73
     2
  0
LINE
  5
24842
330
1F
100
AcDbEntity
  8
003
100
AcDbLine
 10
40.00000000000011
 20
546.0
 30
0.0
 11
175.0000000000001
 21
546.0
 31
0.0
  0
LINE
  5
24843
330
1F
100
AcDbEntity
  8
003
100
AcDbLine
 10
40.00000000000011
 20
534.0
 30
0.0
 11
175.0000000000001
 21
534.0
 31
0.0
  0
TEXT
  5
24844
330
1F
100
AcDbEntity
  8
0
100
AcDbText
 10
44.00000000000011
 20
501.0
 30
0.0
 40
6.0
  1
付属品
  7
AT_VECTOR
 11
44.00000000000011
 21
504.0
 31
0.0
100
AcDbText
 73
     2
  0
LINE
  5
24845
330
1F
100
AcDbEntity
  8
003
100
AcDbLine
 10
40.00000000000011
 20
510.0
 30
0.0
 11
175.0000000000001
 21
510.0
 31
0.0
  0
LINE
  5
24846
330
1F
100
AcDbEntity
  8
003
100
AcDbLine
 10
40.00000000000011
 20
498.0
 30
0.0
 11
175.0000000000001
 21
498.0
 31
0.0
  0
LINE
  5
24847
330
1F
100
AcDbEntity
  8
003
100
AcDbLine
 10
40.00000000000011
 20
438.0
 30
0.0
 11
175.0000000000001
 21
438.0
 31
0.0
  0
TEXT
  5
24848
330
1F
100
AcDbEntity
  8
0
100
AcDbText
 10
44.00000000000011
 20
489.0
 30
0.0
 40
6.0
  1
備考
  7
AT_VECTOR
 11
44.00000000000011
 21
492.0
 31
0.0
100
AcDbText
 73
     2
  0
TEXT
  5
24849
330
1F
100
AcDbEntity
  8
0
100
AcDbText
 10
44.00000000000011
 20
513.0
 30
0.0
 40
6.0
  1
製品色
  7
AT_VECTOR
 11
44.00000000000011
 21
516.0
 31
0.0
100
AcDbText
 73
     2
  0
LINE
  5
2484A
330
1F
100
AcDbEntity
  8
003
100
AcDbLine
 10
40.00000000000011
 20
522.0
 30
0.0
 11
175.0000000000001
 21
522.0
 31
0.0
  0
TEXT
  5
2484B
330
1F
100
AcDbEntity
  8
0
100
AcDbText
 10
44.00000000000011
 20
525.0
 30
0.0
 40
6.0
  1
ｻｯｼﾒｰｶｰ
  7
AT_VECTOR
 11
44.00000000000011
 21
528.0
 31
0.0
100
AcDbText
 73
     2
  0
LINE
  5
2484C
330
1F
100
AcDbEntity
  8
003
100
AcDbLine
 10
175.0000000000001
 20
558.0
 30
0.0
 11
175.0000000000001
 21
438.0
 31
0.0
  0
LINE
  5
2484D
330
1F
100
AcDbEntity
  8
003
100
AcDbLine
 10
75.00000000000011
 20
558.0
 30
0.0
 11
75.00000000000011
 21
498.0
 31
0.0
  0
TEXT
  5
2484E
330
1F
100
AcDbEntity
  8
0
100
AcDbText
 10
79.00000000000011
 20
501.0
 30
0.0
 40
6.0
  1
取付金具
  7
AT_VECTOR
 11
79.00000000000011
 21
504.0
 31
0.0
100
AcDbText
 73
     2
  0
TEXT
  5
2484F
330
1F
100
AcDbEntity
  8
0
100
AcDbText
 10
79.00000000000011
 20
525.0
 30
0.0
 40
6.0
  1
ＹＫＫ（ＥＸＩＭＡ３１）
  7
AT_VECTOR
 11
79.00000000000011
 21
528.0
 31
0.0
100
AcDbText
 73
     2
  0
TEXT
  5
24850
330
1F
100
AcDbEntity
  8
0
100
AcDbText
 10
194.7479322779402
 20
517.9332677470681
 30
0.0
 40
8.0
  1
※製作範囲
  7
AT_VECTOR
100
AcDbText
  0
TEXT
  5
24851
330
1F
100
AcDbEntity
  8
0
100
AcDbText
 10
204.4458488650173
 20
502.9332677470679
 30
0.0
 40
8.0
  1
サッシＷ＝２５２～８０２
  7
AT_VECTOR
100
AcDbText
  0
TEXT
  5
24852
330
1F
100
AcDbEntity
  8
0
100
AcDbText
 10
204.4458488650173
 20
487.9332677470679
 30
0.0
 40
8.0
  1
サッシＨ＝３００～９６３
  7
AT_VECTOR
100
AcDbText
  0
LINE
  5
24853
330
1F
100
AcDbEntity
  8
003
100
AcDbLine
 10
199.0212626666846
 20
515.4661076327386
 30
0.0
 11
199.0212626666846
 21
481.708116720541
 31
0.0
  0
LINE
  5
24854
330
1F
100
AcDbEntity
  8
003
100
AcDbLine
 10
199.0212626666846
 20
481.708116720541
 30
0.0
 11
322.6549025812212
 21
481.708116720541
 31
0.0
  0
LINE
  5
24855
330
1F
100
AcDbEntity
  8
003
100
AcDbLine
 10
322.6549025812212
 20
481.708116720541
 30
0.0
 11
322.6549025812212
 21
521.4050126380008
 31
0.0
  0
LINE
  5
24856
330
1F
100
AcDbEntity
  8
003
100
AcDbLine
 10
243.1311383070195
 20
521.4050126380008
 30
0.0
 11
322.6549025812212
 21
521.4050126380008
 31
0.0
  0
DIMENSION
  5
24857
330
1F
100
AcDbEntity
  8
0
100
AcDbDimension
  2
*D48
 10
482.2846394199674
 20
213.9456778424929
 30
0.0
 11
477.2846394199674
 21
178.9456778424931
 31
0.0
 70
    32
 71
     5
 42
69.9999999999998
  3
DIM
100
AcDbAlignedDimension
 13
426.4327015638968
 23
143.9456778424932
 33
0.0
 14
575.2829835638965
 24
213.9456778424929
 34
0.0
 50
90.0
100
AcDbRotatedDimension
  0
DIMENSION
  5
24858
330
1F
100
AcDbEntity
  8
0
100
AcDbDimension
  2
*D49
 10
482.2846394199674
 20
276.9456778424928
 30
0.0
 11
477.2846394199674
 21
245.445677842493
 31
0.0
 70
    32
 71
     5
 42
62.99999999999989
  3
DIM
100
AcDbAlignedDimension
 13
575.2829835638965
 23
213.9456778424929
 33
0.0
 14
545.2829835638965
 24
276.9456778424928
 34
0.0
 50
90.0
100
AcDbRotatedDimension
  0
LINE
  5
24859
330
1F
100
AcDbEntity
  8
0
100
AcDbLine
 10
426.4327015638968
 20
325.9455872697514
 30
0.0
 11
606.2829835638964
 21
325.9455872697513
 31
0.0
  0
LINE
  5
2485A
330
1F
100
AcDbEntity
  8
0
100
AcDbLine
 10
606.2829835638964
 20
325.9455872697513
 30
0.0
 11
606.2829835638964
 21
313.9455872697513
 31
0.0
  0
LINE
  5
2485B
330
1F
100
AcDbEntity
  8
0
100
AcDbLine
 10
591.2829835638964
 20
303.9455872697513
 30
0.0
 11
591.2829835638964
 21
228.9455872697513
 31
0.0
  0
LINE
  5
2485C
330
1F
100
AcDbEntity
  8
0
100
AcDbLine
 10
623.452983563896
 20
285.566783259962
 30
0.0
 11
591.2829835638964
 21
253.3967832599617
 31
0.0
  0
LINE
  5
2485D
330
1F
100
AcDbEntity
  8
0
100
AcDbLine
 10
623.452983563896
 20
288.3867832599617
 30
0.0
 11
591.2829835638964
 21
256.2167832599616
 31
0.0
  0
LINE
  5
2485E
330
1F
100
AcDbEntity
  8
0
100
AcDbLine
 10
623.452983563896
 20
291.2067832599618
 30
0.0
 11
591.2829835638964
 21
259.0367832599616
 31
0.0
  0
LINE
  5
2485F
330
1F
100
AcDbEntity
  8
0
100
AcDbLine
 10
601.2829835638964
 20
313.9455872697513
 30
0.0
 11
619.3329835638961
 21
313.9455872697513
 31
0.0
  0
LINE
  5
24860
330
1F
100
AcDbEntity
  8
0
100
AcDbLine
 10
601.2829835638964
 20
313.9455872697513
 30
0.0
 11
591.2829835638964
 21
303.9455872697513
 31
0.0
  0
LINE
  5
24861
330
1F
100
AcDbEntity
  8
0
100
AcDbLine
 10
619.3329835638961
 20
313.9455872697513
 30
0.0
 11
623.452983563896
 21
313.9455872697513
 31
0.0
  0
LINE
  5
24862
330
1F
100
AcDbEntity
  8
0
100
AcDbLine
 10
591.2829835638964
 20
228.9455872697513
 30
0.0
 11
623.452983563896
 21
228.9455872697513
 31
0.0
  0
LINE
  5
24863
330
1F
100
AcDbEntity
  8
0
100
AcDbLine
 10
592.2829835638964
 20
227.9455872697513
 30
0.0
 11
592.2829835638964
 21
214.9455872697511
 31
0.0
  0
LINE
  5
24864
330
1F
100
AcDbEntity
  8
0
100
AcDbLine
 10
592.2829835638964
 20
218.6171601450051
 30
0.0
 11
601.2829835638964
 21
227.6171601450049
 31
0.0
  0
LINE
  5
24865
330
1F
100
AcDbEntity
  8
0
100
AcDbLine
 10
592.2829835638964
 20
221.4455872697511
 30
0.0
 11
599.7829835638964
 21
228.945587269751
 31
0.0
  0
LINE
  5
24866
330
1F
100
AcDbEntity
  8
0
100
AcDbLine
 10
592.2829835638964
 20
224.2740143944973
 30
0.0
 11
596.9545564391504
 21
228.945587269751
 31
0.0
  0
LINE
  5
24867
330
1F
100
AcDbEntity
  8
0
100
AcDbLine
 10
596.0966920628813
 20
228.9455872697513
 30
0.0
 11
601.2829835638964
 21
223.7592957687361
 31
0.0
  0
LINE
  5
24868
330
1F
100
AcDbEntity
  8
0
100
AcDbLine
 10
593.2682649381348
 20
228.9455872697513
 30
0.0
 11
601.2829835638964
 21
220.9308686439899
 31
0.0
  0
LINE
  5
24869
330
1F
100
AcDbEntity
  8
0
100
AcDbLine
 10
592.2829835638964
 20
227.1024415192435
 30
0.0
 11
601.2829835638964
 21
218.1024415192437
 31
0.0
  0
LINE
  5
2486A
330
1F
100
AcDbEntity
  8
0
100
AcDbLine
 10
592.2829835638964
 20
227.1024415192435
 30
0.0
 11
594.1261293144042
 21
228.945587269751
 31
0.0
  0
LINE
  5
2486B
330
1F
100
AcDbEntity
  8
0
100
AcDbLine
 10
598.9251191876275
 20
228.9455872697513
 30
0.0
 11
601.2829835638964
 21
226.5877228934824
 31
0.0
  0
LINE
  5
2486C
330
1F
100
AcDbEntity
  8
0
100
AcDbLine
 10
592.2829835638964
 20
227.9455872697513
 30
0.0
 11
591.2829835638964
 21
228.9455872697513
 31
0.0
  0
LINE
  5
2486D
330
1F
100
AcDbEntity
  8
0
100
AcDbLine
 10
592.2829835638964
 20
215.7887330202588
 30
0.0
 11
601.2829835638964
 21
224.7887330202587
 31
0.0
  0
LINE
  5
2486E
330
1F
100
AcDbEntity
  8
0
100
AcDbLine
 10
592.2829835638964
 20
224.2740143944973
 30
0.0
 11
601.2829835638964
 21
215.2740143944975
 31
0.0
  0
LINE
  5
2486F
330
1F
100
AcDbEntity
  8
0
100
AcDbLine
 10
592.2829835638964
 20
214.9455872697511
 30
0.0
 11
591.2829835638964
 21
213.9455872697513
 31
0.0
  0
LINE
  5
24870
330
1F
100
AcDbEntity
  8
0
100
AcDbLine
 10
598.9251191876275
 20
213.9455872697511
 30
0.0
 11
601.2829835638964
 21
216.30345164602
 31
0.0
  0
LINE
  5
24871
330
1F
100
AcDbEntity
  8
0
100
AcDbLine
 10
593.2682649381348
 20
213.9455872697511
 30
0.0
 11
601.2829835638964
 21
221.9603058955124
 31
0.0
  0
LINE
  5
24872
330
1F
100
AcDbEntity
  8
0
100
AcDbLine
 10
596.0966920628813
 20
213.9455872697511
 30
0.0
 11
601.2829835638964
 21
219.1318787707662
 31
0.0
  0
LINE
  5
24873
330
1F
100
AcDbEntity
  8
0
100
AcDbLine
 10
592.2829835638964
 20
218.6171601450051
 30
0.0
 11
596.9545564391504
 21
213.9455872697513
 31
0.0
  0
LINE
  5
24874
330
1F
100
AcDbEntity
  8
0
100
AcDbLine
 10
592.2829835638964
 20
215.7887330202588
 30
0.0
 11
594.1261293144042
 21
213.9455872697513
 31
0.0
  0
LINE
  5
24875
330
1F
100
AcDbEntity
  8
0
100
AcDbLine
 10
592.2829835638964
 20
221.4455872697513
 30
0.0
 11
599.7829835638964
 21
213.9455872697513
 31
0.0
  0
LINE
  5
24876
330
1F
100
AcDbEntity
  8
0
100
AcDbLine
 10
421.1329835638961
 20
325.9455872697514
 30
0.0
 11
241.2827015638965
 21
325.9455872697513
 31
0.0
  0
LINE
  5
24877
330
1F
100
AcDbEntity
  8
0
100
AcDbLine
 10
241.2827015638965
 20
325.9455872697513
 30
0.0
 11
241.2827015638965
 21
313.9455872697513
 31
0.0
  0
LINE
  5
24878
330
1F
100
AcDbEntity
  8
0
100
AcDbLine
 10
256.2827015638965
 20
303.9455872697513
 30
0.0
 11
256.2827015638965
 21
228.9455872697513
 31
0.0
  0
LINE
  5
24879
330
1F
100
AcDbEntity
  8
0
100
AcDbLine
 10
246.2827015638965
 20
313.9455872697513
 30
0.0
 11
228.2327015638967
 21
313.9455872697513
 31
0.0
  0
LINE
  5
2487A
330
1F
100
AcDbEntity
  8
0
100
AcDbLine
 10
246.2827015638965
 20
313.9455872697513
 30
0.0
 11
256.2827015638965
 21
303.9455872697513
 31
0.0
  0
LINE
  5
2487B
330
1F
100
AcDbEntity
  8
0
100
AcDbLine
 10
228.2327015638967
 20
313.9455872697513
 30
0.0
 11
224.1127015638968
 21
313.9455872697513
 31
0.0
  0
LINE
  5
2487C
330
1F
100
AcDbEntity
  8
0
100
AcDbLine
 10
256.2827015638965
 20
228.9455872697513
 30
0.0
 11
224.1127015638968
 21
228.9455872697513
 31
0.0
  0
LINE
  5
2487D
330
1F
100
AcDbEntity
  8
0
100
AcDbLine
 10
255.2827015638964
 20
227.9455872697513
 30
0.0
 11
255.2827015638964
 21
214.9455872697511
 31
0.0
  0
LINE
  5
2487E
330
1F
100
AcDbEntity
  8
0
100
AcDbLine
 10
255.2827015638964
 20
218.6171601450051
 30
0.0
 11
246.2827015638965
 21
227.6171601450049
 31
0.0
  0
LINE
  5
2487F
330
1F
100
AcDbEntity
  8
0
100
AcDbLine
 10
255.2827015638964
 20
221.4455872697511
 30
0.0
 11
247.7827015638965
 21
228.945587269751
 31
0.0
  0
LINE
  5
24880
330
1F
100
AcDbEntity
  8
0
100
AcDbLine
 10
255.2827015638964
 20
224.2740143944973
 30
0.0
 11
250.6111286886425
 21
228.945587269751
 31
0.0
  0
LINE
  5
24881
330
1F
100
AcDbEntity
  8
0
100
AcDbLine
 10
251.4689930649116
 20
228.9455872697513
 30
0.0
 11
246.2827015638965
 21
223.7592957687361
 31
0.0
  0
LINE
  5
24882
330
1F
100
AcDbEntity
  8
0
100
AcDbLine
 10
254.297420189658
 20
228.9455872697513
 30
0.0
 11
246.2827015638965
 21
220.9308686439899
 31
0.0
  0
LINE
  5
24883
330
1F
100
AcDbEntity
  8
0
100
AcDbLine
 10
255.2827015638964
 20
227.1024415192435
 30
0.0
 11
246.2827015638965
 21
218.1024415192437
 31
0.0
  0
LINE
  5
24884
330
1F
100
AcDbEntity
  8
0
100
AcDbLine
 10
255.2827015638964
 20
227.1024415192435
 30
0.0
 11
253.4395558133887
 21
228.945587269751
 31
0.0
  0
LINE
  5
24885
330
1F
100
AcDbEntity
  8
0
100
AcDbLine
 10
248.6405659401654
 20
228.9455872697513
 30
0.0
 11
246.2827015638965
 21
226.5877228934824
 31
0.0
  0
LINE
  5
24886
330
1F
100
AcDbEntity
  8
0
100
AcDbLine
 10
255.2827015638964
 20
227.9455872697513
 30
0.0
 11
256.2827015638965
 21
228.9455872697513
 31
0.0
  0
LINE
  5
24887
330
1F
100
AcDbEntity
  8
0
100
AcDbLine
 10
255.2827015638964
 20
215.7887330202588
 30
0.0
 11
246.2827015638965
 21
224.7887330202587
 31
0.0
  0
LINE
  5
24888
330
1F
100
AcDbEntity
  8
0
100
AcDbLine
 10
255.2827015638964
 20
224.2740143944973
 30
0.0
 11
246.2827015638965
 21
215.2740143944975
 31
0.0
  0
LINE
  5
24889
330
1F
100
AcDbEntity
  8
0
100
AcDbLine
 10
255.2827015638964
 20
214.9455872697511
 30
0.0
 11
256.2827015638965
 21
213.9455872697513
 31
0.0
  0
LINE
  5
2488A
330
1F
100
AcDbEntity
  8
0
100
AcDbLine
 10
248.6405659401654
 20
213.9455872697511
 30
0.0
 11
246.2827015638965
 21
216.30345164602
 31
0.0
  0
LINE
  5
2488B
330
1F
100
AcDbEntity
  8
0
100
AcDbLine
 10
254.297420189658
 20
213.9455872697511
 30
0.0
 11
246.2827015638965
 21
221.9603058955124
 31
0.0
  0
LINE
  5
2488C
330
1F
100
AcDbEntity
  8
0
100
AcDbLine
 10
251.4689930649116
 20
213.9455872697511
 30
0.0
 11
246.2827015638965
 21
219.1318787707662
 31
0.0
  0
LINE
  5
2488D
330
1F
100
AcDbEntity
  8
0
100
AcDbLine
 10
255.2827015638964
 20
218.6171601450051
 30
0.0
 11
250.6111286886425
 21
213.9455872697513
 31
0.0
  0
LINE
  5
2488E
330
1F
100
AcDbEntity
  8
0
100
AcDbLine
 10
255.2827015638964
 20
215.7887330202588
 30
0.0
 11
253.4395558133887
 21
213.9455872697513
 31
0.0
  0
LINE
  5
2488F
330
1F
100
AcDbEntity
  8
0
100
AcDbLine
 10
255.2827015638964
 20
221.4455872697513
 30
0.0
 11
247.7827015638965
 21
213.9455872697513
 31
0.0
  0
LINE
  5
24890
330
1F
100
AcDbEntity
  8
0
100
AcDbLine
 10
256.2827015638965
 20
281.8340732004953
 30
0.0
 11
224.1127015638968
 21
249.6640732004952
 31
0.0
  0
LINE
  5
24891
330
1F
100
AcDbEntity
  8
0
100
AcDbLine
 10
256.2827015638965
 20
284.6540732004951
 30
0.0
 11
224.1127015638968
 21
252.4840732004951
 31
0.0
  0
LINE
  5
24892
330
1F
100
AcDbEntity
  8
0
100
AcDbLine
 10
256.2827015638965
 20
287.4740732004952
 30
0.0
 11
224.1127015638968
 21
255.3040732004951
 31
0.0
  0
LINE
  5
24893
330
1F
100
AcDbEntity
  8
003
100
AcDbLine
 10
456.5069899992533
 20
80.65864961868511
 30
0.0
 11
536.5069899992528
 21
80.65864961868511
 31
0.0
  0
LINE
  5
24894
330
1F
100
AcDbEntity
  8
003
100
AcDbLine
 10
456.5069899992533
 20
93.99198295201836
 30
0.0
 11
536.5069899992533
 21
93.99198295201836
 31
0.0
  0
LINE
  5
24895
330
1F
100
AcDbEntity
  8
003
100
AcDbLine
 10
456.5069899992533
 20
80.65864961868511
 30
0.0
 11
456.5069899992533
 21
93.99198295201836
 31
0.0
  0
TEXT
  5
24896
330
1F
100
AcDbEntity
  8
0
100
AcDbText
 10
478.6403233325866
 20
83.32531628535162
 30
0.0
 40
7.999999999999998
  1
横断面図
  7
AT_VECTOR
 72
     1
 11
496.5069899992532
 21
87.32531628535161
 31
0.0
100
AcDbText
 73
     2
  0
LINE
  5
24897
330
1F
100
AcDbEntity
  8
003
100
AcDbLine
 10
536.5069899992528
 20
80.65864961868511
 30
0.0
 11
536.5069899992533
 21
93.99198295201836
 31
0.0
  0
LINE
  5
24898
330
1F
100
AcDbEntity
  8
003
100
AcDbLine
 10
438.7828425638884
 20
102.7922871470692
 30
0.0
 11
438.7828425638884
 21
93.79228714706925
 31
0.0
  0
TEXT
  5
24899
330
1F
100
AcDbEntity
  8
0
100
AcDbText
 10
413.5828425638885
 20
95.29228714706926
 30
0.0
 40
6.0
  1
内　部
  7
AT_VECTOR
 72
     1
 11
423.7828425638885
 21
98.29228714706927
 31
0.0
100
AcDbText
 73
     2
  0
LINE
  5
2489A
330
1F
100
AcDbEntity
  8
003
100
AcDbLine
 10
408.7828425638885
 20
102.7922871470692
 30
0.0
 11
408.7828425638885
 21
93.79228714706925
 31
0.0
  0
LINE
  5
2489B
330
1F
100
AcDbEntity
  8
003
100
AcDbLine
 10
408.7828425638885
 20
93.79228714706925
 30
0.0
 11
438.7828425638884
 21
93.79228714706925
 31
0.0
  0
LINE
  5
2489C
330
1F
100
AcDbEntity
  8
003
100
AcDbLine
 10
408.7828425638885
 20
102.7922871470692
 30
0.0
 11
438.7828425638884
 21
102.7922871470692
 31
0.0
  0
TEXT
  5
2489D
330
1F
100
AcDbEntity
  8
0
100
AcDbText
 10
413.7828425638965
 20
340.2234797262994
 30
0.0
 40
6.0
  1
外　部
  7
AT_VECTOR
 72
     1
 11
423.7828425638965
 21
343.2234797262994
 31
0.0
100
AcDbText
 73
     2
  0
LINE
  5
2489E
330
1F
100
AcDbEntity
  8
003
100
AcDbLine
 10
408.7828425638965
 20
347.7234797262994
 30
0.0
 11
438.7828425638965
 21
347.7234797262994
 31
0.0
  0
LINE
  5
2489F
330
1F
100
AcDbEntity
  8
003
100
AcDbLine
 10
408.7828425638965
 20
338.7234797262994
 30
0.0
 11
438.7828425638965
 21
338.7234797262994
 31
0.0
  0
LINE
  5
248A0
330
1F
100
AcDbEntity
  8
003
100
AcDbLine
 10
408.7828425638965
 20
347.7234797262994
 30
0.0
 11
408.7828425638965
 21
338.7234797262994
 31
0.0
  0
LINE
  5
248A1
330
1F
100
AcDbEntity
  8
003
100
AcDbLine
 10
438.7828425638965
 20
347.7234797262994
 30
0.0
 11
438.7828425638965
 21
338.7234797262994
 31
0.0
  0
LINE
  5
248A2
330
1F
100
AcDbEntity
  8
003
100
AcDbLine
 10
656.462636716727
 20
424.4287087893135
 30
0.0
 11
564.9525842401181
 21
424.4287087893135
 31
0.0
  0
LINE
  5
248A3
330
1F
100
AcDbEntity
  8
003
100
AcDbLine
 10
656.462636716727
 20
421.7287087895833
 30
0.0
 11
564.9525842401181
 21
421.7287087895833
 31
0.0
  0
LINE
  5
248A4
330
1F
100
AcDbEntity
  8
003
100
AcDbLine
 10
656.462636716727
 20
420.5287087897035
 30
0.0
 11
564.9525842401181
 21
420.5287087897036
 31
0.0
  0
LINE
  5
248A5
330
1F
100
AcDbEntity
  8
003
100
AcDbLine
 10
656.462636716727
 20
427.4287087890135
 30
0.0
 11
564.9525842401181
 21
427.4287087890135
 31
0.0
  0
LINE
  5
248A6
330
1F
100
AcDbEntity
  8
003
100
AcDbLine
 10
635.2376367197495
 20
421.9037087895161
 30
0.0
 11
626.2376367197496
 21
421.9037087895161
 31
0.0
  0
LINE
  5
248A7
330
1F
100
AcDbEntity
  8
003
100
AcDbLine
 10
626.2376367197496
 20
424.253708789381
 30
0.0
 11
635.2376367197495
 21
424.253708789381
 31
0.0
  0
LINE
  5
248A8
330
1F
100
AcDbEntity
  8
003
100
AcDbLine
 10
624.5312367199201
 20
422.5218337895044
 30
0.0
 11
624.5312367199201
 21
423.6355837893928
 31
0.0
  0
ARC
  5
248A9
330
1F
100
AcDbEntity
  8
003
100
AcDbCircle
 10
624.5994539074131
 20
423.0787087894486
 30
0.0
 40
0.9592171874040412
100
AcDbArc
 50
144.5106567499017
 51
215.4893432501164
  0
LINE
  5
248AA
330
1F
100
AcDbEntity
  8
003
100
AcDbLine
 10
624.7094367199022
 20
422.5218337895044
 30
0.0
 11
623.8184367199913
 21
422.5218337895044
 31
0.0
  0
LINE
  5
248AB
330
1F
100
AcDbEntity
  8
003
100
AcDbLine
 10
624.7094367199022
 20
422.5218337895044
 30
0.0
 11
624.7094367199022
 21
423.6355837893928
 31
0.0
  0
LINE
  5
248AC
330
1F
100
AcDbEntity
  8
003
100
AcDbLine
 10
624.7094367199022
 20
423.6355837893929
 30
0.0
 11
623.8184367199913
 21
423.6355837893929
 31
0.0
  0
LINE
  5
248AD
330
1F
100
AcDbEntity
  8
003
100
AcDbLine
 10
596.7057842369427
 20
423.6355837893929
 30
0.0
 11
597.5967842368535
 21
423.6355837893929
 31
0.0
  0
LINE
  5
248AE
330
1F
100
AcDbEntity
  8
003
100
AcDbLine
 10
596.7057842369427
 20
422.5218337895045
 30
0.0
 11
596.7057842369427
 21
423.6355837893929
 31
0.0
  0
LINE
  5
248AF
330
1F
100
AcDbEntity
  8
003
100
AcDbLine
 10
596.7057842369427
 20
422.5218337895044
 30
0.0
 11
597.5967842368535
 21
422.5218337895044
 31
0.0
  0
ARC
  5
248B0
330
1F
100
AcDbEntity
  8
003
100
AcDbCircle
 10
596.8157670494319
 20
423.0787087894486
 30
0.0
 40
0.9592171874040412
100
AcDbArc
 50
324.5106567498836
 51
35.48934325009824
  0
LINE
  5
248B1
330
1F
100
AcDbEntity
  8
003
100
AcDbLine
 10
596.8839842369249
 20
422.5218337895045
 30
0.0
 11
596.8839842369249
 21
423.6355837893929
 31
0.0
  0
LINE
  5
248B2
330
1F
100
AcDbEntity
  8
003
100
AcDbLine
 10
656.462636716727
 20
531.8281063554819
 30
0.0
 11
564.9525842401181
 21
531.828106355482
 31
0.0
  0
LINE
  5
248B3
330
1F
100
AcDbEntity
  8
003
100
AcDbLine
 10
656.462636716727
 20
530.628106355482
 30
0.0
 11
564.9525842401181
 21
530.628106355482
 31
0.0
  0
LINE
  5
248B4
330
1F
100
AcDbEntity
  8
003
100
AcDbLine
 10
656.462636716727
 20
527.928106355482
 30
0.0
 11
564.9525842401181
 21
527.928106355482
 31
0.0
  0
LINE
  5
248B5
330
1F
100
AcDbEntity
  8
003
100
AcDbLine
 10
656.462636716727
 20
524.9281063554819
 30
0.0
 11
564.9525842401181
 21
524.928106355482
 31
0.0
  0
LINE
  5
248B6
330
1F
100
AcDbEntity
  8
003
100
AcDbLine
 10
564.9525842401181
 20
420.5287087897036
 30
0.0
 11
564.9525842401181
 21
531.828106355482
 31
0.0
  0
LINE
  5
248B7
330
1F
100
AcDbEntity
  8
003
100
AcDbLine
 10
573.9525842401181
 20
427.4287087890135
 30
0.0
 11
573.9525842401181
 21
524.928106355482
 31
0.0
  0
LINE
  5
248B8
330
1F
100
AcDbEntity
  8
003
100
AcDbLine
 10
656.462636716727
 20
420.5287087897035
 30
0.0
 11
656.462636716727
 21
531.828106355482
 31
0.0
  0
LINE
  5
248B9
330
1F
100
AcDbEntity
  8
003
100
AcDbLine
 10
647.462636716727
 20
427.4287087890135
 30
0.0
 11
647.462636716727
 21
524.928106355482
 31
0.0
  0
LINE
  5
248BA
330
1F
100
AcDbEntity
  8
003
100
AcDbLine
 10
573.9525842401181
 20
471.2284075722477
 30
0.0
 11
647.462636716727
 21
471.2284075722477
 31
0.0
  0
LINE
  5
248BB
330
1F
100
AcDbEntity
  8
003
100
AcDbLine
 10
573.9525842401181
 20
481.1284075722478
 30
0.0
 11
647.462636716727
 21
481.1284075722478
 31
0.0
  0
LINE
  5
248BC
330
1F
100
AcDbEntity
  8
003
100
AcDbLine
 10
573.9525842401181
 20
500.9284075722478
 30
0.0
 11
647.462636716727
 21
500.9284075722478
 31
0.0
  0
LINE
  5
248BD
330
1F
100
AcDbEntity
  8
003
100
AcDbLine
 10
573.9525842401181
 20
510.8284075722479
 30
0.0
 11
647.462636716727
 21
510.8284075722479
 31
0.0
  0
LINE
  5
248BE
330
1F
100
AcDbEntity
  8
003
100
AcDbLine
 10
573.9525842401181
 20
520.7284075722477
 30
0.0
 11
647.462636716727
 21
520.7284075722477
 31
0.0
  0
LINE
  5
248BF
330
1F
100
AcDbEntity
  8
003
100
AcDbLine
 10
573.9525842401181
 20
441.5284075722478
 30
0.0
 11
647.462636716727
 21
441.5284075722478
 31
0.0
  0
LINE
  5
248C0
330
1F
100
AcDbEntity
  8
003
100
AcDbLine
 10
573.9525842401181
 20
451.4284075722478
 30
0.0
 11
647.462636716727
 21
451.4284075722478
 31
0.0
  0
LINE
  5
248C1
330
1F
100
AcDbEntity
  8
003
100
AcDbLine
 10
573.9525842401181
 20
461.3284075722478
 30
0.0
 11
647.462636716727
 21
461.3284075722478
 31
0.0
  0
LINE
  5
248C2
330
1F
100
AcDbEntity
  8
003
100
AcDbLine
 10
573.9525842401181
 20
431.6284075722478
 30
0.0
 11
647.462636716727
 21
431.6284075722478
 31
0.0
  0
LINE
  5
248C3
330
1F
100
AcDbEntity
  8
003
100
AcDbLine
 10
579.9525842251181
 20
534.8281063524821
 30
0.0
 11
591.9525842131181
 21
534.8281063524821
 31
0.0
  0
LINE
  5
248C4
330
1F
100
AcDbEntity
  8
003
100
AcDbLine
 10
579.9525842251181
 20
531.828106355482
 30
0.0
 11
579.9525842251181
 21
534.8281063524821
 31
0.0
  0
LINE
  5
248C5
330
1F
100
AcDbEntity
  8
003
100
AcDbLine
 10
591.9525842131181
 20
531.828106355482
 30
0.0
 11
591.9525842131181
 21
534.8281063524821
 31
0.0
  0
LINE
  5
248C6
330
1F
100
AcDbEntity
  8
003
100
AcDbLine
 10
641.462636731727
 20
534.8281063524821
 30
0.0
 11
629.4626367437269
 21
534.8281063524821
 31
0.0
  0
LINE
  5
248C7
330
1F
100
AcDbEntity
  8
003
100
AcDbLine
 10
641.462636731727
 20
531.828106355482
 30
0.0
 11
641.462636731727
 21
534.8281063524821
 31
0.0
  0
LINE
  5
248C8
330
1F
100
AcDbEntity
  8
003
100
AcDbLine
 10
629.4626367437269
 20
531.828106355482
 30
0.0
 11
629.4626367437269
 21
534.8281063524821
 31
0.0
  0
LINE
  5
248C9
330
1F
100
AcDbEntity
  8
003
100
AcDbLine
 10
573.9525842401182
 20
491.0284075722478
 30
0.0
 11
647.462636716727
 21
491.0284075722478
 31
0.0
  0
CIRCLE
  5
248CA
330
1F
100
AcDbEntity
  8
003
100
AcDbCircle
 10
628.2376367197496
 20
423.0787087894485
 30
0.0
 40
0.74999999925
  0
CIRCLE
  5
248CB
330
1F
100
AcDbEntity
  8
003
100
AcDbCircle
 10
633.2376367197496
 20
423.0787087894485
 30
0.0
 40
0.74999999925
  0
LINE
  5
248CC
330
1F
100
AcDbEntity
  8
003
100
AcDbLine
 10
635.2376367197495
 20
424.253708789381
 30
0.0
 11
635.2376367197495
 21
421.9037087895161
 31
0.0
  0
LINE
  5
248CD
330
1F
100
AcDbEntity
  8
003
100
AcDbLine
 10
626.2376367197496
 20
424.253708789381
 30
0.0
 11
626.2376367197496
 21
421.9037087895161
 31
0.0
  0
LINE
  5
248CE
330
1F
100
AcDbEntity
  8
003
100
AcDbLine
 10
586.1775842370953
 20
421.9037087895161
 30
0.0
 11
595.1775842370953
 21
421.9037087895161
 31
0.0
  0
LINE
  5
248CF
330
1F
100
AcDbEntity
  8
003
100
AcDbLine
 10
595.1775842370953
 20
424.253708789381
 30
0.0
 11
586.1775842370953
 21
424.253708789381
 31
0.0
  0
CIRCLE
  5
248D0
330
1F
100
AcDbEntity
  8
003
100
AcDbCircle
 10
593.1775842370952
 20
423.0787087894485
 30
0.0
 40
0.74999999925
  0
CIRCLE
  5
248D1
330
1F
100
AcDbEntity
  8
003
100
AcDbCircle
 10
588.1775842370952
 20
423.0787087894485
 30
0.0
 40
0.74999999925
  0
LINE
  5
248D2
330
1F
100
AcDbEntity
  8
003
100
AcDbLine
 10
586.1775842370953
 20
424.253708789381
 30
0.0
 11
586.1775842370953
 21
421.9037087895161
 31
0.0
  0
LINE
  5
248D3
330
1F
100
AcDbEntity
  8
003
100
AcDbLine
 10
595.1775842370953
 20
424.253708789381
 30
0.0
 11
595.1775842370953
 21
421.9037087895161
 31
0.0
  0
TEXT
  5
248D4
330
1F
100
AcDbEntity
  8
0
100
AcDbText
 10
67.81722297933971
 20
489.0
 30
0.0
 40
6.0
  1
内・外網戸（網色：ブラック・グレー）
 41
0.85
  7
AT_VECTOR
 11
67.81722297933971
 21
492.0
 31
0.0
100
AcDbText
 73
     2
  0
TEXT
  5
248D5
330
1F
100
AcDbEntity
  8
0
100
AcDbText
 10
205.357123632162
 20
443.4647244922421
 30
0.0
 40
8.0
  1
特記事項
  7
AT_VECTOR
100
AcDbText
  0
TEXT
  5
248D6
330
1F
100
AcDbEntity
  8
0
100
AcDbText
 10
219.9982392998786
 20
430.5147298961651
 30
0.0
 40
6.0
  1
ご注文の際には網戸の仕様（内・外）及び網色（ブラック・グレー）のご指示お願いします
 41
0.9
  7
AT_VECTOR
 11
219.9982392998786
 21
433.5147298961651
 31
0.0
100
AcDbText
 73
     2
  0
TEXT
  5
248D7
330
1F
100
AcDbEntity
  8
0
100
AcDbText
 10
219.9982392998786
 20
418.5147298961651
 30
0.0
 40
6.0
  1
本図以外のサッシの場合、納まりが変更となる場合ありますのでご確認お願いします
 41
0.9
  7
AT_VECTOR
 11
219.9982392998786
 21
421.5147298961651
 31
0.0
100
AcDbText
 73
     2
  0
TEXT
  5
248D8
330
1F
100
AcDbEntity
  8
0
100
AcDbText
 10
207.9361824660775
 20
430.5147298961651
 30
0.0
 40
6.0
  1
1
 41
0.9
  7
AT_VECTOR
 11
207.9361824660775
 21
433.5147298961651
 31
0.0
100
AcDbText
 73
     2
  0
TEXT
  5
248D9
330
1F
100
AcDbEntity
  8
0
100
AcDbText
 10
207.9361824660775
 20
418.5147298961651
 30
0.0
 40
6.0
  1
2
 41
0.9
  7
AT_VECTOR
 11
207.9361824660775
 21
421.5147298961651
 31
0.0
100
AcDbText
 73
     2
  0
CIRCLE
  5
248DA
330
1F
100
AcDbEntity
  8
010
100
AcDbCircle
 10
210.9181020216272
 20
421.4966494517147
 30
0.0
 40
4.410730708366473
  0
CIRCLE
  5
248DB
330
1F
100
AcDbEntity
  8
010
100
AcDbCircle
 10
210.9181020216272
 20
433.4966494517147
 30
0.0
 40
4.410730708366473
  0
LINE
  5
248DC
330
1F
100
AcDbEntity
  8
003
100
AcDbLine
 10
202.4421484457528
 20
447.0430615799791
 30
0.0
 11
199.0212626666846
 21
447.0430615799791
 31
0.0
  0
LINE
  5
248DD
330
1F
100
AcDbEntity
  8
003
100
AcDbLine
 10
199.0212626666846
 20
447.0430615799791
 30
0.0
 11
199.0212626666846
 21
411.5372569385795
 31
0.0
  0
LINE
  5
248DE
330
1F
100
AcDbEntity
  8
003
100
AcDbLine
 10
199.0212626666846
 20
411.5372569385795
 30
0.0
 11
491.7351060924868
 21
411.5372569385795
 31
0.0
  0
LINE
  5
248DF
330
1F
100
AcDbEntity
  8
003
100
AcDbLine
 10
491.7351060924868
 20
411.5372569385795
 30
0.0
 11
491.7351060924868
 21
446.8840717029689
 31
0.0
  0
LINE
  5
248E0
330
1F
100
AcDbEntity
  8
003
100
AcDbLine
 10
491.7351060924868
 20
447.0430615799791
 30
0.0
 11
245.1658153724036
 21
447.0430615799791
 31
0.0
  0
LINE
  5
248E1
330
1F
100
AcDbEntity
  8
007
100
AcDbLine
 10
327.6824195638961
 20
274.045750448146
 30
0.0
 11
305.3824195638961
 21
274.045750448146
 31
0.0
  0
LINE
  5
248E2
330
1F
100
AcDbEntity
  8
007
100
AcDbLine
 10
327.1824195638961
 20
272.545750448146
 30
0.0
 11
305.8824195638961
 21
272.545750448146
 31
0.0
  0
LINE
  5
248E3
330
1F
100
AcDbEntity
  8
007
100
AcDbLine
 10
327.1824195638961
 20
277.045750448146
 30
0.0
 11
305.8824195638961
 21
277.045750448146
 31
0.0
  0
LINE
  5
248E4
330
1F
100
AcDbEntity
  8
007
100
AcDbLine
 10
328.6824195638961
 20
277.345750448146
 30
0.0
 11
300.3824195638961
 21
277.345750448146
 31
0.0
  0
LINE
  5
248E5
330
1F
100
AcDbEntity
  8
007
100
AcDbLine
 10
328.6824195638961
 20
287.345750448146
 30
0.0
 11
303.3824195638961
 21
287.345750448146
 31
0.0
  0
LINE
  5
248E6
330
1F
100
AcDbEntity
  8
007
100
AcDbLine
 10
305.3824195638961
 20
273.045750448146
 30
0.0
 11
305.3824195638961
 21
276.545750448146
 31
0.0
  0
ARC
  5
248E7
330
1F
100
AcDbEntity
  8
007
100
AcDbCircle
 10
305.8824195638961
 20
276.545750448146
 30
0.0
 40
0.5
100
AcDbArc
 50
90.0
 51
180.0
  0
LINE
  5
248E8
330
1F
100
AcDbEntity
  8
007
100
AcDbLine
 10
300.3824195638961
 20
277.345750448146
 30
0.0
 11
300.3824195638961
 21
284.345750448146
 31
0.0
  0
ARC
  5
248E9
330
1F
100
AcDbEntity
  8
007
100
AcDbCircle
 10
303.3824195638961
 20
284.345750448146
 30
0.0
 40
3.0
100
AcDbArc
 50
90.0
 51
180.0
  0
ARC
  5
248EA
330
1F
100
AcDbEntity
  8
007
100
AcDbCircle
 10
305.8824195638961
 20
273.045750448146
 30
0.0
 40
0.5
100
AcDbArc
 50
180.0
 51
270.0
  0
LINE
  5
248EB
330
1F
100
AcDbEntity
  8
007
100
AcDbLine
 10
421.4327015638968
 20
286.8457504481461
 30
0.0
 11
328.6824195638961
 21
286.8457504481458
 31
0.0
  0
LINE
  5
248EC
330
1F
100
AcDbEntity
  8
007
100
AcDbLine
 10
328.6824195638961
 20
274.045850448146
 30
0.0
 11
421.4327015638968
 21
274.045850448146
 31
0.0
  0
LINE
  5
248ED
330
1F
100
AcDbEntity
  8
007
100
AcDbLine
 10
328.6824195638961
 20
273.1457504481459
 30
0.0
 11
421.4327015638968
 21
273.1457504481459
 31
0.0
  0
LINE
  5
248EE
330
1F
100
AcDbEntity
  8
007
100
AcDbLine
 10
328.6824195638961
 20
277.345750448146
 30
0.0
 11
421.4327015638968
 21
277.3457504481458
 31
0.0
  0
LINE
  5
248EF
330
1F
100
AcDbEntity
  8
007
100
AcDbLine
 10
327.6824195638961
 20
273.045750448146
 30
0.0
 11
327.6824195638961
 21
276.545750448146
 31
0.0
  0
LINE
  5
248F0
330
1F
100
AcDbEntity
  8
007
100
AcDbLine
 10
328.6824195638961
 20
273.1457504481459
 30
0.0
 11
328.6824195638961
 21
287.345750448146
 31
0.0
  0
LINE
  5
248F1
330
1F
100
AcDbEntity
  8
007
100
AcDbLine
 10
328.6824195638961
 20
276.1457504481459
 30
0.0
 11
327.6824195638961
 21
276.1457504481459
 31
0.0
  0
ARC
  5
248F2
330
1F
100
AcDbEntity
  8
007
100
AcDbCircle
 10
327.1824195638961
 20
276.545750448146
 30
0.0
 40
0.5
100
AcDbArc
 50
0.0
 51
90.0
  0
ARC
  5
248F3
330
1F
100
AcDbEntity
  8
007
100
AcDbCircle
 10
327.1824195638961
 20
273.045750448146
 30
0.0
 40
0.5
100
AcDbArc
 50
270.0
 51
0.0
  0
DIMENSION
  5
248F4
330
1F
100
AcDbEntity
  8
003
100
AcDbDimension
  2
*D50
 10
292.2827015638965
 20
127.4490602072778
 30
0.0
 11
281.7827015638925
 21
132.4490602072778
 31
0.0
 70
    32
 71
     5
 42
21.00000000000802
  3
DIM
100
AcDbAlignedDimension
 13
271.2827015638885
 23
143.9457637344612
 33
0.0
 14
292.2827015638965
 24
208.0456778424927
 34
0.0
100
AcDbRotatedDimension
  0
DIMENSION
  5
248F5
330
1F
100
AcDbEntity
  8
003
100
AcDbDimension
  2
*D51
 10
555.2829835638964
 20
127.4490602072778
 30
0.0
 11
565.7829835638924
 21
132.4490602072778
 31
0.0
 70
    32
 71
     5
 42
20.99999999999204
  3
DIM
100
AcDbAlignedDimension
 13
576.2829835638885
 23
143.9457637344612
 33
0.0
 14
555.2829835638964
 24
208.0456778424929
 34
0.0
 50
180.0
100
AcDbRotatedDimension
  0
LEADER
  5
248F6
330
1F
100
AcDbEntity
  8
003
100
AcDbLeader
  3
DIM
 73
     0
 40
6.000000000000001
 41
15.0
 76
     3
 10
380.6223306564241
 20
281.7814678535519
 30
0.0
 10
373.6637623734462
 20
293.8340616676068
 30
0.0
 10
370.019564942557
 20
293.8340616676068
 30
0.0
1001
ACAD
1000
DSTYLE
1002
{
1070
   147
1040
1.0
1070
    77
1070
     1
1002
}
  0
MTEXT
  5
248F7
102
{ACAD_REACTORS
330
248F6
102
}
330
1F
100
AcDbEntity
  8
003
 62
     7
100
AcDbMText
 10
368.019564942557
 20
295.8340616676069
 30
0.0
 40
6.0
 41
0.0
 71
     9
 72
     1
  1
外網戸
  7
DIM
 73
     1
 44
1.0
1001
ACAD
1000
MTEXTBEGIN
1070
    73
1070
     1
1070
    44
1040
1.0
1070
    74
1070
     0
1000
MTEXTEND
  0
LINE
  5
248F8
330
1F
100
AcDbEntity
  8
0
  6
HIDDEN
 62
   130
 48
10.0
100
AcDbLine
 10
239.4827015638966
 20
174.4456778424926
 30
0.0
 11
240.4827015638966
 21
175.4456778424926
 31
0.0
  0
LINE
  5
248F9
330
1F
100
AcDbEntity
  8
0
  6
HIDDEN
 62
   130
 48
10.0
100
AcDbLine
 10
239.4827015638966
 20
174.4456778424926
 30
0.0
 11
239.4827015638966
 21
183.4456778424926
 31
0.0
  0
LINE
  5
248FA
330
1F
100
AcDbEntity
  8
0
  6
HIDDEN
 62
   130
 48
10.0
100
AcDbLine
 10
240.4827015638966
 20
175.4456778424926
 30
0.0
 11
240.4827015638966
 21
182.4456778424926
 31
0.0
  0
LINE
  5
248FB
330
1F
100
AcDbEntity
  8
0
  6
HIDDEN
 62
   130
 48
10.0
100
AcDbLine
 10
240.4827015638966
 20
182.4456778424926
 30
0.0
 11
239.4827015638966
 21
183.4456778424926
 31
0.0
  0
ARC
  5
248FC
330
1F
100
AcDbEntity
  8
0
  6
HIDDEN2
 62
   130
 48
10.0
100
AcDbCircle
 10
237.9827015638966
 20
174.4456778424926
 30
0.0
 40
1.5
100
AcDbArc
 50
180.0
 51
0.0
  0
ARC
  5
248FD
330
1F
100
AcDbEntity
  8
0
  6
HIDDEN2
 62
   130
 48
10.0
100
AcDbCircle
 10
234.9827015638966
 20
174.4456778424926
 30
0.0
 40
1.5
100
AcDbArc
 50
180.0
 51
300.0000000000005
  0
ARC
  5
248FE
330
1F
100
AcDbEntity
  8
0
  6
HIDDEN2
 62
   130
 48
10.0
100
AcDbCircle
 10
236.4827015638966
 20
174.4456778424926
 30
0.0
 40
1.5
100
AcDbArc
 50
180.0
 51
300.0000000000005
  0
ARC
  5
248FF
330
1F
100
AcDbEntity
  8
0
  6
HIDDEN
 62
   130
 48
10.0
100
AcDbCircle
 10
204.5898907027272
 20
176.6956778424926
 30
0.0
 40
4.0
100
AcDbArc
 50
145.7711336721882
 51
214.2288663278118
  0
ARC
  5
24900
330
1F
100
AcDbEntity
  8
0
  6
HIDDEN
 62
   130
 48
10.0
100
AcDbCircle
 10
204.5898907027272
 20
181.1956778424926
 30
0.0
 40
4.0
100
AcDbArc
 50
145.7711336721882
 51
214.2288663278118
  0
ARC
  5
24901
330
1F
100
AcDbEntity
  8
0
  6
HIDDEN
 62
   130
 48
10.0
100
AcDbCircle
 10
197.9755124250657
 20
181.1956778424926
 30
0.0
 40
4.0
100
AcDbArc
 50
325.7711336721882
 51
34.22886632781179
  0
LINE
  5
24902
330
1F
100
AcDbEntity
  8
YSS_W1101_K
  6
YHIDDEN
 62
   130
100
AcDbLine
 10
201.2827015638966
 20
183.4456778424926
 30
0.0
 11
239.4827015638966
 21
183.4456778424926
 31
0.0
  0
LINE
  5
24903
330
1F
100
AcDbEntity
  8
YSS_W1101_K
  6
YHIDDEN
 62
   130
100
AcDbLine
 10
201.2827015638966
 20
174.4456778424926
 30
0.0
 11
239.4827015638966
 21
174.4456778424926
 31
0.0
  0
LINE
  5
24904
330
1F
100
AcDbEntity
  8
YKK_W1101_G
 62
   130
100
AcDbLine
 10
331.2827015638965
 20
192.2456778424927
 30
0.0
 11
319.2827015638965
 21
180.2456778424928
 31
0.0
  0
LINE
  5
24905
330
1F
100
AcDbEntity
  8
YKK_W1101_G
 62
   130
100
AcDbLine
 10
331.2827015638965
 20
180.2456778424928
 30
0.0
 11
319.2827015638965
 21
192.2456778424927
 31
0.0
  0
LINE
  5
24906
330
1F
100
AcDbEntity
  8
YKK_W1101_G
 62
   130
100
AcDbLine
 10
319.2827015638965
 20
192.2456778424927
 30
0.0
 11
319.2827015638965
 21
180.2456778424928
 31
0.0
  0
LINE
  5
24907
330
1F
100
AcDbEntity
  8
YKK_W1101_G
 62
   130
100
AcDbLine
 10
331.2827015638965
 20
180.2456778424928
 30
0.0
 11
331.2827015638965
 21
192.2456778424927
 31
0.0
  0
LINE
  5
24908
330
1F
100
AcDbEntity
  8
YKK_W1101_G
 62
   130
100
AcDbLine
 10
319.2827015638965
 20
192.2456778424927
 30
0.0
 11
331.2827015638965
 21
192.2456778424927
 31
0.0
  0
LINE
  5
24909
330
1F
100
AcDbEntity
  8
YKK_W1101_G
 62
   130
100
AcDbLine
 10
331.2827015638965
 20
180.2456778424928
 30
0.0
 11
319.2827015638965
 21
180.2456778424928
 31
0.0
  0
LINE
  5
2490A
330
1F
100
AcDbEntity
  8
YKK_W1101_G
 62
   255
100
AcDbLine
 10
319.2827015638965
 20
199.0456778424927
 30
0.0
 11
421.4327015638968
 21
199.0456778424927
 31
0.0
  0
LINE
  5
2490B
330
1F
100
AcDbEntity
  8
YKK_W1101_G
 62
   255
100
AcDbLine
 10
319.2827015638965
 20
199.0456778424927
 30
0.0
 11
319.2827015638965
 21
192.2456778424927
 31
0.0
  0
LINE
  5
2490C
330
1F
100
AcDbEntity
  8
YKK_W1101_G
 62
   255
100
AcDbLine
 10
319.2827015638965
 20
192.2456778424927
 30
0.0
 11
421.4327015638968
 21
192.2456778424927
 31
0.0
  0
LINE
  5
2490D
330
1F
100
AcDbEntity
  8
YKK_W1101_G
 62
   130
100
AcDbLine
 10
319.2827015638965
 20
198.2456778424927
 30
0.0
 11
421.4327015638968
 21
198.2456778424927
 31
0.0
  0
LINE
  5
2490E
330
1F
100
AcDbEntity
  8
YKK_W1101_G
 62
   130
100
AcDbLine
 10
319.2827015638965
 20
193.0456778424928
 30
0.0
 11
421.4327015638968
 21
193.0456778424928
 31
0.0
  0
LINE
  5
2490F
330
1F
100
AcDbEntity
  8
YKK_W1101_G
 62
   255
100
AcDbLine
 10
319.2827015638965
 20
176.2456778424928
 30
0.0
 11
421.4327015638968
 21
176.2456778424926
 31
0.0
  0
LINE
  5
24910
330
1F
100
AcDbEntity
  8
YKK_W1101_G
 62
   255
100
AcDbLine
 10
319.2827015638965
 20
180.2456778424928
 30
0.0
 11
421.4327015638968
 21
180.2456778424927
 31
0.0
  0
LINE
  5
24911
330
1F
100
AcDbEntity
  8
YKK_W1101_G
 62
   130
100
AcDbLine
 10
319.2827015638965
 20
177.2456778424927
 30
0.0
 11
421.4327015638968
 21
177.2456778424927
 31
0.0
  0
LINE
  5
24912
330
1F
100
AcDbEntity
  8
YKK_W1101_G
 62
   130
100
AcDbLine
 10
319.2827015638965
 20
179.2456778424926
 30
0.0
 11
421.4327015638968
 21
179.2456778424926
 31
0.0
  0
LINE
  5
24913
330
1F
100
AcDbEntity
  8
YKK_W1101_G
 62
   255
100
AcDbLine
 10
319.2827015638965
 20
176.2456778424928
 30
0.0
 11
319.2827015638965
 21
180.2456778424928
 31
0.0
  0
LINE
  5
24914
330
1F
100
AcDbEntity
  8
YKK_W1101_G
 62
   130
100
AcDbLine
 10
334.2827015638965
 20
170.1456778424926
 30
0.0
 11
335.7827015638965
 21
176.2456778424928
 31
0.0
1001
ACAD
1000
ASC_BOUNDS
1002
{
1070
    16
1002
}
  0
LINE
  5
24915
330
1F
100
AcDbEntity
  8
YKK_W1101_G
 62
   130
100
AcDbLine
 10
329.2827015638965
 20
176.2456778424928
 30
0.0
 11
329.2827015638965
 21
170.1456778424926
 31
0.0
1001
ACAD
1000
ASC_BOUNDS
1002
{
1070
    16
1002
}
  0
LINE
  5
24916
330
1F
100
AcDbEntity
  8
YKK_W1101_G
 62
   130
100
AcDbLine
 10
329.2827015638965
 20
170.1456778424926
 30
0.0
 11
334.2827015638965
 21
170.1456778424926
 31
0.0
1001
ACAD
1000
ASC_BOUNDS
1002
{
1070
    16
1002
}
  0
LINE
  5
24917
330
1F
100
AcDbEntity
  8
YKK_W1101_G
 62
   130
100
AcDbLine
 10
330.3689930649119
 20
176.2456778424928
 30
0.0
 11
334.7142064654128
 21
171.9004644419917
 31
0.0
  0
LINE
  5
24918
330
1F
100
AcDbEntity
  8
YKK_W1101_G
 62
   130
100
AcDbLine
 10
331.7832066272848
 20
176.2456778424928
 30
0.0
 11
334.9933275632494
 21
173.0355569065282
 31
0.0
  0
LINE
  5
24919
330
1F
100
AcDbEntity
  8
YKK_W1101_G
 62
   130
100
AcDbLine
 10
333.1974201896581
 20
176.2456778424928
 30
0.0
 11
335.2724486610863
 21
174.1706493710644
 31
0.0
  0
LINE
  5
2491A
330
1F
100
AcDbEntity
  8
YKK_W1101_G
 62
   130
100
AcDbLine
 10
334.611633752031
 20
176.2456778424928
 30
0.0
 11
335.5515697589231
 21
175.3057418356007
 31
0.0
  0
LINE
  5
2491B
330
1F
100
AcDbEntity
  8
YKK_W1101_G
 62
   130
100
AcDbLine
 10
329.2827015638965
 20
175.9177557811349
 30
0.0
 11
334.4350853675757
 21
170.7653719774555
 31
0.0
  0
LINE
  5
2491C
330
1F
100
AcDbEntity
  8
YKK_W1101_G
 62
   130
100
AcDbLine
 10
329.2827015638965
 20
174.5035422187617
 30
0.0
 11
333.6405659401656
 21
170.1456778424926
 31
0.0
  0
LINE
  5
2491D
330
1F
100
AcDbEntity
  8
YKK_W1101_G
 62
   130
100
AcDbLine
 10
329.2827015638965
 20
173.0893286563887
 30
0.0
 11
332.2263523777924
 21
170.1456778424926
 31
0.0
  0
LINE
  5
2491E
330
1F
100
AcDbEntity
  8
YKK_W1101_G
 62
   130
100
AcDbLine
 10
329.2827015638965
 20
171.6751150940155
 30
0.0
 11
330.8121388154193
 21
170.1456778424926
 31
0.0
  0
LINE
  5
2491F
330
1F
100
AcDbEntity
  8
YKK_W1101_G
 62
   130
100
AcDbLine
 10
329.7532643123737
 20
170.1456778424926
 30
0.0
 11
335.7596919720018
 21
176.1521055021207
 31
0.0
  0
LINE
  5
24920
330
1F
100
AcDbEntity
  8
YKK_W1101_G
 62
   130
100
AcDbLine
 10
329.2827015638965
 20
171.0893286563887
 30
0.0
 11
334.4390507500006
 21
176.2456778424928
 31
0.0
  0
LINE
  5
24921
330
1F
100
AcDbEntity
  8
YKK_W1101_G
 62
   130
100
AcDbLine
 10
329.2827015638965
 20
172.5035422187618
 30
0.0
 11
333.0248371876275
 21
176.2456778424928
 31
0.0
  0
LINE
  5
24922
330
1F
100
AcDbEntity
  8
YKK_W1101_G
 62
   130
100
AcDbLine
 10
329.2827015638965
 20
173.9177557811348
 30
0.0
 11
331.6106236252544
 21
176.2456778424928
 31
0.0
  0
LINE
  5
24923
330
1F
100
AcDbEntity
  8
YKK_W1101_G
 62
   130
100
AcDbLine
 10
331.1674778747468
 20
170.1456778424926
 30
0.0
 11
335.2985353755758
 21
174.2767353433219
 31
0.0
  0
LINE
  5
24924
330
1F
100
AcDbEntity
  8
YKK_W1101_G
 62
   130
100
AcDbLine
 10
332.5816914371198
 20
170.1456778424926
 30
0.0
 11
334.8373787791498
 21
172.4013651845226
 31
0.0
  0
LINE
  5
24925
330
1F
100
AcDbEntity
  8
YKK_W1101_G
 62
   130
100
AcDbLine
 10
333.9959049994929
 20
170.1456778424926
 30
0.0
 11
334.3762221827238
 21
170.5259950257236
 31
0.0
  0
LINE
  5
24926
330
1F
100
AcDbEntity
  8
YKK_W1101_G
 62
   130
100
AcDbLine
 10
329.2827015638965
 20
175.331969343508
 30
0.0
 11
330.1964100628812
 21
176.2456778424928
 31
0.0
  0
HATCH
  5
24927
330
1F
100
AcDbEntity
  8
YKK_W1101_G
 62
   130
100
AcDbHatch
 10
0.0
 20
0.0
 30
0.0
210
0.0
220
0.0
230
1.0
  2
YDOTS_1
 70
     0
 71
     1
 91
        1
 92
        1
 93
        8
 72
     2
 10
328.2826998485101
 20
171.1456804155702
 40
1.000000000000277
 50
270.000098284402
 51
360.000098284402
 73
     1
 72
     1
 10
329.2826998485089
 20
171.1456821309566
 11
329.2826936731197
 21
175.2456821309602
 72
     2
 10
328.2826936731219
 20
175.2456804155736
 40
0.9999999999992542
 50
0.0000982844084879
 51
90.0000982844085
 73
     1
 72
     1
 10
328.2826919577354
 20
176.2456804155714
 11
325.2826919577397
 21
176.245675269414
 72
     2
 10
325.2826936731271
 20
175.2456752694141
 40
1.000000000001357
 50
90.00009828445731
 51
180.0000982844573
 73
     1
 72
     1
 10
324.2826936731272
 20
175.2456735540268
 11
324.2826998485167
 21
171.145673554025
 72
     2
 10
325.2826998485144
 20
171.1456752694116
 40
0.9999999999990837
 50
180.0000982844117
 51
270.0000982844118
 73
     1
 72
     1
 10
325.2827015639009
 20
170.145675269414
 11
328.2827015638965
 21
170.1456804155714
 97
        1
330
24928
 75
     0
 76
     2
 52
-90.00000000000001
 41
1.0
 77
     0
 78
     2
 53
90.00009828434986
 43
-1.915823890177307
 44
-688.3548920073503
 45
2.829999999995834
 46
0.0000048545409918
 79
     2
 49
0.2000000000000001
 49
-2.83
 53
90.00009828434986
 43
-0.5008263174499917
 44
-686.9398895800809
 45
2.829999999995834
 46
0.0000048545409918
 79
     2
 49
0.2000000000000001
 49
-2.83
 98
        1
 10
-1.915823890177307
 20
-688.3548920073503
  0
LWPOLYLINE
  5
24928
102
{ACAD_REACTORS
330
24927
102
}
330
1F
100
AcDbEntity
  8
YKK_W1101_G
 62
   130
100
AcDbPolyline
 90
        8
 70
     1
 43
0.0
 10
328.2827015638965
 20
170.1456804155714
 42
0.4142135623730951
 10
329.2826998485089
 20
171.1456821309566
 10
329.2826936731197
 20
175.2456821309602
 42
0.4142135623730951
 10
328.2826919577354
 20
176.2456804155714
 10
325.2826919577397
 20
176.245675269414
 42
0.4142135623730951
 10
324.2826936731272
 20
175.2456735540268
 10
324.2826998485167
 20
171.145673554025
 42
0.4142135623730951
 10
325.2827015639009
 20
170.145675269414
  0
LINE
  5
24929
330
1F
100
AcDbEntity
  8
YKK_W1101_G
 62
   130
100
AcDbLine
 10
334.2827015638965
 20
205.1456778424927
 30
0.0
 11
335.7827015638965
 21
199.0456778424927
 31
0.0
1001
ACAD
1000
ASC_BOUNDS
1002
{
1070
    16
1002
}
  0
LINE
  5
2492A
330
1F
100
AcDbEntity
  8
YKK_W1101_G
 62
   130
100
AcDbLine
 10
329.2827015638965
 20
199.0456778424927
 30
0.0
 11
329.2827015638965
 21
205.1456778424927
 31
0.0
1001
ACAD
1000
ASC_BOUNDS
1002
{
1070
    16
1002
}
  0
LINE
  5
2492B
330
1F
100
AcDbEntity
  8
YKK_W1101_G
 62
   130
100
AcDbLine
 10
329.2827015638965
 20
205.1456778424927
 30
0.0
 11
334.2827015638965
 21
205.1456778424927
 31
0.0
1001
ACAD
1000
ASC_BOUNDS
1002
{
1070
    16
1002
}
  0
LINE
  5
2492C
330
1F
100
AcDbEntity
  8
YKK_W1101_G
 62
   130
100
AcDbLine
 10
330.3689930649119
 20
199.0456778424927
 30
0.0
 11
334.7142064654128
 21
203.3908912429936
 31
0.0
  0
LINE
  5
2492D
330
1F
100
AcDbEntity
  8
YKK_W1101_G
 62
   130
100
AcDbLine
 10
331.7832066272848
 20
199.0456778424927
 30
0.0
 11
334.9933275632494
 21
202.2557987784574
 31
0.0
  0
LINE
  5
2492E
330
1F
100
AcDbEntity
  8
YKK_W1101_G
 62
   130
100
AcDbLine
 10
333.1974201896581
 20
199.0456778424927
 30
0.0
 11
335.2724486610863
 21
201.1207063139211
 31
0.0
  0
LINE
  5
2492F
330
1F
100
AcDbEntity
  8
YKK_W1101_G
 62
   130
100
AcDbLine
 10
334.611633752031
 20
199.0456778424927
 30
0.0
 11
335.5515697589231
 21
199.9856138493846
 31
0.0
  0
LINE
  5
24930
330
1F
100
AcDbEntity
  8
YKK_W1101_G
 62
   130
100
AcDbLine
 10
329.2827015638965
 20
199.3735999038505
 30
0.0
 11
334.4350853675757
 21
204.52598370753
 31
0.0
  0
LINE
  5
24931
330
1F
100
AcDbEntity
  8
YKK_W1101_G
 62
   130
100
AcDbLine
 10
329.2827015638965
 20
200.7878134662237
 30
0.0
 11
333.6405659401656
 21
205.1456778424927
 31
0.0
  0
LINE
  5
24932
330
1F
100
AcDbEntity
  8
YKK_W1101_G
 62
   130
100
AcDbLine
 10
329.2827015638965
 20
202.2020270285967
 30
0.0
 11
332.2263523777924
 21
205.1456778424927
 31
0.0
  0
LINE
  5
24933
330
1F
100
AcDbEntity
  8
YKK_W1101_G
 62
   130
100
AcDbLine
 10
329.2827015638965
 20
203.6162405909699
 30
0.0
 11
330.8121388154193
 21
205.1456778424927
 31
0.0
  0
LINE
  5
24934
330
1F
100
AcDbEntity
  8
YKK_W1101_G
 62
   130
100
AcDbLine
 10
329.7532643123737
 20
205.1456778424927
 30
0.0
 11
335.7596919720018
 21
199.1392501828645
 31
0.0
  0
LINE
  5
24935
330
1F
100
AcDbEntity
  8
YKK_W1101_G
 62
   130
100
AcDbLine
 10
329.2827015638965
 20
204.2020270285968
 30
0.0
 11
334.4390507500006
 21
199.0456778424927
 31
0.0
  0
LINE
  5
24936
330
1F
100
AcDbEntity
  8
YKK_W1101_G
 62
   130
100
AcDbLine
 10
329.2827015638965
 20
202.7878134662237
 30
0.0
 11
333.0248371876275
 21
199.0456778424927
 31
0.0
  0
LINE
  5
24937
330
1F
100
AcDbEntity
  8
YKK_W1101_G
 62
   130
100
AcDbLine
 10
329.2827015638965
 20
201.3735999038505
 30
0.0
 11
331.6106236252544
 21
199.0456778424927
 31
0.0
  0
LINE
  5
24938
330
1F
100
AcDbEntity
  8
YKK_W1101_G
 62
   130
100
AcDbLine
 10
331.1674778747468
 20
205.1456778424927
 30
0.0
 11
335.2985353755758
 21
201.0146203416637
 31
0.0
  0
LINE
  5
24939
330
1F
100
AcDbEntity
  8
YKK_W1101_G
 62
   130
100
AcDbLine
 10
332.5816914371198
 20
205.1456778424927
 30
0.0
 11
334.8373787791498
 21
202.8899905004629
 31
0.0
  0
LINE
  5
2493A
330
1F
100
AcDbEntity
  8
YKK_W1101_G
 62
   130
100
AcDbLine
 10
333.995904999493
 20
205.1456778424927
 30
0.0
 11
334.3762221827238
 21
204.7653606592619
 31
0.0
  0
LINE
  5
2493B
330
1F
100
AcDbEntity
  8
YKK_W1101_G
 62
   130
100
AcDbLine
 10
329.2827015638965
 20
199.9593863414775
 30
0.0
 11
330.1964100628812
 21
199.0456778424927
 31
0.0
  0
HATCH
  5
2493C
330
1F
100
AcDbEntity
  8
YKK_W1101_G
 62
   130
100
AcDbHatch
 10
0.0
 20
0.0
 30
0.0
210
0.0
220
0.0
230
1.0
  2
YDOTS_1
 70
     0
 71
     1
 91
        1
 92
        1
 93
        8
 72
     2
 10
328.2826998485102
 20
204.1456752694153
 40
1.00000000000022
 50
270.0000982843987
 51
360.0000982843987
 73
     0
 72
     1
 10
329.2826998485089
 20
204.1456735540289
 11
329.2826936731197
 21
200.0456735540252
 72
     2
 10
328.282693673122
 20
200.0456752694117
 40
0.9999999999991974
 50
0.0000982844117447
 51
90.00009828441175
 73
     0
 72
     1
 10
328.2826919577354
 20
199.045675269414
 11
325.2826919577397
 21
199.0456804155715
 72
     2
 10
325.282693673127
 20
200.0456804155713
 40
1.0000000000013
 50
90.00009828445408
 51
180.0000982844541
 73
     0
 72
     1
 10
324.2826936731272
 20
200.0456821309586
 11
324.2826998485167
 21
204.1456821309603
 72
     2
 10
325.2826998485145
 20
204.1456804155738
 40
0.9999999999991974
 50
180.0000982844052
 51
270.0000982844052
 73
     0
 72
     1
 10
325.2827015639009
 20
205.1456804155715
 11
328.2827015638965
 21
205.145675269414
 97
        1
330
2493D
 75
     0
 76
     2
 52
-90.00000000000001
 41
1.0
 77
     0
 78
     2
 53
269.99990171565
 43
-1.91582389017708
 44
1063.646247692336
 45
2.829999999995834
 46
-0.0000048545409929
 79
     2
 49
0.2000000000000001
 49
-2.83
 53
269.99990171565
 43
-0.5008263174497643
 44
1062.231245265067
 45
2.829999999995834
 46
-0.0000048545409929
 79
     2
 49
0.2000000000000001
 49
-2.83
 98
        1
 10
-1.91582389017708
 20
1063.646247692336
  0
LWPOLYLINE
  5
2493D
102
{ACAD_REACTORS
330
2493C
102
}
330
1F
100
AcDbEntity
  8
YKK_W1101_G
 62
   130
100
AcDbPolyline
 90
        8
 70
     1
 43
0.0
 10
328.2827015638965
 20
205.145675269414
 42
-0.4142135623730951
 10
329.2826998485089
 20
204.1456735540289
 10
329.2826936731197
 20
200.0456735540252
 42
-0.4142135623730951
 10
328.2826919577354
 20
199.045675269414
 10
325.2826919577397
 20
199.0456804155715
 42
-0.4142135623730951
 10
324.2826936731272
 20
200.0456821309586
 10
324.2826998485167
 20
204.1456821309603
 42
-0.4142135623730951
 10
325.2827015639009
 20
205.1456804155715
  0
LINE
  5
2493E
330
1F
100
AcDbEntity
  8
YKK_W1701_G
 62
   130
100
AcDbLine
 10
516.2829835638965
 20
192.2456778424928
 30
0.0
 11
528.2829835638964
 21
180.2456778424929
 31
0.0
  0
LINE
  5
2493F
330
1F
100
AcDbEntity
  8
YKK_W1701_G
 62
   130
100
AcDbLine
 10
516.2829835638965
 20
180.2456778424929
 30
0.0
 11
528.2829835638964
 21
192.2456778424928
 31
0.0
  0
LINE
  5
24940
330
1F
100
AcDbEntity
  8
YKK_W1701_G
 62
   130
100
AcDbLine
 10
528.2829835638964
 20
192.2456778424928
 30
0.0
 11
528.2829835638964
 21
180.2456778424929
 31
0.0
  0
LINE
  5
24941
330
1F
100
AcDbEntity
  8
YKK_W1701_G
 62
   130
100
AcDbLine
 10
516.2829835638965
 20
180.2456778424929
 30
0.0
 11
516.2829835638965
 21
192.2456778424928
 31
0.0
  0
LINE
  5
24942
330
1F
100
AcDbEntity
  8
YKK_W1701_G
 62
   130
100
AcDbLine
 10
528.2829835638964
 20
192.2456778424928
 30
0.0
 11
516.2829835638965
 21
192.2456778424928
 31
0.0
  0
LINE
  5
24943
330
1F
100
AcDbEntity
  8
YKK_W1701_G
 62
   130
100
AcDbLine
 10
516.2829835638965
 20
180.2456778424929
 30
0.0
 11
528.2829835638964
 21
180.2456778424929
 31
0.0
  0
LINE
  5
24944
330
1F
100
AcDbEntity
  8
YKK_W1701_G
 62
   255
100
AcDbLine
 10
528.2829835638964
 20
199.0456778424928
 30
0.0
 11
426.4327015638967
 21
199.045677842493
 31
0.0
  0
LINE
  5
24945
330
1F
100
AcDbEntity
  8
YKK_W1701_G
 62
   255
100
AcDbLine
 10
528.2829835638964
 20
199.0456778424928
 30
0.0
 11
528.2829835638964
 21
192.2456778424928
 31
0.0
  0
LINE
  5
24946
330
1F
100
AcDbEntity
  8
YKK_W1701_G
 62
   255
100
AcDbLine
 10
528.2829835638964
 20
192.2456778424928
 30
0.0
 11
426.4327015638967
 21
192.2456778424929
 31
0.0
  0
LINE
  5
24947
330
1F
100
AcDbEntity
  8
YKK_W1701_G
 62
   130
100
AcDbLine
 10
528.2829835638964
 20
198.2456778424928
 30
0.0
 11
426.4327015638967
 21
198.2456778424928
 31
0.0
  0
LINE
  5
24948
330
1F
100
AcDbEntity
  8
YKK_W1701_G
 62
   130
100
AcDbLine
 10
528.2829835638964
 20
193.045677842493
 30
0.0
 11
426.4327015638967
 21
193.0456778424931
 31
0.0
  0
LINE
  5
24949
330
1F
100
AcDbEntity
  8
YKK_W1701_G
 62
   255
100
AcDbLine
 10
528.2829835638964
 20
176.2456778424929
 30
0.0
 11
485.4065220353848
 21
176.2456778424929
 31
0.0
  0
LINE
  5
2494A
330
1F
100
AcDbEntity
  8
YKK_W1701_G
 62
   255
100
AcDbLine
 10
469.1824521023184
 20
176.2456778424929
 30
0.0
 11
426.4327015638967
 21
176.2456778424929
 31
0.0
  0
LINE
  5
2494B
330
1F
100
AcDbEntity
  8
YKK_W1701_G
 62
   255
100
AcDbLine
 10
528.2829835638964
 20
180.2456778424929
 30
0.0
 11
485.4065220353848
 21
180.2456778424929
 31
0.0
  0
LINE
  5
2494C
330
1F
100
AcDbEntity
  8
YKK_W1701_G
 62
   255
100
AcDbLine
 10
469.1824521023184
 20
180.2456778424929
 30
0.0
 11
426.4327015638967
 21
180.2456778424929
 31
0.0
  0
LINE
  5
2494D
330
1F
100
AcDbEntity
  8
YKK_W1701_G
 62
   130
100
AcDbLine
 10
528.2829835638964
 20
177.2456778424928
 30
0.0
 11
485.4065220353848
 21
177.2456778424928
 31
0.0
  0
LINE
  5
2494E
330
1F
100
AcDbEntity
  8
YKK_W1701_G
 62
   130
100
AcDbLine
 10
469.1824521023184
 20
177.2456778424928
 30
0.0
 11
426.4327015638967
 21
177.2456778424928
 31
0.0
  0
LINE
  5
2494F
330
1F
100
AcDbEntity
  8
YKK_W1701_G
 62
   130
100
AcDbLine
 10
528.2829835638964
 20
179.2456778424928
 30
0.0
 11
485.4065220353848
 21
179.2456778424928
 31
0.0
  0
LINE
  5
24950
330
1F
100
AcDbEntity
  8
YKK_W1701_G
 62
   130
100
AcDbLine
 10
469.1824521023184
 20
179.2456778424929
 30
0.0
 11
426.4327015638967
 21
179.2456778424929
 31
0.0
  0
LINE
  5
24951
330
1F
100
AcDbEntity
  8
YKK_W1701_G
 62
   255
100
AcDbLine
 10
528.2829835638964
 20
176.2456778424929
 30
0.0
 11
528.2829835638964
 21
180.2456778424929
 31
0.0
  0
LINE
  5
24952
330
1F
100
AcDbEntity
  8
YKK_W1701_G
 62
   130
100
AcDbLine
 10
513.2829835638963
 20
170.145677842493
 30
0.0
 11
511.7829835638964
 21
176.2456778424929
 31
0.0
1001
ACAD
1000
ASC_BOUNDS
1002
{
1070
    16
1002
}
  0
LINE
  5
24953
330
1F
100
AcDbEntity
  8
YKK_W1701_G
 62
   130
100
AcDbLine
 10
518.2829835638964
 20
176.2456778424929
 30
0.0
 11
518.2829835638964
 21
170.145677842493
 31
0.0
1001
ACAD
1000
ASC_BOUNDS
1002
{
1070
    16
1002
}
  0
LINE
  5
24954
330
1F
100
AcDbEntity
  8
YKK_W1701_G
 62
   130
100
AcDbLine
 10
518.2829835638964
 20
170.145677842493
 30
0.0
 11
513.2829835638963
 21
170.145677842493
 31
0.0
1001
ACAD
1000
ASC_BOUNDS
1002
{
1070
    16
1002
}
  0
LINE
  5
24955
330
1F
100
AcDbEntity
  8
YKK_W1701_G
 62
   130
100
AcDbLine
 10
517.1966920628809
 20
176.2456778424929
 30
0.0
 11
512.85147866238
 21
171.9004644419918
 31
0.0
  0
LINE
  5
24956
330
1F
100
AcDbEntity
  8
YKK_W1701_G
 62
   130
100
AcDbLine
 10
515.7824785005082
 20
176.2456778424929
 30
0.0
 11
512.5723575645436
 21
173.0355569065283
 31
0.0
  0
LINE
  5
24957
330
1F
100
AcDbEntity
  8
YKK_W1701_G
 62
   130
100
AcDbLine
 10
514.3682649381348
 20
176.2456778424929
 30
0.0
 11
512.2932364667067
 21
174.1706493710645
 31
0.0
  0
LINE
  5
24958
330
1F
100
AcDbEntity
  8
YKK_W1701_G
 62
   130
100
AcDbLine
 10
512.9540513757619
 20
176.2456778424929
 30
0.0
 11
512.0141153688698
 21
175.305741835601
 31
0.0
  0
LINE
  5
24959
330
1F
100
AcDbEntity
  8
YKK_W1701_G
 62
   130
100
AcDbLine
 10
518.2829835638964
 20
175.917755781135
 30
0.0
 11
513.1305997602171
 21
170.7653719774556
 31
0.0
  0
LINE
  5
2495A
330
1F
100
AcDbEntity
  8
YKK_W1701_G
 62
   130
100
AcDbLine
 10
518.2829835638964
 20
174.5035422187619
 30
0.0
 11
513.9251191876273
 21
170.145677842493
 31
0.0
  0
LINE
  5
2495B
330
1F
100
AcDbEntity
  8
YKK_W1701_G
 62
   130
100
AcDbLine
 10
518.2829835638964
 20
173.0893286563888
 30
0.0
 11
515.3393327500007
 21
170.145677842493
 31
0.0
  0
LINE
  5
2495C
330
1F
100
AcDbEntity
  8
YKK_W1701_G
 62
   130
100
AcDbLine
 10
518.2829835638964
 20
171.6751150940157
 30
0.0
 11
516.7535463123735
 21
170.145677842493
 31
0.0
  0
LINE
  5
2495D
330
1F
100
AcDbEntity
  8
YKK_W1701_G
 62
   130
100
AcDbLine
 10
517.8124208154193
 20
170.145677842493
 30
0.0
 11
511.8059931557911
 21
176.1521055021209
 31
0.0
  0
LINE
  5
2495E
330
1F
100
AcDbEntity
  8
YKK_W1701_G
 62
   130
100
AcDbLine
 10
518.2829835638964
 20
171.0893286563888
 30
0.0
 11
513.1266343777924
 21
176.2456778424929
 31
0.0
  0
LINE
  5
2495F
330
1F
100
AcDbEntity
  8
YKK_W1701_G
 62
   130
100
AcDbLine
 10
518.2829835638964
 20
172.5035422187619
 30
0.0
 11
514.5408479401653
 21
176.2456778424929
 31
0.0
  0
LINE
  5
24960
330
1F
100
AcDbEntity
  8
YKK_W1701_G
 62
   130
100
AcDbLine
 10
518.2829835638964
 20
173.917755781135
 30
0.0
 11
515.9550615025384
 21
176.2456778424929
 31
0.0
  0
LINE
  5
24961
330
1F
100
AcDbEntity
  8
YKK_W1701_G
 62
   130
100
AcDbLine
 10
516.3982072530461
 20
170.145677842493
 30
0.0
 11
512.2671497522171
 21
174.276735343322
 31
0.0
  0
LINE
  5
24962
330
1F
100
AcDbEntity
  8
YKK_W1701_G
 62
   130
100
AcDbLine
 10
514.983993690673
 20
170.145677842493
 30
0.0
 11
512.7283063486431
 21
172.4013651845227
 31
0.0
  0
LINE
  5
24963
330
1F
100
AcDbEntity
  8
YKK_W1701_G
 62
   130
100
AcDbLine
 10
513.5697801282999
 20
170.145677842493
 30
0.0
 11
513.1894629450691
 21
170.5259950257238
 31
0.0
  0
LINE
  5
24964
330
1F
100
AcDbEntity
  8
YKK_W1701_G
 62
   130
100
AcDbLine
 10
518.2829835638964
 20
175.3319693435081
 30
0.0
 11
517.3692750649117
 21
176.2456778424929
 31
0.0
  0
HATCH
  5
24965
330
1F
100
AcDbEntity
  8
YKK_W1701_G
 62
   130
100
AcDbHatch
 10
0.0
 20
0.0
 30
0.0
210
0.0
220
0.0
230
1.0
  2
YDOTS_1
 70
     0
 71
     1
 91
        1
 92
        1
 93
        8
 72
     2
 10
519.2829852792828
 20
171.1456804155705
 40
1.000000000000334
 50
90.00009828439871
 51
180.0000982843987
 73
     0
 72
     1
 10
518.2829852792839
 20
171.1456821309568
 11
518.2829914546731
 21
175.2456821309605
 72
     2
 10
519.2829914546709
 20
175.2456804155739
 40
0.9999999999991974
 50
180.0000982844117
 51
270.0000982844118
 73
     0
 72
     1
 10
519.2829931700575
 20
176.2456804155716
 11
522.2829931700531
 21
176.2456752694141
 72
     2
 10
522.2829914546658
 20
175.2456752694144
 40
1.000000000001243
 50
270.0000982844508
 51
360.0000982844508
 73
     0
 72
     1
 10
523.2829914546656
 20
175.2456735540271
 11
523.2829852792762
 21
171.1456735540251
 72
     2
 10
522.2829852792785
 20
171.1456752694118
 40
0.9999999999990837
 50
0.0000982844150016
 51
90.00009828441825
 73
     0
 72
     1
 10
522.2829835638918
 20
170.1456752694141
 11
519.2829835638964
 21
170.1456804155716
 97
        1
330
24966
 75
     0
 76
     2
 52
0.0
 41
1.0
 77
     0
 78
     2
 53
89.99990171565004
 43
849.4815090179702
 44
-688.3548920073503
 45
-2.829999999995834
 46
0.000004854540993
 79
     2
 49
0.2000000000000001
 49
-2.83
 53
89.99990171565004
 43
848.0665114452426
 44
-686.9398895800809
 45
-2.829999999995834
 46
0.000004854540993
 79
     2
 49
0.2000000000000001
 49
-2.83
 98
        1
 10
849.4815090179702
 20
-688.3548920073503
  0
LWPOLYLINE
  5
24966
102
{ACAD_REACTORS
330
24965
102
}
330
1F
100
AcDbEntity
  8
YKK_W1701_G
 62
   130
100
AcDbPolyline
 90
        8
 70
     1
 43
0.0
 10
519.2829835638964
 20
170.1456804155716
 42
-0.4142135623730951
 10
518.2829852792839
 20
171.1456821309568
 10
518.2829914546731
 20
175.2456821309605
 42
-0.4142135623730951
 10
519.2829931700575
 20
176.2456804155716
 10
522.2829931700531
 20
176.2456752694141
 42
-0.4142135623730951
 10
523.2829914546656
 20
175.2456735540271
 10
523.2829852792762
 20
171.1456735540251
 42
-0.4142135623730951
 10
522.2829835638918
 20
170.1456752694141
  0
LINE
  5
24967
330
1F
100
AcDbEntity
  8
YKK_W1701_G
 62
   130
100
AcDbLine
 10
513.2829835638963
 20
205.1456778424928
 30
0.0
 11
511.7829835638964
 21
199.045677842493
 31
0.0
1001
ACAD
1000
ASC_BOUNDS
1002
{
1070
    16
1002
}
  0
LINE
  5
24968
330
1F
100
AcDbEntity
  8
YKK_W1701_G
 62
   130
100
AcDbLine
 10
518.2829835638964
 20
199.0456778424928
 30
0.0
 11
518.2829835638964
 21
205.1456778424928
 31
0.0
1001
ACAD
1000
ASC_BOUNDS
1002
{
1070
    16
1002
}
  0
LINE
  5
24969
330
1F
100
AcDbEntity
  8
YKK_W1701_G
 62
   130
100
AcDbLine
 10
518.2829835638964
 20
205.1456778424928
 30
0.0
 11
513.2829835638963
 21
205.1456778424928
 31
0.0
1001
ACAD
1000
ASC_BOUNDS
1002
{
1070
    16
1002
}
  0
LINE
  5
2496A
330
1F
100
AcDbEntity
  8
YKK_W1701_G
 62
   130
100
AcDbLine
 10
517.1966920628809
 20
199.045677842493
 30
0.0
 11
512.85147866238
 21
203.3908912429937
 31
0.0
  0
LINE
  5
2496B
330
1F
100
AcDbEntity
  8
YKK_W1701_G
 62
   130
100
AcDbLine
 10
515.7824785005082
 20
199.045677842493
 30
0.0
 11
512.5723575645436
 21
202.2557987784577
 31
0.0
  0
LINE
  5
2496C
330
1F
100
AcDbEntity
  8
YKK_W1701_G
 62
   130
100
AcDbLine
 10
514.3682649381348
 20
199.045677842493
 30
0.0
 11
512.2932364667067
 21
201.1207063139212
 31
0.0
  0
LINE
  5
2496D
330
1F
100
AcDbEntity
  8
YKK_W1701_G
 62
   130
100
AcDbLine
 10
512.9540513757619
 20
199.045677842493
 30
0.0
 11
512.0141153688698
 21
199.985613849385
 31
0.0
  0
LINE
  5
2496E
330
1F
100
AcDbEntity
  8
YKK_W1701_G
 62
   130
100
AcDbLine
 10
518.2829835638964
 20
199.3735999038507
 30
0.0
 11
513.1305997602171
 21
204.5259837075302
 31
0.0
  0
LINE
  5
2496F
330
1F
100
AcDbEntity
  8
YKK_W1701_G
 62
   130
100
AcDbLine
 10
518.2829835638964
 20
200.7878134662238
 30
0.0
 11
513.9251191876273
 21
205.1456778424928
 31
0.0
  0
LINE
  5
24970
330
1F
100
AcDbEntity
  8
YKK_W1701_G
 62
   130
100
AcDbLine
 10
518.2829835638964
 20
202.2020270285969
 30
0.0
 11
515.3393327500007
 21
205.1456778424928
 31
0.0
  0
LINE
  5
24971
330
1F
100
AcDbEntity
  8
YKK_W1701_G
 62
   130
100
AcDbLine
 10
518.2829835638964
 20
203.61624059097
 30
0.0
 11
516.7535463123735
 21
205.1456778424928
 31
0.0
  0
LINE
  5
24972
330
1F
100
AcDbEntity
  8
YKK_W1701_G
 62
   130
100
AcDbLine
 10
517.8124208154193
 20
205.1456778424928
 30
0.0
 11
511.8059931557911
 21
199.1392501828649
 31
0.0
  0
LINE
  5
24973
330
1F
100
AcDbEntity
  8
YKK_W1701_G
 62
   130
100
AcDbLine
 10
518.2829835638964
 20
204.2020270285969
 30
0.0
 11
513.1266343777924
 21
199.045677842493
 31
0.0
  0
LINE
  5
24974
330
1F
100
AcDbEntity
  8
YKK_W1701_G
 62
   130
100
AcDbLine
 10
518.2829835638964
 20
202.7878134662238
 30
0.0
 11
514.5408479401653
 21
199.045677842493
 31
0.0
  0
LINE
  5
24975
330
1F
100
AcDbEntity
  8
YKK_W1701_G
 62
   130
100
AcDbLine
 10
518.2829835638964
 20
201.3735999038507
 30
0.0
 11
515.9550615025384
 21
199.045677842493
 31
0.0
  0
LINE
  5
24976
330
1F
100
AcDbEntity
  8
YKK_W1701_G
 62
   130
100
AcDbLine
 10
516.3982072530461
 20
205.1456778424928
 30
0.0
 11
512.2671497522171
 21
201.0146203416638
 31
0.0
  0
LINE
  5
24977
330
1F
100
AcDbEntity
  8
YKK_W1701_G
 62
   130
100
AcDbLine
 10
514.9839936906732
 20
205.1456778424928
 30
0.0
 11
512.7283063486431
 21
202.8899905004631
 31
0.0
  0
LINE
  5
24978
330
1F
100
AcDbEntity
  8
YKK_W1701_G
 62
   130
100
AcDbLine
 10
513.5697801282999
 20
205.1456778424928
 30
0.0
 11
513.1894629450691
 21
204.765360659262
 31
0.0
  0
LINE
  5
24979
330
1F
100
AcDbEntity
  8
YKK_W1701_G
 62
   130
100
AcDbLine
 10
518.2829835638964
 20
199.9593863414776
 30
0.0
 11
517.3692750649117
 21
199.0456778424928
 31
0.0
  0
HATCH
  5
2497A
330
1F
100
AcDbEntity
  8
YKK_W1701_G
 62
   130
100
AcDbHatch
 10
0.0
 20
0.0
 30
0.0
210
0.0
220
0.0
230
1.0
  2
YDOTS_1
 70
     0
 71
     1
 91
        1
 92
        1
 93
        8
 72
     2
 10
519.2829852792827
 20
204.1456752694153
 40
1.000000000000277
 50
90.00009828439221
 51
180.0000982843954
 73
     1
 72
     1
 10
518.2829852792839
 20
204.145673554029
 11
518.2829914546731
 21
200.0456735540252
 72
     2
 10
519.2829914546709
 20
200.0456752694118
 40
0.9999999999991974
 50
180.0000982844117
 51
270.0000982844118
 73
     1
 72
     1
 10
519.2829931700575
 20
199.0456752694141
 11
522.2829931700531
 21
199.0456804155716
 72
     2
 10
522.2829914546658
 20
200.0456804155714
 40
1.0000000000013
 50
270.0000982844508
 51
360.000098284454
 73
     1
 72
     1
 10
523.2829914546656
 20
200.0456821309588
 11
523.2829852792762
 21
204.1456821309606
 72
     2
 10
522.2829852792785
 20
204.1456804155739
 40
0.9999999999990837
 50
0.0000982844150017
 51
90.00009828441825
 73
     1
 72
     1
 10
522.2829835638918
 20
205.1456804155716
 11
519.2829835638964
 21
205.1456752694142
 97
        1
330
2497B
 75
     0
 76
     2
 52
0.0
 41
1.0
 77
     0
 78
     2
 53
270.00009828435
 43
849.4815090179702
 44
1063.646247692336
 45
-2.829999999995834
 46
-0.0000048545409917
 79
     2
 49
0.2000000000000001
 49
-2.83
 53
270.00009828435
 43
848.0665114452435
 44
1062.231245265066
 45
-2.829999999995834
 46
-0.0000048545409917
 79
     2
 49
0.2000000000000001
 49
-2.83
 98
        1
 10
849.4815090179702
 20
1063.646247692336
  0
LWPOLYLINE
  5
2497B
102
{ACAD_REACTORS
330
2497A
102
}
330
1F
100
AcDbEntity
  8
YKK_W1701_G
 62
   130
100
AcDbPolyline
 90
        8
 70
     1
 43
0.0
 10
519.2829835638964
 20
205.1456752694142
 42
0.4142135623730951
 10
518.2829852792839
 20
204.145673554029
 10
518.2829914546731
 20
200.0456735540252
 42
0.4142135623730951
 10
519.2829931700575
 20
199.0456752694141
 10
522.2829931700531
 20
199.0456804155716
 42
0.4142135623730951
 10
523.2829914546656
 20
200.0456821309588
 10
523.2829852792762
 20
204.1456821309606
 42
0.4142135623730951
 10
522.2829835638918
 20
205.1456804155716
  0
LINE
  5
2497C
330
1F
100
AcDbEntity
  8
0
  6
HIDDEN
 62
   130
 48
10.0
100
AcDbLine
 10
608.0829835638963
 20
174.4456778424927
 30
0.0
 11
607.0829835638964
 21
175.4456778424927
 31
0.0
  0
LINE
  5
2497D
330
1F
100
AcDbEntity
  8
0
  6
HIDDEN
 62
   130
 48
10.0
100
AcDbLine
 10
608.0829835638963
 20
174.4456778424927
 30
0.0
 11
608.0829835638963
 21
183.4456778424927
 31
0.0
  0
LINE
  5
2497E
330
1F
100
AcDbEntity
  8
0
  6
HIDDEN
 62
   130
 48
10.0
100
AcDbLine
 10
607.0829835638964
 20
175.4456778424927
 30
0.0
 11
607.0829835638964
 21
182.4456778424927
 31
0.0
  0
LINE
  5
2497F
330
1F
100
AcDbEntity
  8
0
  6
HIDDEN
 62
   130
 48
10.0
100
AcDbLine
 10
607.0829835638964
 20
182.4456778424927
 30
0.0
 11
608.0829835638963
 21
183.4456778424927
 31
0.0
  0
ARC
  5
24980
330
1F
100
AcDbEntity
  8
0
  6
HIDDEN2
 62
   130
 48
10.0
100
AcDbCircle
 10
609.5829835638964
 20
174.4456778424927
 30
0.0
 40
1.5
100
AcDbArc
 50
180.0
 51
0.0
  0
ARC
  5
24981
330
1F
100
AcDbEntity
  8
0
  6
HIDDEN2
 62
   130
 48
10.0
100
AcDbCircle
 10
612.5829835638963
 20
174.4456778424927
 30
0.0
 40
1.5
100
AcDbArc
 50
239.9999999999995
 51
0.0
  0
ARC
  5
24982
330
1F
100
AcDbEntity
  8
0
  6
HIDDEN2
 62
   130
 48
10.0
100
AcDbCircle
 10
611.0829835638964
 20
174.4456778424927
 30
0.0
 40
1.5
100
AcDbArc
 50
239.9999999999995
 51
0.0
  0
ARC
  5
24983
330
1F
100
AcDbEntity
  8
0
  6
HIDDEN
 62
   130
 48
10.0
100
AcDbCircle
 10
642.9757944250651
 20
176.6956778424927
 30
0.0
 40
4.0
100
AcDbArc
 50
325.7711336721882
 51
34.22886632781179
  0
ARC
  5
24984
330
1F
100
AcDbEntity
  8
0
  6
HIDDEN
 62
   130
 48
10.0
100
AcDbCircle
 10
642.9757944250651
 20
181.1956778424927
 30
0.0
 40
4.0
100
AcDbArc
 50
325.7711336721882
 51
34.22886632781179
  0
ARC
  5
24985
330
1F
100
AcDbEntity
  8
0
  6
HIDDEN
 62
   130
 48
10.0
100
AcDbCircle
 10
649.5901727027272
 20
181.1956778424927
 30
0.0
 40
4.0
100
AcDbArc
 50
145.7711336721882
 51
214.2288663278118
  0
LINE
  5
24986
330
1F
100
AcDbEntity
  8
YSS_W1701_K
  6
YHIDDEN
 62
   130
100
AcDbLine
 10
646.2829835638964
 20
183.4456778424927
 30
0.0
 11
608.0829835638963
 21
183.4456778424927
 31
0.0
  0
LINE
  5
24987
330
1F
100
AcDbEntity
  8
YSS_W1701_K
  6
YHIDDEN
 62
   130
100
AcDbLine
 10
646.2829835638964
 20
174.4456778424927
 30
0.0
 11
608.0829835638963
 21
174.4456778424927
 31
0.0
  0
LINE
  5
24988
330
1F
100
AcDbEntity
  8
YKK_W1101
 62
     2
100
AcDbLine
 10
271.2827015638965
 20
213.9456778424928
 30
0.0
 11
272.2827015638966
 21
213.9456778424928
 31
0.0
  0
LINE
  5
24989
330
1F
100
AcDbEntity
  8
YKK_W1701
 62
     2
100
AcDbLine
 10
575.2829835638965
 20
213.9456778424929
 30
0.0
 11
576.2829835638964
 21
213.9456778424929
 31
0.0
  0
LINE
  5
2498A
330
1F
100
AcDbEntity
  8
YKK_W1101
 62
     2
100
AcDbLine
 10
271.2827015638965
 20
143.9456778424928
 30
0.0
 11
421.4327015638968
 21
143.9456778424928
 31
0.0
  0
LINE
  5
2498B
330
1F
100
AcDbEntity
  8
YKK_W1701
 62
     2
100
AcDbLine
 10
426.4327015638968
 20
143.9456778424932
 30
0.0
 11
576.2829835638885
 21
143.9456778424929
 31
0.0
  0
LINE
  5
2498C
330
1F
100
AcDbEntity
  8
YKK_W1101
 62
     2
100
AcDbLine
 10
271.2855715338898
 20
145.5756778424927
 30
0.0
 11
421.4327015638967
 21
145.5756778424927
 31
0.0
  0
LINE
  5
2498D
330
1F
100
AcDbEntity
  8
YKK_W1701
 62
     2
100
AcDbLine
 10
426.4327015638967
 20
145.5756778424929
 30
0.0
 11
576.2829835638968
 21
145.5756778424929
 31
0.0
  0
LINE
  5
2498E
330
1F
100
AcDbEntity
  8
YKK_W1101
 62
     2
100
AcDbLine
 10
328.5827015596867
 20
170.1452472942983
 30
0.0
 11
421.4327015638967
 21
170.1452469390715
 31
0.0
  0
LINE
  5
2498F
330
1F
100
AcDbEntity
  8
YKK_W1701
 62
     2
100
AcDbLine
 10
426.4327015638967
 20
170.1452430140821
 30
0.0
 11
518.9846517563766
 21
170.1452426599518
 31
0.0
  0
LINE
  5
24990
330
1F
100
AcDbEntity
  8
YKK_W1101
 62
     2
100
AcDbLine
 10
301.2127015638959
 20
155.3461338732022
 30
0.0
 11
421.4327015638967
 21
155.3461338732022
 31
0.0
  0
LINE
  5
24991
330
1F
100
AcDbEntity
  8
YKK_W1701
 62
     2
100
AcDbLine
 10
426.4327015638967
 20
155.3461338732023
 30
0.0
 11
546.3529842514995
 21
155.3461338732023
 31
0.0
  0
LINE
  5
24992
330
1F
100
AcDbEntity
  8
YKK_W1101
 62
     2
100
AcDbLine
 10
301.2127015638959
 20
165.9452472993221
 30
0.0
 11
301.2127015638959
 21
155.3461338732022
 31
0.0
  0
LINE
  5
24993
330
1F
100
AcDbEntity
  8
YKK_W1101
 62
     2
100
AcDbLine
 10
315.7690005210247
 20
165.9452472993221
 30
0.0
 11
421.4327015638967
 21
165.945247299322
 31
0.0
  0
LINE
  5
24994
330
1F
100
AcDbEntity
  8
YKK_W1701
 62
     2
100
AcDbLine
 10
426.4327015638967
 20
165.9452472993221
 30
0.0
 11
531.7212129112357
 21
165.9452472993222
 31
0.0
  0
LINE
  5
24995
330
1F
100
AcDbEntity
  8
YKK_W1101
 62
     2
100
AcDbLine
 10
316.582701563896
 20
168.1452472993219
 30
0.0
 11
421.4327015638967
 21
168.1452472993219
 31
0.0
  0
LINE
  5
24996
330
1F
100
AcDbEntity
  8
YKK_W1701
 62
     2
100
AcDbLine
 10
426.4327015638967
 20
168.145247299322
 30
0.0
 11
530.9829842514995
 21
168.145247299322
 31
0.0
  0
LINE
  5
24997
330
1F
100
AcDbEntity
  8
YKK_W1701
 62
     2
100
AcDbLine
 10
546.3529842514995
 20
165.9452472993222
 30
0.0
 11
546.3529842514995
 21
155.3461338732022
 31
0.0
  0
LINE
  5
24998
330
1F
100
AcDbEntity
  8
YKK_W1701
 62
     2
100
AcDbLine
 10
513.7829842514995
 20
205.145247299322
 30
0.0
 11
426.4327015638968
 21
205.145247299322
 31
0.0
  0
LINE
  5
24999
330
1F
100
AcDbEntity
  8
YKK_W1101
 62
     2
100
AcDbLine
 10
421.4327015638967
 20
205.1452472993219
 30
0.0
 11
333.7827015638961
 21
205.1452472993219
 31
0.0
  0
LINE
  5
2499A
330
1F
100
AcDbEntity
  8
YKK_W1101
 62
     2
100
AcDbLine
 10
334.2827015638961
 20
209.7452509538836
 30
0.0
 11
421.4327015638967
 21
209.7452545625582
 31
0.0
  0
LINE
  5
2499B
330
1F
100
AcDbEntity
  8
YKK_W1701
 62
     2
100
AcDbLine
 10
426.4327015638967
 20
209.7453323260706
 30
0.0
 11
513.2829842514995
 21
209.7453359223348
 31
0.0
  0
LINE
  5
2499C
330
1F
100
AcDbEntity
  8
0
  6
ByBlock
 62
     0
 48
0.5
370
    -2
100
AcDbLine
 10
309.7827015538961
 20
208.9452472893221
 30
0.0
 11
309.7827015538961
 21
210.0152472893221
 31
0.0
  0
LINE
  5
2499D
330
1F
100
AcDbEntity
  8
0
  6
ByBlock
 62
     0
 48
0.5
370
    -2
100
AcDbLine
 10
309.7827015538961
 20
210.0152472893221
 30
0.0
 11
301.2127015538959
 21
210.0152472893221
 31
0.0
  0
LINE
  5
2499E
330
1F
100
AcDbEntity
  8
0
  6
ByBlock
 62
     0
 48
0.5
370
    -2
100
AcDbLine
 10
301.2127015538959
 20
210.0152472893221
 30
0.0
 11
301.2127015538959
 21
167.875247289322
 31
0.0
  0
LINE
  5
2499F
330
1F
100
AcDbEntity
  8
0
  6
ByBlock
 62
     0
 48
0.5
370
    -2
100
AcDbLine
 10
301.2127015538959
 20
167.875247289322
 30
0.0
 11
309.7827015538961
 21
167.875247289322
 31
0.0
  0
LINE
  5
249A0
330
1F
100
AcDbEntity
  8
0
  6
ByBlock
 62
     0
 48
0.5
370
    -2
100
AcDbLine
 10
309.7827015538961
 20
167.875247289322
 30
0.0
 11
309.7827015538961
 21
168.945247289322
 31
0.0
  0
LINE
  5
249A1
330
1F
100
AcDbEntity
  8
0
  6
ByBlock
 62
     0
 48
0.5
370
    -2
100
AcDbLine
 10
309.7827015538961
 20
168.945247289322
 30
0.0
 11
309.3527015538961
 21
169.375247289322
 31
0.0
  0
LINE
  5
249A2
330
1F
100
AcDbEntity
  8
0
  6
ByBlock
 62
     0
 48
0.5
370
    -2
100
AcDbLine
 10
309.3527015538961
 20
169.375247289322
 30
0.0
 11
309.3527015538961
 21
208.5152472893221
 31
0.0
  0
LINE
  5
249A3
330
1F
100
AcDbEntity
  8
0
  6
ByBlock
 62
     0
 48
0.5
370
    -2
100
AcDbLine
 10
309.3527015538961
 20
208.5152472893221
 30
0.0
 11
309.7827015538961
 21
208.9452472893221
 31
0.0
  0
LINE
  5
249A4
330
1F
100
AcDbEntity
  8
0
  6
ByBlock
 62
     0
 48
0.5
370
    -2
100
AcDbLine
 10
317.2409591233949
 20
210.0152472893219
 30
0.0
 11
322.0827015538959
 21
210.0152472893232
 31
0.0
  0
LINE
  5
249A5
330
1F
100
AcDbEntity
  8
0
  6
ByBlock
 62
     0
 48
0.5
370
    -2
100
AcDbLine
 10
322.0827015538959
 20
210.0152472893232
 30
0.0
 11
322.0827015538962
 21
205.6452472893231
 31
0.0
  0
ARC
  5
249A6
330
1F
100
AcDbEntity
  8
0
  6
ByBlock
 62
     0
 48
0.5
370
    -2
100
AcDbCircle
 10
322.582701553896
 20
205.6452472893231
 30
0.0
 40
0.5000000000000285
100
AcDbArc
 50
180.0
 51
269.9999999999935
  0
LINE
  5
249A7
330
1F
100
AcDbEntity
  8
0
  6
ByBlock
 62
     0
 48
0.5
370
    -2
100
AcDbLine
 10
322.582701553896
 20
205.1452472893231
 30
0.0
 11
324.2827015538957
 21
205.1452472893231
 31
0.0
  0
LINE
  5
249A8
330
1F
100
AcDbEntity
  8
0
  6
ByBlock
 62
     0
 48
0.5
370
    -2
100
AcDbLine
 10
324.2827015538957
 20
205.1452472893231
 30
0.0
 11
324.2827015538962
 21
206.1452472893232
 31
0.0
  0
LINE
  5
249A9
330
1F
100
AcDbEntity
  8
0
  6
ByBlock
 62
     0
 48
0.5
370
    -2
100
AcDbLine
 10
324.2827015538962
 20
206.1452472893232
 30
0.0
 11
323.0827015538959
 21
206.1452472893232
 31
0.0
  0
LINE
  5
249AA
330
1F
100
AcDbEntity
  8
0
  6
ByBlock
 62
     0
 48
0.5
370
    -2
100
AcDbLine
 10
323.0827015538959
 20
206.1452472893232
 30
0.0
 11
323.0827015538958
 21
210.0152472893232
 31
0.0
  0
LINE
  5
249AB
330
1F
100
AcDbEntity
  8
0
  6
ByBlock
 62
     0
 48
0.5
370
    -2
100
AcDbLine
 10
323.0827015538958
 20
210.0152472893232
 30
0.0
 11
332.3527015538961
 21
210.0152472893219
 31
0.0
  0
LINE
  5
249AC
330
1F
100
AcDbEntity
  8
0
  6
ByBlock
 62
     0
 48
0.5
370
    -2
100
AcDbLine
 10
332.3527015538961
 20
210.0152472893219
 30
0.0
 11
332.3527015538961
 21
206.145247289322
 31
0.0
  0
LINE
  5
249AD
330
1F
100
AcDbEntity
  8
0
  6
ByBlock
 62
     0
 48
0.5
370
    -2
100
AcDbLine
 10
332.3527015538961
 20
206.145247289322
 30
0.0
 11
328.2827015538962
 21
206.145247289322
 31
0.0
  0
LINE
  5
249AE
330
1F
100
AcDbEntity
  8
0
  6
ByBlock
 62
     0
 48
0.5
370
    -2
100
AcDbLine
 10
328.2827015538962
 20
206.145247289322
 30
0.0
 11
328.2827015538957
 21
205.145247289322
 31
0.0
  0
LINE
  5
249AF
330
1F
100
AcDbEntity
  8
0
  6
ByBlock
 62
     0
 48
0.5
370
    -2
100
AcDbLine
 10
328.2827015538957
 20
205.145247289322
 30
0.0
 11
333.7827015538961
 21
205.145247289322
 31
0.0
  0
ARC
  5
249B0
330
1F
100
AcDbEntity
  8
0
  6
ByBlock
 62
     0
 48
0.5
370
    -2
100
AcDbCircle
 10
333.7827015538961
 20
205.645247289322
 30
0.0
 40
0.5
100
AcDbArc
 50
270.0
 51
0.0
  0
LINE
  5
249B1
330
1F
100
AcDbEntity
  8
0
  6
ByBlock
 62
     0
 48
0.5
370
    -2
100
AcDbLine
 10
334.282701553896
 20
205.645247289322
 30
0.0
 11
334.282701553896
 21
211.9452472893221
 31
0.0
  0
LINE
  5
249B2
330
1F
100
AcDbEntity
  8
0
  6
ByBlock
 62
     0
 48
0.5
370
    -2
100
AcDbLine
 10
334.282701553896
 20
211.9452472893221
 30
0.0
 11
299.282701553896
 21
211.9452472893221
 31
0.0
  0
LINE
  5
249B3
330
1F
100
AcDbEntity
  8
0
  6
ByBlock
 62
     0
 48
0.5
370
    -2
100
AcDbLine
 10
299.282701553896
 20
211.9452472893221
 30
0.0
 11
299.282701553896
 21
205.145247289322
 31
0.0
  0
LINE
  5
249B4
330
1F
100
AcDbEntity
  8
0
  6
ByBlock
 62
     0
 48
0.5
370
    -2
100
AcDbLine
 10
299.282701553896
 20
205.145247289322
 30
0.0
 11
297.582701553896
 21
205.145247289322
 31
0.0
  0
LINE
  5
249B5
330
1F
100
AcDbEntity
  8
0
  6
ByBlock
 62
     0
 48
0.5
370
    -2
100
AcDbLine
 10
297.582701553896
 20
205.145247289322
 30
0.0
 11
297.582701553896
 21
204.145247289322
 31
0.0
  0
LINE
  5
249B6
330
1F
100
AcDbEntity
  8
0
  6
ByBlock
 62
     0
 48
0.5
370
    -2
100
AcDbLine
 10
297.582701553896
 20
204.145247289322
 30
0.0
 11
299.282701553896
 21
204.145247289322
 31
0.0
  0
LINE
  5
249B7
330
1F
100
AcDbEntity
  8
0
  6
ByBlock
 62
     0
 48
0.5
370
    -2
100
AcDbLine
 10
299.282701553896
 20
204.145247289322
 30
0.0
 11
299.282701553896
 21
167.875247289322
 31
0.0
  0
LINE
  5
249B8
330
1F
100
AcDbEntity
  8
0
  6
ByBlock
 62
     0
 48
0.5
370
    -2
100
AcDbLine
 10
299.282701553896
 20
167.875247289322
 30
0.0
 11
276.282701553896
 21
167.875247289322
 31
0.0
  0
LINE
  5
249B9
330
1F
100
AcDbEntity
  8
0
  6
ByBlock
 62
     0
 48
0.5
370
    -2
100
AcDbLine
 10
276.282701553896
 20
167.875247289322
 30
0.0
 11
276.282701553896
 21
165.9452472893221
 31
0.0
  0
LINE
  5
249BA
330
1F
100
AcDbEntity
  8
0
  6
ByBlock
 62
     0
 48
0.5
370
    -2
100
AcDbLine
 10
276.282701553896
 20
165.9452472893221
 30
0.0
 11
316.2827015538961
 21
165.9452472893221
 31
0.0
  0
LINE
  5
249BB
330
1F
100
AcDbEntity
  8
0
  6
ByBlock
 62
     0
 48
0.5
370
    -2
100
AcDbLine
 10
316.2827015538961
 20
165.9452472893221
 30
0.0
 11
316.2827015538961
 21
172.145247289322
 31
0.0
  0
LINE
  5
249BC
330
1F
100
AcDbEntity
  8
0
  6
ByBlock
 62
     0
 48
0.5
370
    -2
100
AcDbLine
 10
316.2827015538961
 20
172.145247289322
 30
0.0
 11
315.4827015538959
 21
172.145247289322
 31
0.0
  0
LINE
  5
249BD
330
1F
100
AcDbEntity
  8
0
  6
ByBlock
 62
     0
 48
0.5
370
    -2
100
AcDbLine
 10
315.4827015538959
 20
172.145247289322
 30
0.0
 11
314.3527015538962
 21
170.1880298767694
 31
0.0
  0
LINE
  5
249BE
330
1F
100
AcDbEntity
  8
0
  6
ByBlock
 62
     0
 48
0.5
370
    -2
100
AcDbLine
 10
314.3527015538962
 20
170.1880298767694
 30
0.0
 11
314.3527015538961
 21
169.3752472893221
 31
0.0
  0
LINE
  5
249BF
330
1F
100
AcDbEntity
  8
0
  6
ByBlock
 62
     0
 48
0.5
370
    -2
100
AcDbLine
 10
314.3527015538961
 20
169.3752472893221
 30
0.0
 11
314.7827015538961
 21
168.945247289322
 31
0.0
  0
LINE
  5
249C0
330
1F
100
AcDbEntity
  8
0
  6
ByBlock
 62
     0
 48
0.5
370
    -2
100
AcDbLine
 10
314.7827015538961
 20
168.945247289322
 30
0.0
 11
314.7827015538961
 21
167.875247289322
 31
0.0
  0
LINE
  5
249C1
330
1F
100
AcDbEntity
  8
0
  6
ByBlock
 62
     0
 48
0.5
370
    -2
100
AcDbLine
 10
314.7827015538961
 20
167.875247289322
 30
0.0
 11
311.2827015538961
 21
167.875247289322
 31
0.0
  0
LINE
  5
249C2
330
1F
100
AcDbEntity
  8
0
  6
ByBlock
 62
     0
 48
0.5
370
    -2
100
AcDbLine
 10
311.2827015538961
 20
167.875247289322
 30
0.0
 11
311.2827015538961
 21
187.845247289322
 31
0.0
  0
LINE
  5
249C3
330
1F
100
AcDbEntity
  8
0
  6
ByBlock
 62
     0
 48
0.5
370
    -2
100
AcDbLine
 10
311.2827015538961
 20
187.845247289322
 30
0.0
 11
313.282701553896
 21
187.845247289322
 31
0.0
  0
LINE
  5
249C4
330
1F
100
AcDbEntity
  8
0
  6
ByBlock
 62
     0
 48
0.5
370
    -2
100
AcDbLine
 10
313.282701553896
 20
187.845247289322
 30
0.0
 11
313.282701553896
 21
184.645247289322
 31
0.0
  0
LINE
  5
249C5
330
1F
100
AcDbEntity
  8
0
  6
ByBlock
 62
     0
 48
0.5
370
    -2
100
AcDbLine
 10
313.282701553896
 20
184.645247289322
 30
0.0
 11
314.2827015538961
 21
184.645247289322
 31
0.0
  0
LINE
  5
249C6
330
1F
100
AcDbEntity
  8
0
  6
ByBlock
 62
     0
 48
0.5
370
    -2
100
AcDbLine
 10
314.2827015538961
 20
184.645247289322
 30
0.0
 11
314.2827015538961
 21
188.345247289322
 31
0.0
  0
ARC
  5
249C7
330
1F
100
AcDbEntity
  8
0
  6
ByBlock
 62
     0
 48
0.5
370
    -2
100
AcDbCircle
 10
313.782701553896
 20
188.345247289322
 30
0.0
 40
0.5
100
AcDbArc
 50
0.0
 51
90.0
  0
LINE
  5
249C8
330
1F
100
AcDbEntity
  8
0
  6
ByBlock
 62
     0
 48
0.5
370
    -2
100
AcDbLine
 10
313.782701553896
 20
188.845247289322
 30
0.0
 11
311.2827015538961
 21
188.845247289322
 31
0.0
  0
LINE
  5
249C9
330
1F
100
AcDbEntity
  8
0
  6
ByBlock
 62
     0
 48
0.5
370
    -2
100
AcDbLine
 10
311.2827015538961
 20
188.845247289322
 30
0.0
 11
311.2827015538961
 21
210.0152472893221
 31
0.0
  0
LINE
  5
249CA
330
1F
100
AcDbEntity
  8
0
  6
ByBlock
 62
     0
 48
0.5
370
    -2
100
AcDbLine
 10
311.2827015538961
 20
210.0152472893221
 30
0.0
 11
315.3244439844039
 21
210.0152472893221
 31
0.0
  0
ARC
  5
249CB
330
1F
100
AcDbEntity
  8
0
  6
ByBlock
 62
     0
 48
0.5
370
    -2
100
AcDbCircle
 10
315.3244439844039
 20
210.2152472893219
 30
0.0
 40
0.1999999999999318
100
AcDbArc
 50
270.0
 51
336.4218215217928
  0
ARC
  5
249CC
330
1F
100
AcDbEntity
  8
0
  6
ByBlock
 62
     0
 48
0.5
370
    -2
100
AcDbCircle
 10
315.7827015538992
 20
210.0152472893219
 30
0.0
 40
0.3000000000000057
100
AcDbArc
 50
23.57817847820715
 51
156.4218215217928
  0
ARC
  5
249CD
330
1F
100
AcDbEntity
  8
0
  6
ByBlock
 62
     0
 48
0.5
370
    -2
100
AcDbCircle
 10
316.2409591233949
 20
210.2152472893221
 30
0.0
 40
0.2000000000000146
100
AcDbArc
 50
203.5781784782071
 51
270.000000000013
  0
LINE
  5
249CE
330
1F
100
AcDbEntity
  8
0
  6
ByBlock
 62
     0
 48
0.5
370
    -2
100
AcDbLine
 10
316.2409591233949
 20
210.0152472893219
 30
0.0
 11
316.3244439844039
 21
210.0152472893219
 31
0.0
  0
ARC
  5
249CF
330
1F
100
AcDbEntity
  8
0
  6
ByBlock
 62
     0
 48
0.5
370
    -2
100
AcDbCircle
 10
316.3244439844039
 20
210.2152472893219
 30
0.0
 40
0.1999999999999318
100
AcDbArc
 50
270.0000000000065
 51
336.4218215218074
  0
ARC
  5
249D0
330
1F
100
AcDbEntity
  8
0
  6
ByBlock
 62
     0
 48
0.5
370
    -2
100
AcDbCircle
 10
316.7827015538995
 20
210.0152472893219
 30
0.0
 40
0.3000000000000123
100
AcDbArc
 50
23.57817847820715
 51
156.4218215217928
  0
ARC
  5
249D1
330
1F
100
AcDbEntity
  8
0
  6
ByBlock
 62
     0
 48
0.5
370
    -2
100
AcDbCircle
 10
317.2409591233949
 20
210.2152472893221
 30
0.0
 40
0.2000000000000472
100
AcDbArc
 50
203.5781784782071
 51
270.0
  0
LINE
  5
249D2
330
1F
100
AcDbEntity
  8
0
  6
ByBlock
 62
     0
 48
0.5
370
    -2
100
AcDbLine
 10
537.7829842614998
 20
208.9452472893221
 30
0.0
 11
537.7829842614998
 21
210.015247289322
 31
0.0
  0
LINE
  5
249D3
330
1F
100
AcDbEntity
  8
0
  6
ByBlock
 62
     0
 48
0.5
370
    -2
100
AcDbLine
 10
537.7829842614998
 20
210.015247289322
 30
0.0
 11
546.3529842614997
 21
210.015247289322
 31
0.0
  0
LINE
  5
249D4
330
1F
100
AcDbEntity
  8
0
  6
ByBlock
 62
     0
 48
0.5
370
    -2
100
AcDbLine
 10
546.3529842614997
 20
210.015247289322
 30
0.0
 11
546.3529842614997
 21
167.8752472893221
 31
0.0
  0
LINE
  5
249D5
330
1F
100
AcDbEntity
  8
0
  6
ByBlock
 62
     0
 48
0.5
370
    -2
100
AcDbLine
 10
546.3529842614997
 20
167.8752472893221
 30
0.0
 11
537.7829842614998
 21
167.8752472893221
 31
0.0
  0
LINE
  5
249D6
330
1F
100
AcDbEntity
  8
0
  6
ByBlock
 62
     0
 48
0.5
370
    -2
100
AcDbLine
 10
537.7829842614998
 20
167.8752472893221
 30
0.0
 11
537.7829842614998
 21
168.945247289322
 31
0.0
  0
LINE
  5
249D7
330
1F
100
AcDbEntity
  8
0
  6
ByBlock
 62
     0
 48
0.5
370
    -2
100
AcDbLine
 10
537.7829842614998
 20
168.945247289322
 30
0.0
 11
538.2129842614996
 21
169.3752472893221
 31
0.0
  0
LINE
  5
249D8
330
1F
100
AcDbEntity
  8
0
  6
ByBlock
 62
     0
 48
0.5
370
    -2
100
AcDbLine
 10
538.2129842614996
 20
169.3752472893221
 30
0.0
 11
538.2129842614996
 21
208.5152472893223
 31
0.0
  0
LINE
  5
249D9
330
1F
100
AcDbEntity
  8
0
  6
ByBlock
 62
     0
 48
0.5
370
    -2
100
AcDbLine
 10
538.2129842614996
 20
208.5152472893223
 30
0.0
 11
537.7829842614998
 21
208.9452472893221
 31
0.0
  0
LINE
  5
249DA
330
1F
100
AcDbEntity
  8
0
  6
ByBlock
 62
     0
 48
0.5
370
    -2
100
AcDbLine
 10
530.3247266920005
 20
210.015247289322
 30
0.0
 11
525.4829842614996
 21
210.0152472893233
 31
0.0
  0
LINE
  5
249DB
330
1F
100
AcDbEntity
  8
0
  6
ByBlock
 62
     0
 48
0.5
370
    -2
100
AcDbLine
 10
525.4829842614996
 20
210.0152472893233
 30
0.0
 11
525.4829842614993
 21
205.6452472893231
 31
0.0
  0
ARC
  5
249DC
330
1F
100
AcDbEntity
  8
0
  6
ByBlock
 62
     0
 48
0.5
370
    -2
100
AcDbCircle
 10
524.9829842614993
 20
205.6452472893231
 30
0.0
 40
0.5000000000000285
100
AcDbArc
 50
270.0000000000065
 51
0.0
  0
LINE
  5
249DD
330
1F
100
AcDbEntity
  8
0
  6
ByBlock
 62
     0
 48
0.5
370
    -2
100
AcDbLine
 10
524.9829842614993
 20
205.1452472893231
 30
0.0
 11
523.2829842614997
 21
205.1452472893233
 31
0.0
  0
LINE
  5
249DE
330
1F
100
AcDbEntity
  8
0
  6
ByBlock
 62
     0
 48
0.5
370
    -2
100
AcDbLine
 10
523.2829842614997
 20
205.1452472893233
 30
0.0
 11
523.2829842614993
 21
206.1452472893233
 31
0.0
  0
LINE
  5
249DF
330
1F
100
AcDbEntity
  8
0
  6
ByBlock
 62
     0
 48
0.5
370
    -2
100
AcDbLine
 10
523.2829842614993
 20
206.1452472893233
 30
0.0
 11
524.4829842614996
 21
206.1452472893233
 31
0.0
  0
LINE
  5
249E0
330
1F
100
AcDbEntity
  8
0
  6
ByBlock
 62
     0
 48
0.5
370
    -2
100
AcDbLine
 10
524.4829842614996
 20
206.1452472893233
 30
0.0
 11
524.4829842614996
 21
210.0152472893232
 31
0.0
  0
LINE
  5
249E1
330
1F
100
AcDbEntity
  8
0
  6
ByBlock
 62
     0
 48
0.5
370
    -2
100
AcDbLine
 10
524.4829842614996
 20
210.0152472893232
 30
0.0
 11
515.2129842614993
 21
210.015247289322
 31
0.0
  0
LINE
  5
249E2
330
1F
100
AcDbEntity
  8
0
  6
ByBlock
 62
     0
 48
0.5
370
    -2
100
AcDbLine
 10
515.2129842614993
 20
210.015247289322
 30
0.0
 11
515.2129842614993
 21
206.1452472893221
 31
0.0
  0
LINE
  5
249E3
330
1F
100
AcDbEntity
  8
0
  6
ByBlock
 62
     0
 48
0.5
370
    -2
100
AcDbLine
 10
515.2129842614993
 20
206.1452472893221
 30
0.0
 11
519.282984261499
 21
206.1452472893221
 31
0.0
  0
LINE
  5
249E4
330
1F
100
AcDbEntity
  8
0
  6
ByBlock
 62
     0
 48
0.5
370
    -2
100
AcDbLine
 10
519.282984261499
 20
206.1452472893221
 30
0.0
 11
519.2829842614997
 21
205.1452472893221
 31
0.0
  0
LINE
  5
249E5
330
1F
100
AcDbEntity
  8
0
  6
ByBlock
 62
     0
 48
0.5
370
    -2
100
AcDbLine
 10
519.2829842614997
 20
205.1452472893221
 30
0.0
 11
513.7829842614994
 21
205.1452472893221
 31
0.0
  0
ARC
  5
249E6
330
1F
100
AcDbEntity
  8
0
  6
ByBlock
 62
     0
 48
0.5
370
    -2
100
AcDbCircle
 10
513.7829842614994
 20
205.6452472893221
 30
0.0
 40
0.5
100
AcDbArc
 50
180.0
 51
270.0
  0
LINE
  5
249E7
330
1F
100
AcDbEntity
  8
0
  6
ByBlock
 62
     0
 48
0.5
370
    -2
100
AcDbLine
 10
513.2829842614994
 20
205.6452472893221
 30
0.0
 11
513.2829842614994
 21
211.9452472893222
 31
0.0
  0
LINE
  5
249E8
330
1F
100
AcDbEntity
  8
0
  6
ByBlock
 62
     0
 48
0.5
370
    -2
100
AcDbLine
 10
513.2829842614994
 20
211.9452472893222
 30
0.0
 11
548.2829842614993
 21
211.9452472893222
 31
0.0
  0
LINE
  5
249E9
330
1F
100
AcDbEntity
  8
0
  6
ByBlock
 62
     0
 48
0.5
370
    -2
100
AcDbLine
 10
548.2829842614993
 20
211.9452472893222
 30
0.0
 11
548.2829842614993
 21
205.1452472893221
 31
0.0
  0
LINE
  5
249EA
330
1F
100
AcDbEntity
  8
0
  6
ByBlock
 62
     0
 48
0.5
370
    -2
100
AcDbLine
 10
548.2829842614993
 20
205.1452472893221
 30
0.0
 11
549.9829842614996
 21
205.1452472893221
 31
0.0
  0
LINE
  5
249EB
330
1F
100
AcDbEntity
  8
0
  6
ByBlock
 62
     0
 48
0.5
370
    -2
100
AcDbLine
 10
549.9829842614996
 20
205.1452472893221
 30
0.0
 11
549.9829842614996
 21
204.1452472893221
 31
0.0
  0
LINE
  5
249EC
330
1F
100
AcDbEntity
  8
0
  6
ByBlock
 62
     0
 48
0.5
370
    -2
100
AcDbLine
 10
549.9829842614996
 20
204.1452472893221
 30
0.0
 11
548.2829842614993
 21
204.1452472893221
 31
0.0
  0
LINE
  5
249ED
330
1F
100
AcDbEntity
  8
0
  6
ByBlock
 62
     0
 48
0.5
370
    -2
100
AcDbLine
 10
548.2829842614993
 20
204.1452472893221
 30
0.0
 11
548.2829842614993
 21
167.8752472893221
 31
0.0
  0
LINE
  5
249EE
330
1F
100
AcDbEntity
  8
0
  6
ByBlock
 62
     0
 48
0.5
370
    -2
100
AcDbLine
 10
548.2829842614993
 20
167.8752472893221
 30
0.0
 11
571.2829842614998
 21
167.8752472893221
 31
0.0
  0
LINE
  5
249EF
330
1F
100
AcDbEntity
  8
0
  6
ByBlock
 62
     0
 48
0.5
370
    -2
100
AcDbLine
 10
571.2829842614998
 20
167.8752472893221
 30
0.0
 11
571.2829842614998
 21
165.9452472893222
 31
0.0
  0
LINE
  5
249F0
330
1F
100
AcDbEntity
  8
0
  6
ByBlock
 62
     0
 48
0.5
370
    -2
100
AcDbLine
 10
571.2829842614998
 20
165.9452472893222
 30
0.0
 11
531.2829842614993
 21
165.9452472893222
 31
0.0
  0
LINE
  5
249F1
330
1F
100
AcDbEntity
  8
0
  6
ByBlock
 62
     0
 48
0.5
370
    -2
100
AcDbLine
 10
531.2829842614993
 20
165.9452472893222
 30
0.0
 11
531.2829842614993
 21
172.1452472893221
 31
0.0
  0
LINE
  5
249F2
330
1F
100
AcDbEntity
  8
0
  6
ByBlock
 62
     0
 48
0.5
370
    -2
100
AcDbLine
 10
531.2829842614993
 20
172.1452472893221
 30
0.0
 11
532.0829842614997
 21
172.1452472893221
 31
0.0
  0
LINE
  5
249F3
330
1F
100
AcDbEntity
  8
0
  6
ByBlock
 62
     0
 48
0.5
370
    -2
100
AcDbLine
 10
532.0829842614997
 20
172.1452472893221
 30
0.0
 11
533.2129842614993
 21
170.1880298767695
 31
0.0
  0
LINE
  5
249F4
330
1F
100
AcDbEntity
  8
0
  6
ByBlock
 62
     0
 48
0.5
370
    -2
100
AcDbLine
 10
533.2129842614993
 20
170.1880298767695
 30
0.0
 11
533.2129842614996
 21
169.3752472893221
 31
0.0
  0
LINE
  5
249F5
330
1F
100
AcDbEntity
  8
0
  6
ByBlock
 62
     0
 48
0.5
370
    -2
100
AcDbLine
 10
533.2129842614996
 20
169.3752472893221
 30
0.0
 11
532.7829842614997
 21
168.945247289322
 31
0.0
  0
LINE
  5
249F6
330
1F
100
AcDbEntity
  8
0
  6
ByBlock
 62
     0
 48
0.5
370
    -2
100
AcDbLine
 10
532.7829842614997
 20
168.945247289322
 30
0.0
 11
532.7829842614997
 21
167.8752472893221
 31
0.0
  0
LINE
  5
249F7
330
1F
100
AcDbEntity
  8
0
  6
ByBlock
 62
     0
 48
0.5
370
    -2
100
AcDbLine
 10
532.7829842614997
 20
167.8752472893221
 30
0.0
 11
536.2829842614997
 21
167.8752472893221
 31
0.0
  0
LINE
  5
249F8
330
1F
100
AcDbEntity
  8
0
  6
ByBlock
 62
     0
 48
0.5
370
    -2
100
AcDbLine
 10
536.2829842614997
 20
167.8752472893221
 30
0.0
 11
536.2829842614997
 21
187.8452472893221
 31
0.0
  0
LINE
  5
249F9
330
1F
100
AcDbEntity
  8
0
  6
ByBlock
 62
     0
 48
0.5
370
    -2
100
AcDbLine
 10
536.2829842614997
 20
187.8452472893221
 30
0.0
 11
534.2829842614998
 21
187.8452472893221
 31
0.0
  0
LINE
  5
249FA
330
1F
100
AcDbEntity
  8
0
  6
ByBlock
 62
     0
 48
0.5
370
    -2
100
AcDbLine
 10
534.2829842614998
 20
187.8452472893221
 30
0.0
 11
534.2829842614998
 21
184.6452472893221
 31
0.0
  0
LINE
  5
249FB
330
1F
100
AcDbEntity
  8
0
  6
ByBlock
 62
     0
 48
0.5
370
    -2
100
AcDbLine
 10
534.2829842614998
 20
184.6452472893221
 30
0.0
 11
533.2829842614997
 21
184.6452472893221
 31
0.0
  0
LINE
  5
249FC
330
1F
100
AcDbEntity
  8
0
  6
ByBlock
 62
     0
 48
0.5
370
    -2
100
AcDbLine
 10
533.2829842614997
 20
184.6452472893221
 30
0.0
 11
533.2829842614997
 21
188.3452472893221
 31
0.0
  0
ARC
  5
249FD
330
1F
100
AcDbEntity
  8
0
  6
ByBlock
 62
     0
 48
0.5
370
    -2
100
AcDbCircle
 10
533.7829842614998
 20
188.3452472893221
 30
0.0
 40
0.5
100
AcDbArc
 50
90.0
 51
180.0
  0
LINE
  5
249FE
330
1F
100
AcDbEntity
  8
0
  6
ByBlock
 62
     0
 48
0.5
370
    -2
100
AcDbLine
 10
533.7829842614998
 20
188.8452472893222
 30
0.0
 11
536.2829842614997
 21
188.8452472893222
 31
0.0
  0
LINE
  5
249FF
330
1F
100
AcDbEntity
  8
0
  6
ByBlock
 62
     0
 48
0.5
370
    -2
100
AcDbLine
 10
536.2829842614997
 20
188.8452472893222
 30
0.0
 11
536.2829842614997
 21
210.015247289322
 31
0.0
  0
LINE
  5
24A00
330
1F
100
AcDbEntity
  8
0
  6
ByBlock
 62
     0
 48
0.5
370
    -2
100
AcDbLine
 10
536.2829842614997
 20
210.015247289322
 30
0.0
 11
532.2412418309915
 21
210.015247289322
 31
0.0
  0
ARC
  5
24A01
330
1F
100
AcDbEntity
  8
0
  6
ByBlock
 62
     0
 48
0.5
370
    -2
100
AcDbCircle
 10
532.2412418309915
 20
210.2152472893219
 30
0.0
 40
0.1999999999999318
100
AcDbArc
 50
203.5781784782071
 51
270.0
  0
ARC
  5
24A02
330
1F
100
AcDbEntity
  8
0
  6
ByBlock
 62
     0
 48
0.5
370
    -2
100
AcDbCircle
 10
531.7829842614959
 20
210.015247289322
 30
0.0
 40
0.3000000000000057
100
AcDbArc
 50
23.57817847820715
 51
156.4218215217928
  0
ARC
  5
24A03
330
1F
100
AcDbEntity
  8
0
  6
ByBlock
 62
     0
 48
0.5
370
    -2
100
AcDbCircle
 10
531.3247266920005
 20
210.2152472893221
 30
0.0
 40
0.2000000000000146
100
AcDbArc
 50
269.999999999987
 51
336.4218215217928
  0
LINE
  5
24A04
330
1F
100
AcDbEntity
  8
0
  6
ByBlock
 62
     0
 48
0.5
370
    -2
100
AcDbLine
 10
531.3247266920005
 20
210.015247289322
 30
0.0
 11
531.2412418309914
 21
210.015247289322
 31
0.0
  0
ARC
  5
24A05
330
1F
100
AcDbEntity
  8
0
  6
ByBlock
 62
     0
 48
0.5
370
    -2
100
AcDbCircle
 10
531.2412418309914
 20
210.2152472893219
 30
0.0
 40
0.1999999999999318
100
AcDbArc
 50
203.5781784781926
 51
269.9999999999935
  0
ARC
  5
24A06
330
1F
100
AcDbEntity
  8
0
  6
ByBlock
 62
     0
 48
0.5
370
    -2
100
AcDbCircle
 10
530.7829842614961
 20
210.015247289322
 30
0.0
 40
0.3000000000000123
100
AcDbArc
 50
23.57817847820715
 51
156.4218215217928
  0
ARC
  5
24A07
330
1F
100
AcDbEntity
  8
0
  6
ByBlock
 62
     0
 48
0.5
370
    -2
100
AcDbCircle
 10
530.3247266920005
 20
210.2152472893221
 30
0.0
 40
0.2000000000000472
100
AcDbArc
 50
270.0
 51
336.4218215217928
  0
HATCH
  5
24A08
330
1F
100
AcDbEntity
  8
YKK_W1101
 62
     4
100
AcDbHatch
 10
0.0
 20
0.0
 30
0.0
210
0.0
220
0.0
230
1.0
  2
ANSI31
 70
     0
 71
     0
 91
        1
 92
        5
 93
       25
 72
     3
 10
286.6827015638967
 20
210.045677842493
 11
0.1414213562372737
 21
0.1414213562372737
 40
0.9999999999999658
 50
315.0000000000081
 51
405.0000000000161
 73
     1
 72
     1
 10
286.6827015638964
 20
210.2456778424928
 11
286.1827015638964
 21
210.2456778424928
 72
     3
 10
286.1827015638964
 20
209.9456778424928
 11
0.2121320343559642
 21
0.2121320343559642
 40
0.9999999999999815
 50
44.99999999999999
 51
134.9999999999945
 73
     1
 72
     1
 10
285.8827015638963
 20
209.9456778424931
 11
285.8827015638963
 21
209.4456778424931
 72
     3
 10
286.1827015638964
 20
209.4456778424931
 11
-0.2121320343559784
 21
0.2121320343559784
 40
0.9999999999998475
 50
45.0000000000054
 51
134.9999999999999
 73
     1
 72
     1
 10
286.1827015638964
 20
209.145677842493
 11
286.9827015638966
 21
209.145677842493
 72
     1
 10
286.9827015638966
 20
209.145677842493
 11
286.9827015638966
 21
208.0456778424929
 72
     1
 10
286.9827015638966
 20
208.0456778424929
 11
285.8827015638965
 21
208.0456778424929
 72
     3
 10
285.8827015638963
 20
207.7456778424927
 11
-0.2121320343559887
 21
0.2121320343559888
 40
0.9999999999998447
 50
-45.0
 51
44.99999999999998
 73
     1
 72
     1
 10
285.5827015638963
 20
207.7456778424927
 11
285.5827015638963
 21
207.3456778424928
 72
     3
 10
285.8827015638963
 20
207.3456778424928
 11
-0.2121320343559903
 21
0.2121320343559903
 40
0.9999999999999259
 50
44.99999999999457
 51
134.9999999999999
 73
     1
 72
     1
 10
285.8827015638963
 20
207.0456778424929
 11
291.5806521280833
 21
207.045677842493
 72
     1
 10
291.5806521280833
 20
207.045677842493
 11
291.5806521280833
 21
208.0456778424929
 72
     1
 10
291.5806521280833
 20
208.0456778424929
 11
289.3827015638963
 21
208.0456778424929
 72
     1
 10
289.3827015638963
 20
208.0456778424929
 11
289.3827015638963
 21
208.6847006196302
 72
     3
 10
289.0827015638964
 20
208.6847006196292
 11
-0.2121320343559848
 21
0.2121320343559848
 40
0.9999999999999163
 50
225.0000000001737
 51
281.9442688491289
 73
     1
 72
     3
 10
289.3827015638953
 20
209.1456778424947
 11
-0.1767766952966667
 21
0.1767766952966667
 40
0.9999999999998308
 50
258.0557311505217
 51
461.9442688495271
 73
     0
 72
     3
 10
289.843678786761
 20
209.4456778424931
 11
0.2121320343559481
 21
0.2121320343559481
 40
0.9999999999998676
 50
168.055731150779
 51
224.9999999996526
 73
     1
 72
     1
 10
289.8436787867592
 20
209.145677842493
 11
290.1827015638963
 21
209.145677842493
 72
     3
 10
290.1827015638963
 20
209.4456778424931
 11
-0.2121320343559624
 21
0.2121320343559624
 40
0.9999999999999225
 50
135.0000000000108
 51
269.9999999999885
 73
     1
 72
     1
 10
290.3948335982523
 20
209.6578098768489
 11
289.8948335982526
 21
210.1578098768489
 72
     3
 10
289.6827015638964
 20
209.9456778424928
 11
0.2121320343560031
 21
0.2121320343560031
 40
0.9999999999997537
 50
0.0000000000038357
 51
44.99999999999999
 73
     1
 72
     1
 10
289.6827015638964
 20
210.2456778424928
 11
289.0827015638964
 21
210.2456778424928
 72
     3
 10
289.0827015638964
 20
210.045677842493
 11
-0.1414213562373021
 21
0.1414213562373021
 40
0.9999999999998486
 50
-45.0
 51
44.99999999999184
 73
     1
 72
     1
 10
288.8827015638963
 20
210.045677842493
 11
286.8827015638963
 21
210.045677842493
 97
        0
 75
     0
 76
     1
 52
270.0
 41
0.3
 77
     0
 78
     1
 53
45.0
 43
30.08520893211062
 44
104.5534383786143
 45
-0.6735192090801863
 46
0.6735192090801866
 79
     0
 47
0.0133074857672603
 98
        1
 10
-24.41879941598086
 20
376.6012206795358
1001
ACAD
1010
0.0
1020
0.0
1030
0.0
  0
LINE
  5
24A09
330
1F
100
AcDbEntity
  8
YKK_W1101
 62
     4
100
AcDbLine
 10
286.1827015638964
 20
210.2456778424928
 30
0.0
 11
286.6827015638964
 21
210.2456778424928
 31
0.0
  0
LINE
  5
24A0A
330
1F
100
AcDbEntity
  8
YKK_W1101
 62
     4
100
AcDbLine
 10
289.0827015638964
 20
210.2456778424928
 30
0.0
 11
289.6827015638964
 21
210.2456778424928
 31
0.0
  0
LINE
  5
24A0B
330
1F
100
AcDbEntity
  8
YKK_W1101
 62
     4
100
AcDbLine
 10
290.1827015638963
 20
209.145677842493
 30
0.0
 11
289.8436787867592
 21
209.145677842493
 31
0.0
  0
LINE
  5
24A0C
330
1F
100
AcDbEntity
  8
YKK_W1101
 62
     4
100
AcDbLine
 10
289.3827015638963
 20
208.6847006196302
 30
0.0
 11
289.3827015638963
 21
208.0456778424929
 31
0.0
  0
LINE
  5
24A0D
330
1F
100
AcDbEntity
  8
YKK_W1101
 62
     4
100
AcDbLine
 10
289.3827015638963
 20
208.0456778424929
 30
0.0
 11
291.5806521280833
 21
208.0456778424929
 31
0.0
  0
LINE
  5
24A0E
330
1F
100
AcDbEntity
  8
YKK_W1101
 62
     4
100
AcDbLine
 10
286.9827015638966
 20
208.0456778424929
 30
0.0
 11
286.9827015638966
 21
209.145677842493
 31
0.0
  0
LINE
  5
24A0F
330
1F
100
AcDbEntity
  8
YKK_W1101
 62
     4
100
AcDbLine
 10
286.9827015638966
 20
209.145677842493
 30
0.0
 11
286.1827015638964
 21
209.145677842493
 31
0.0
  0
LINE
  5
24A10
330
1F
100
AcDbEntity
  8
YKK_W1101
 62
     4
100
AcDbLine
 10
285.8827015638963
 20
209.4456778424931
 30
0.0
 11
285.8827015638963
 21
209.9456778424931
 31
0.0
  0
LINE
  5
24A11
330
1F
100
AcDbEntity
  8
YKK_W1101
 62
     4
100
AcDbLine
 10
289.8948335982523
 20
210.1578098768489
 30
0.0
 11
290.3948335982523
 21
209.6578098768489
 31
0.0
  0
LINE
  5
24A12
330
1F
100
AcDbEntity
  8
YKK_W1101
 62
     4
100
AcDbLine
 10
286.8827015638963
 20
210.045677842493
 30
0.0
 11
288.8827015638963
 21
210.045677842493
 31
0.0
  0
LINE
  5
24A13
330
1F
100
AcDbEntity
  8
YKK_W1101
 62
     4
100
AcDbLine
 10
285.8827015638963
 20
207.0456778424929
 30
0.0
 11
291.5806521280833
 21
207.045677842493
 31
0.0
  0
LINE
  5
24A14
330
1F
100
AcDbEntity
  8
YKK_W1101
 62
     4
100
AcDbLine
 10
291.5806521280833
 20
207.045677842493
 30
0.0
 11
291.5806521280833
 21
208.0456778424929
 31
0.0
  0
LINE
  5
24A15
330
1F
100
AcDbEntity
  8
YKK_W1101
 62
     4
100
AcDbLine
 10
285.5827015638963
 20
207.3456778424928
 30
0.0
 11
285.5827015638963
 21
207.7456778424927
 31
0.0
  0
LINE
  5
24A16
330
1F
100
AcDbEntity
  8
YKK_W1101
 62
     4
100
AcDbLine
 10
285.8827015638963
 20
208.0456778424929
 30
0.0
 11
286.9827015638966
 21
208.0456778424929
 31
0.0
  0
LINE
  5
24A17
330
1F
100
AcDbEntity
  8
YKK_W1101
 62
     4
100
AcDbLine
 10
291.5806521280835
 20
208.0456778424929
 30
0.0
 11
291.6677175067905
 21
208.0597755148681
 31
0.0
  0
LINE
  5
24A18
330
1F
100
AcDbEntity
  8
YKK_W1101
 62
     4
100
AcDbLine
 10
291.5806521280833
 20
207.045677842493
 30
0.0
 11
298.3417436994691
 21
208.4519640023259
 31
0.0
  0
LINE
  5
24A19
330
1F
100
AcDbEntity
  8
YKK_W1101
 62
     4
100
AcDbLine
 10
292.6946275323688
 20
208.219179907707
 30
0.0
 11
298.2365715814152
 21
209.0424216805173
 31
0.0
  0
HATCH
  5
24A1A
330
1F
100
AcDbEntity
  8
YKK_W1701
 62
     4
100
AcDbHatch
 10
0.0
 20
0.0
 30
0.0
210
0.0
220
0.0
230
1.0
  2
ANSI31
 70
     0
 71
     0
 91
        1
 92
        7
 72
     1
 73
     1
 93
       25
 10
560.682983563896
 20
210.0456778424931
 42
-0.4142135623730952
 10
560.8829835638961
 20
210.2456778424928
 42
0.0
 10
561.3829835638961
 20
210.2456778424928
 42
-0.4142135623730951
 10
561.682983563896
 20
209.9456778424929
 42
0.0
 10
561.682983563896
 20
209.4456778424929
 42
-0.4142135623730951
 10
561.3829835638961
 20
209.1456778424931
 42
0.0
 10
560.5829835638961
 20
209.1456778424931
 42
0.0
 10
560.5829835638961
 20
208.0456778424929
 42
0.0
 10
561.682983563896
 20
208.0456778424929
 42
-0.4142135623730673
 10
561.9829835638959
 20
207.7456778424928
 42
0.0
 10
561.9829835638959
 20
207.3456778424929
 42
-0.4142135623730951
 10
561.682983563896
 20
207.0456778424929
 42
0.0
 10
555.985032999709
 20
207.045677842493
 42
0.0
 10
555.985032999709
 20
208.0456778424929
 42
0.0
 10
558.182983563896
 20
208.0456778424929
 42
0.0
 10
558.182983563896
 20
208.6847006196302
 42
-0.2537088048808584
 10
558.3193472002595
 20
208.9361427411918
 42
1.233669883891975
 10
557.9734484625941
 20
209.2820414788571
 42
-0.2537088048804605
 10
557.722006341033
 20
209.1456778424931
 42
0.0
 10
557.3829835638961
 20
209.1456778424931
 42
-0.6681786379191481
 10
557.1708515295401
 20
209.657809876849
 42
0.0
 10
557.6708515295401
 20
210.157809876849
 42
-0.1989123673796474
 10
557.8829835638961
 20
210.2456778424928
 42
0.0
 10
558.482983563896
 20
210.2456778424928
 42
-0.4142135623730952
 10
558.682983563896
 20
210.0456778424931
 42
0.0
 97
        0
 75
     0
 76
     1
 52
180.0
 41
0.3
 77
     0
 78
     1
 53
134.9999999999999
 43
817.4804761956815
 44
104.5534383786145
 45
0.6735192090801864
 46
0.6735192090801864
 79
     0
 47
0.0133074857672603
 98
        1
 10
559.329443494057
 20
209.3625704658709
1001
ACAD
1010
0.0
1020
0.0
1030
0.0
  0
LINE
  5
24A1B
330
1F
100
AcDbEntity
  8
YKK_W1701
 62
     4
100
AcDbLine
 10
561.3829835638961
 20
210.2456778424928
 30
0.0
 11
560.8829835638961
 21
210.2456778424928
 31
0.0
  0
LINE
  5
24A1C
330
1F
100
AcDbEntity
  8
YKK_W1701
 62
     4
100
AcDbLine
 10
558.482983563896
 20
210.2456778424928
 30
0.0
 11
557.8829835638961
 21
210.2456778424928
 31
0.0
  0
LINE
  5
24A1D
330
1F
100
AcDbEntity
  8
YKK_W1701
 62
     4
100
AcDbLine
 10
557.3829835638961
 20
209.1456778424931
 30
0.0
 11
557.722006341033
 21
209.1456778424931
 31
0.0
  0
LINE
  5
24A1E
330
1F
100
AcDbEntity
  8
YKK_W1701
 62
     4
100
AcDbLine
 10
558.182983563896
 20
208.6847006196302
 30
0.0
 11
558.182983563896
 21
208.0456778424929
 31
0.0
  0
LINE
  5
24A1F
330
1F
100
AcDbEntity
  8
YKK_W1701
 62
     4
100
AcDbLine
 10
558.182983563896
 20
208.0456778424929
 30
0.0
 11
555.985032999709
 21
208.0456778424929
 31
0.0
  0
LINE
  5
24A20
330
1F
100
AcDbEntity
  8
YKK_W1701
 62
     4
100
AcDbLine
 10
560.5829835638961
 20
208.0456778424929
 30
0.0
 11
560.5829835638961
 21
209.1456778424931
 31
0.0
  0
LINE
  5
24A21
330
1F
100
AcDbEntity
  8
YKK_W1701
 62
     4
100
AcDbLine
 10
560.5829835638961
 20
209.1456778424931
 30
0.0
 11
561.3829835638961
 21
209.1456778424931
 31
0.0
  0
LINE
  5
24A22
330
1F
100
AcDbEntity
  8
YKK_W1701
 62
     4
100
AcDbLine
 10
561.682983563896
 20
209.4456778424929
 30
0.0
 11
561.682983563896
 21
209.9456778424929
 31
0.0
  0
LINE
  5
24A23
330
1F
100
AcDbEntity
  8
YKK_W1701
 62
     4
100
AcDbLine
 10
557.6708515295401
 20
210.157809876849
 30
0.0
 11
557.1708515295401
 21
209.657809876849
 31
0.0
  0
LINE
  5
24A24
330
1F
100
AcDbEntity
  8
YKK_W1701
 62
     4
100
AcDbLine
 10
560.682983563896
 20
210.0456778424931
 30
0.0
 11
558.682983563896
 21
210.0456778424931
 31
0.0
  0
LINE
  5
24A25
330
1F
100
AcDbEntity
  8
YKK_W1701
 62
     4
100
AcDbLine
 10
561.682983563896
 20
207.0456778424929
 30
0.0
 11
555.985032999709
 21
207.045677842493
 31
0.0
  0
LINE
  5
24A26
330
1F
100
AcDbEntity
  8
YKK_W1701
 62
     4
100
AcDbLine
 10
555.985032999709
 20
207.045677842493
 30
0.0
 11
555.985032999709
 21
208.0456778424929
 31
0.0
  0
LINE
  5
24A27
330
1F
100
AcDbEntity
  8
YKK_W1701
 62
     4
100
AcDbLine
 10
561.9829835638959
 20
207.3456778424929
 30
0.0
 11
561.9829835638959
 21
207.7456778424928
 31
0.0
  0
LINE
  5
24A28
330
1F
100
AcDbEntity
  8
YKK_W1701
 62
     4
100
AcDbLine
 10
561.682983563896
 20
208.0456778424929
 30
0.0
 11
560.5829835638961
 21
208.0456778424929
 31
0.0
  0
LINE
  5
24A29
330
1F
100
AcDbEntity
  8
YKK_W1701
 62
     4
100
AcDbLine
 10
555.9850329997088
 20
208.0456778424929
 30
0.0
 11
555.8979676210018
 21
208.0597755148682
 31
0.0
  0
LINE
  5
24A2A
330
1F
100
AcDbEntity
  8
YKK_W1701
 62
     4
100
AcDbLine
 10
555.985032999709
 20
207.045677842493
 30
0.0
 11
549.2239414283234
 21
208.451964002326
 31
0.0
  0
LINE
  5
24A2B
330
1F
100
AcDbEntity
  8
YKK_W1701
 62
     4
100
AcDbLine
 10
554.8710575954236
 20
208.2191799077071
 30
0.0
 11
549.3291135463772
 21
209.0424216805173
 31
0.0
  0
LINE
  5
24A2C
330
1F
100
AcDbEntity
  8
0
  6
ByBlock
 62
     0
 48
0.5
370
    -2
100
AcDbLine
 10
321.3244554149953
 20
170.1452472993221
 30
0.0
 11
321.2409705539864
 21
170.1452472993221
 31
0.0
  0
ARC
  5
24A2D
330
1F
100
AcDbEntity
  8
0
  6
ByBlock
 62
     0
 48
0.5
370
    -2
100
AcDbCircle
 10
321.2409705539863
 20
169.9452472993221
 30
0.0
 40
0.1999999999999602
100
AcDbArc
 50
89.99999999996743
 51
156.4218215217783
  0
ARC
  5
24A2E
330
1F
100
AcDbEntity
  8
0
  6
ByBlock
 62
     0
 48
0.5
370
    -2
100
AcDbCircle
 10
320.7827129844886
 20
170.1452472993221
 30
0.0
 40
0.3000000000021711
100
AcDbArc
 50
203.5781801567785
 51
336.4218215219768
  0
ARC
  5
24A2F
330
1F
100
AcDbEntity
  8
0
  6
ByBlock
 62
     0
 48
0.5
370
    -2
100
AcDbCircle
 10
320.3244554208503
 20
169.9452472858959
 30
0.0
 40
0.199999999999996
100
AcDbArc
 50
23.57818015675194
 51
89.99999898578554
  0
LINE
  5
24A30
330
1F
100
AcDbEntity
  8
0
  6
ByBlock
 62
     0
 48
0.5
370
    -2
100
AcDbLine
 10
320.3244554243905
 20
170.1452472858959
 30
0.0
 11
319.0827015379034
 21
170.1452473078768
 31
0.0
  0
ARC
  5
24A31
330
1F
100
AcDbEntity
  8
0
  6
ByBlock
 62
     0
 48
0.5
370
    -2
100
AcDbCircle
 10
319.0827015556047
 20
171.1452473078768
 30
0.0
 40
1.0
100
AcDbArc
 50
179.9999999616599
 51
269.999998985779
  0
LINE
  5
24A32
330
1F
100
AcDbEntity
  8
0
  6
ByBlock
 62
     0
 48
0.5
370
    -2
100
AcDbLine
 10
318.0827015556047
 20
171.145247308546
 30
0.0
 11
318.0827015561402
 21
171.9452472973838
 31
0.0
  0
ARC
  5
24A33
330
1F
100
AcDbEntity
  8
0
  6
ByBlock
 62
     0
 48
0.5
370
    -2
100
AcDbCircle
 10
316.5827015561403
 20
171.9452472983067
 30
0.0
 40
1.499999999999971
100
AcDbArc
 50
359.9999999647474
 51
89.99999996474745
  0
LINE
  5
24A34
330
1F
100
AcDbEntity
  8
0
  6
ByBlock
 62
     0
 48
0.5
370
    -2
100
AcDbLine
 10
316.5827015570633
 20
173.4452472983067
 30
0.0
 11
314.7623396667723
 21
173.445247299427
 31
0.0
  0
LINE
  5
24A35
330
1F
100
AcDbEntity
  8
0
  6
ByBlock
 62
     0
 48
0.5
370
    -2
100
AcDbLine
 10
314.7623396667723
 20
173.445247299427
 30
0.0
 11
312.6827015539864
 21
181.2065623977005
 31
0.0
  0
LINE
  5
24A36
330
1F
100
AcDbEntity
  8
0
  6
ByBlock
 62
     0
 48
0.5
370
    -2
100
AcDbLine
 10
312.6827015539864
 20
181.2065623977005
 30
0.0
 11
312.6827015539864
 21
184.4967191614798
 31
0.0
  0
LINE
  5
24A37
330
1F
100
AcDbEntity
  8
0
  6
ByBlock
 62
     0
 48
0.5
370
    -2
100
AcDbLine
 10
312.6827015539864
 20
184.4967191614798
 30
0.0
 11
313.1069656226976
 21
184.920983230191
 31
0.0
  0
ARC
  5
24A38
330
1F
100
AcDbEntity
  8
0
  6
ByBlock
 62
     0
 48
0.5
370
    -2
100
AcDbCircle
 10
312.6827015539861
 20
185.3452472989031
 30
0.0
 40
0.5999999999999888
100
AcDbArc
 50
314.9999999999724
 51
134.9999999999355
  0
LINE
  5
24A39
330
1F
100
AcDbEntity
  8
0
  6
ByBlock
 62
     0
 48
0.5
370
    -2
100
AcDbLine
 10
312.2584374852747
 20
185.7695113676154
 30
0.0
 11
311.4827015539864
 21
184.9937754363277
 31
0.0
  0
LINE
  5
24A3A
330
1F
100
AcDbEntity
  8
0
  6
ByBlock
 62
     0
 48
0.5
370
    -2
100
AcDbLine
 10
311.4827015539864
 20
184.9937754363277
 30
0.0
 11
311.4827015539864
 21
181.0485794005956
 31
0.0
  0
LINE
  5
24A3B
330
1F
100
AcDbEntity
  8
0
  6
ByBlock
 62
     0
 48
0.5
370
    -2
100
AcDbLine
 10
311.4827015539864
 20
181.0485794005956
 30
0.0
 11
314.0905818122312
 21
171.3158377767709
 31
0.0
  0
ARC
  5
24A3C
330
1F
100
AcDbEntity
  8
0
  6
ByBlock
 62
     0
 48
0.5
370
    -2
100
AcDbCircle
 10
314.5735447253757
 20
171.4452472993221
 30
0.0
 40
0.5000000000000321
100
AcDbArc
 50
194.9999999999944
 51
270.0
  0
LINE
  5
24A3D
330
1F
100
AcDbEntity
  8
0
  6
ByBlock
 62
     0
 48
0.5
370
    -2
100
AcDbLine
 10
314.5735447253757
 20
170.9452472993221
 30
0.0
 11
314.7898812313863
 21
170.9452472993221
 31
0.0
  0
LINE
  5
24A3E
330
1F
100
AcDbEntity
  8
0
  6
ByBlock
 62
     0
 48
0.5
370
    -2
100
AcDbLine
 10
314.7898812313863
 20
170.9452472993221
 30
0.0
 11
315.4827015538962
 21
172.1452472984253
 31
0.0
  0
LINE
  5
24A3F
330
1F
100
AcDbEntity
  8
0
  6
ByBlock
 62
     0
 48
0.5
370
    -2
100
AcDbLine
 10
315.4827015538962
 20
172.1452472984253
 30
0.0
 11
316.7827015565448
 21
172.1452472984251
 31
0.0
  0
LINE
  5
24A40
330
1F
100
AcDbEntity
  8
0
  6
ByBlock
 62
     0
 48
0.5
370
    -2
100
AcDbLine
 10
316.7827015565448
 20
172.1452472984251
 30
0.0
 11
316.7827015537468
 21
170.3452472990105
 31
0.0
  0
ARC
  5
24A41
330
1F
100
AcDbEntity
  8
0
  6
ByBlock
 62
     0
 48
0.5
370
    -2
100
AcDbCircle
 10
316.5827015537471
 20
170.3452472993218
 30
0.0
 40
0.1999999999997328
100
AcDbArc
 50
270.000000017027
 51
359.9999999108395
  0
ARC
  5
24A42
330
1F
100
AcDbEntity
  8
0
  6
ByBlock
 62
     0
 48
0.5
370
    -2
100
AcDbCircle
 10
316.5827015538962
 20
169.8452472993219
 30
0.0
 40
0.3000000000000398
100
AcDbArc
 50
90.00000001710517
 51
180.0
  0
LINE
  5
24A43
330
1F
100
AcDbEntity
  8
0
  6
ByBlock
 62
     0
 48
0.5
370
    -2
100
AcDbLine
 10
316.2827015538961
 20
169.8452472993219
 30
0.0
 11
316.2827015538959
 21
168.1452472994667
 31
0.0
  0
LINE
  5
24A44
330
1F
100
AcDbEntity
  8
0
  6
ByBlock
 62
     0
 48
0.5
370
    -2
100
AcDbLine
 10
316.2827015538959
 20
168.1452472994667
 30
0.0
 11
334.282701553896
 21
168.1452472907874
 31
0.0
  0
LINE
  5
24A45
330
1F
100
AcDbEntity
  8
0
  6
ByBlock
 62
     0
 48
0.5
370
    -2
100
AcDbLine
 10
334.282701553896
 20
168.1452472907874
 30
0.0
 11
334.282701553896
 21
169.6452472899207
 31
0.0
  0
ARC
  5
24A46
330
1F
100
AcDbEntity
  8
0
  6
ByBlock
 62
     0
 48
0.5
370
    -2
100
AcDbCircle
 10
333.7827015538959
 20
169.6452472899204
 30
0.0
 40
0.5000000000000428
100
AcDbArc
 50
0.0
 51
89.99999995175897
  0
LINE
  5
24A47
330
1F
100
AcDbEntity
  8
0
  6
ByBlock
 62
     0
 48
0.5
370
    -2
100
AcDbLine
 10
333.7827015543169
 20
170.1452472899207
 30
0.0
 11
322.2409705542983
 21
170.1452472996372
 31
0.0
  0
ARC
  5
24A48
330
1F
100
AcDbEntity
  8
0
  6
ByBlock
 62
     0
 48
0.5
370
    -2
100
AcDbCircle
 10
322.2409705541257
 20
169.9452472996346
 30
0.0
 40
0.2000000000026958
100
AcDbArc
 50
89.99999995059301
 51
156.4218215602856
  0
ARC
  5
24A49
330
1F
100
AcDbEntity
  8
0
  6
ByBlock
 62
     0
 48
0.5
370
    -2
100
AcDbCircle
 10
321.7827129844908
 20
170.1452472993221
 30
0.0
 40
0.2999999999999586
100
AcDbArc
 50
203.5781784782071
 51
336.4218215614643
  0
ARC
  5
24A4A
330
1F
100
AcDbEntity
  8
0
  6
ByBlock
 62
     0
 48
0.5
370
    -2
100
AcDbCircle
 10
321.3244554149955
 20
169.9452472993221
 30
0.0
 40
0.1999999999999609
100
AcDbArc
 50
23.5781784782217
 51
90.00000000002605
  0
LINE
  5
24A4B
330
1F
100
AcDbEntity
  8
0
  6
ByBlock
 62
     0
 48
0.5
370
    -2
100
AcDbLine
 10
526.2412304004004
 20
170.1452472993222
 30
0.0
 11
526.3247152614086
 21
170.1452472993222
 31
0.0
  0
ARC
  5
24A4C
330
1F
100
AcDbEntity
  8
0
  6
ByBlock
 62
     0
 48
0.5
370
    -2
100
AcDbCircle
 10
526.324715261409
 20
169.9452472993222
 30
0.0
 40
0.1999999999999602
100
AcDbArc
 50
23.5781784782217
 51
90.00000000003257
  0
ARC
  5
24A4D
330
1F
100
AcDbEntity
  8
0
  6
ByBlock
 62
     0
 48
0.5
370
    -2
100
AcDbCircle
 10
526.7829728309069
 20
170.1452472993222
 30
0.0
 40
0.3000000000021711
100
AcDbArc
 50
203.5781784780233
 51
336.4218198432216
  0
ARC
  5
24A4E
330
1F
100
AcDbEntity
  8
0
  6
ByBlock
 62
     0
 48
0.5
370
    -2
100
AcDbCircle
 10
527.2412303945451
 20
169.945247285896
 30
0.0
 40
0.199999999999996
100
AcDbArc
 50
90.00000101421447
 51
156.421819843248
  0
LINE
  5
24A4F
330
1F
100
AcDbEntity
  8
0
  6
ByBlock
 62
     0
 48
0.5
370
    -2
100
AcDbLine
 10
527.2412303910047
 20
170.1452472858959
 30
0.0
 11
528.4829842774923
 21
170.1452473078769
 31
0.0
  0
ARC
  5
24A50
330
1F
100
AcDbEntity
  8
0
  6
ByBlock
 62
     0
 48
0.5
370
    -2
100
AcDbCircle
 10
528.4829842597904
 20
171.1452473078769
 30
0.0
 40
1.0
100
AcDbArc
 50
270.000001014221
 51
0.0000000383400855
  0
LINE
  5
24A51
330
1F
100
AcDbEntity
  8
0
  6
ByBlock
 62
     0
 48
0.5
370
    -2
100
AcDbLine
 10
529.4829842597907
 20
171.1452473085459
 30
0.0
 11
529.4829842592552
 21
171.9452472973839
 31
0.0
  0
ARC
  5
24A52
330
1F
100
AcDbEntity
  8
0
  6
ByBlock
 62
     0
 48
0.5
370
    -2
100
AcDbCircle
 10
530.9829842592551
 20
171.9452472983068
 30
0.0
 40
1.499999999999971
100
AcDbArc
 50
90.00000003525256
 51
180.0000000352525
  0
LINE
  5
24A53
330
1F
100
AcDbEntity
  8
0
  6
ByBlock
 62
     0
 48
0.5
370
    -2
100
AcDbLine
 10
530.9829842583325
 20
173.4452472983068
 30
0.0
 11
532.8033461486231
 21
173.4452472994269
 31
0.0
  0
LINE
  5
24A54
330
1F
100
AcDbEntity
  8
0
  6
ByBlock
 62
     0
 48
0.5
370
    -2
100
AcDbLine
 10
532.8033461486231
 20
173.4452472994269
 30
0.0
 11
534.8829842614089
 21
181.2065623977004
 31
0.0
  0
LINE
  5
24A55
330
1F
100
AcDbEntity
  8
0
  6
ByBlock
 62
     0
 48
0.5
370
    -2
100
AcDbLine
 10
534.8829842614089
 20
181.2065623977004
 30
0.0
 11
534.8829842614089
 21
184.49671916148
 31
0.0
  0
LINE
  5
24A56
330
1F
100
AcDbEntity
  8
0
  6
ByBlock
 62
     0
 48
0.5
370
    -2
100
AcDbLine
 10
534.8829842614089
 20
184.49671916148
 30
0.0
 11
534.4587201926978
 21
184.9209832301909
 31
0.0
  0
ARC
  5
24A57
330
1F
100
AcDbEntity
  8
0
  6
ByBlock
 62
     0
 48
0.5
370
    -2
100
AcDbCircle
 10
534.8829842614096
 20
185.3452472989032
 30
0.0
 40
0.5999999999999888
100
AcDbArc
 50
45.00000000006447
 51
225.0000000000276
  0
LINE
  5
24A58
330
1F
100
AcDbEntity
  8
0
  6
ByBlock
 62
     0
 48
0.5
370
    -2
100
AcDbLine
 10
535.3072483301208
 20
185.7695113676155
 30
0.0
 11
536.082984261409
 21
184.9937754363278
 31
0.0
  0
LINE
  5
24A59
330
1F
100
AcDbEntity
  8
0
  6
ByBlock
 62
     0
 48
0.5
370
    -2
100
AcDbLine
 10
536.082984261409
 20
184.9937754363278
 30
0.0
 11
536.082984261409
 21
181.0485794005956
 31
0.0
  0
LINE
  5
24A5A
330
1F
100
AcDbEntity
  8
0
  6
ByBlock
 62
     0
 48
0.5
370
    -2
100
AcDbLine
 10
536.082984261409
 20
181.0485794005956
 30
0.0
 11
533.4751040031643
 21
171.3158377767707
 31
0.0
  0
ARC
  5
24A5B
330
1F
100
AcDbEntity
  8
0
  6
ByBlock
 62
     0
 48
0.5
370
    -2
100
AcDbCircle
 10
532.99214109002
 20
171.4452472993221
 30
0.0
 40
0.5000000000000321
100
AcDbArc
 50
270.0
 51
345.0000000000056
  0
LINE
  5
24A5C
330
1F
100
AcDbEntity
  8
0
  6
ByBlock
 62
     0
 48
0.5
370
    -2
100
AcDbLine
 10
532.99214109002
 20
170.9452472993221
 30
0.0
 11
532.7758045840091
 21
170.9452472993221
 31
0.0
  0
LINE
  5
24A5D
330
1F
100
AcDbEntity
  8
0
  6
ByBlock
 62
     0
 48
0.5
370
    -2
100
AcDbLine
 10
532.7758045840091
 20
170.9452472993221
 30
0.0
 11
532.0829842614997
 21
172.1452472984252
 31
0.0
  0
LINE
  5
24A5E
330
1F
100
AcDbEntity
  8
0
  6
ByBlock
 62
     0
 48
0.5
370
    -2
100
AcDbLine
 10
532.0829842614997
 20
172.1452472984252
 30
0.0
 11
530.7829842588506
 21
172.1452472984252
 31
0.0
  0
LINE
  5
24A5F
330
1F
100
AcDbEntity
  8
0
  6
ByBlock
 62
     0
 48
0.5
370
    -2
100
AcDbLine
 10
530.7829842588506
 20
172.1452472984252
 30
0.0
 11
530.7829842616487
 21
170.3452472990105
 31
0.0
  0
ARC
  5
24A60
330
1F
100
AcDbEntity
  8
0
  6
ByBlock
 62
     0
 48
0.5
370
    -2
100
AcDbCircle
 10
530.9829842616485
 20
170.3452472993218
 30
0.0
 40
0.1999999999997328
100
AcDbArc
 50
180.0000000891475
 51
269.999999982973
  0
ARC
  5
24A61
330
1F
100
AcDbEntity
  8
0
  6
ByBlock
 62
     0
 48
0.5
370
    -2
100
AcDbCircle
 10
530.9829842614994
 20
169.845247299322
 30
0.0
 40
0.3000000000000398
100
AcDbArc
 50
359.999999999987
 51
89.99999998289482
  0
LINE
  5
24A62
330
1F
100
AcDbEntity
  8
0
  6
ByBlock
 62
     0
 48
0.5
370
    -2
100
AcDbLine
 10
531.2829842614993
 20
169.845247299322
 30
0.0
 11
531.2829842614993
 21
168.1452472994667
 31
0.0
  0
LINE
  5
24A63
330
1F
100
AcDbEntity
  8
0
  6
ByBlock
 62
     0
 48
0.5
370
    -2
100
AcDbLine
 10
531.2829842614993
 20
168.1452472994667
 30
0.0
 11
513.2829842614994
 21
168.1452472907875
 31
0.0
  0
LINE
  5
24A64
330
1F
100
AcDbEntity
  8
0
  6
ByBlock
 62
     0
 48
0.5
370
    -2
100
AcDbLine
 10
513.2829842614994
 20
168.1452472907875
 30
0.0
 11
513.2829842614996
 21
169.6452472899206
 31
0.0
  0
ARC
  5
24A65
330
1F
100
AcDbEntity
  8
0
  6
ByBlock
 62
     0
 48
0.5
370
    -2
100
AcDbCircle
 10
513.7829842614994
 20
169.6452472899206
 30
0.0
 40
0.5000000000000428
100
AcDbArc
 50
90.00000004824102
 51
179.999999999987
  0
LINE
  5
24A66
330
1F
100
AcDbEntity
  8
0
  6
ByBlock
 62
     0
 48
0.5
370
    -2
100
AcDbLine
 10
513.7829842610785
 20
170.1452472899205
 30
0.0
 11
525.3247152610971
 21
170.1452472996374
 31
0.0
  0
ARC
  5
24A67
330
1F
100
AcDbEntity
  8
0
  6
ByBlock
 62
     0
 48
0.5
370
    -2
100
AcDbCircle
 10
525.3247152612697
 20
169.9452472996346
 30
0.0
 40
0.2000000000026958
100
AcDbArc
 50
23.57817843971434
 51
90.000000049407
  0
ARC
  5
24A68
330
1F
100
AcDbEntity
  8
0
  6
ByBlock
 62
     0
 48
0.5
370
    -2
100
AcDbCircle
 10
525.7829728309046
 20
170.1452472993222
 30
0.0
 40
0.2999999999999586
100
AcDbArc
 50
203.5781784385357
 51
336.4218215217928
  0
ARC
  5
24A69
330
1F
100
AcDbEntity
  8
0
  6
ByBlock
 62
     0
 48
0.5
370
    -2
100
AcDbCircle
 10
526.2412304004
 20
169.9452472993222
 30
0.0
 40
0.1999999999999609
100
AcDbArc
 50
89.99999999997395
 51
156.4218215217783
  0
LINE
  5
24A6A
330
1F
100
AcDbEntity
  8
YKK_W1101
 62
     4
100
AcDbLine
 10
301.2830835638968
 20
155.3461338732021
 30
0.0
 11
301.2830835638968
 21
155.0456778424927
 31
0.0
  0
LINE
  5
24A6B
330
1F
100
AcDbEntity
  8
YKK_W1101
 62
     4
100
AcDbLine
 10
301.2830835638968
 20
155.0456778424927
 30
0.0
 11
324.2830835638968
 21
155.0456778424927
 31
0.0
  0
LINE
  5
24A6C
330
1F
100
AcDbEntity
  8
YKK_W1101
 62
     4
100
AcDbLine
 10
276.2830835638967
 20
163.3456778424927
 30
0.0
 11
301.2130835638962
 21
163.3456778424927
 31
0.0
  0
LINE
  5
24A6D
330
1F
100
AcDbEntity
  8
YKK_W1101
 62
     4
100
AcDbLine
 10
275.2830835638967
 20
147.1456778424926
 30
0.0
 11
275.2830835638967
 21
163.3456778424927
 31
0.0
  0
LINE
  5
24A6E
330
1F
100
AcDbEntity
  8
YKK_W1101
 62
     4
100
AcDbLine
 10
275.2830835638967
 20
163.3456778424927
 30
0.0
 11
276.2830835638967
 21
163.3456778424927
 31
0.0
  0
LINE
  5
24A6F
330
1F
100
AcDbEntity
  8
YKK_W1101
 62
     4
100
AcDbLine
 10
325.2830835638968
 20
155.0456778424927
 30
0.0
 11
325.2830835638968
 21
147.1456778424926
 31
0.0
  0
LINE
  5
24A70
330
1F
100
AcDbEntity
  8
YKK_W1101
 62
     4
100
AcDbLine
 10
324.2830835638968
 20
155.0456778424927
 30
0.0
 11
325.2830835638968
 21
155.0456778424927
 31
0.0
  0
LINE
  5
24A71
330
1F
100
AcDbEntity
  8
YKK_W1101
 62
     4
100
AcDbLine
 10
324.2830835638968
 20
146.1456778424926
 30
0.0
 11
276.2830835638967
 21
146.1456778424926
 31
0.0
  0
ELLIPSE
  5
24A72
330
1F
100
AcDbEntity
  8
YKK_W1101
 62
     4
100
AcDbEllipse
 10
301.3805408532387
 20
160.6456778424929
 30
0.0
 11
-0.0000000000000124
 21
5.599999999999965
 31
0.0
210
0.0
220
0.0
230
1.0
 40
0.0226644858934639
 41
3.141592653589686
 42
3.470650761590836
  0
LINE
  5
24A73
330
1F
100
AcDbEntity
  8
YKK_W1101
 62
     4
100
AcDbLine
 10
325.2830835638968
 20
155.0456778424927
 30
0.0
 11
325.2830835638968
 21
155.3461338732021
 31
0.0
  0
LINE
  5
24A74
330
1F
100
AcDbEntity
  8
YKK_W1701
 62
     4
100
AcDbLine
 10
546.2829685638961
 20
155.3461338732022
 30
0.0
 11
546.2829685638961
 21
155.0456778424928
 31
0.0
  0
LINE
  5
24A75
330
1F
100
AcDbEntity
  8
YKK_W1701
 62
     4
100
AcDbLine
 10
546.2829685638961
 20
155.0456778424928
 30
0.0
 11
523.2829685638961
 21
155.0456778424928
 31
0.0
  0
LINE
  5
24A76
330
1F
100
AcDbEntity
  8
YKK_W1701
 62
     4
100
AcDbLine
 10
571.2829685638961
 20
163.3456778424928
 30
0.0
 11
546.3529685638967
 21
163.3456778424928
 31
0.0
  0
LINE
  5
24A77
330
1F
100
AcDbEntity
  8
YKK_W1701
 62
     4
100
AcDbLine
 10
572.2829685638961
 20
147.1456778424927
 30
0.0
 11
572.2829685638961
 21
163.3456778424928
 31
0.0
  0
LINE
  5
24A78
330
1F
100
AcDbEntity
  8
YKK_W1701
 62
     4
100
AcDbLine
 10
572.2829685638961
 20
163.3456778424928
 30
0.0
 11
571.2829685638961
 21
163.3456778424928
 31
0.0
  0
LINE
  5
24A79
330
1F
100
AcDbEntity
  8
YKK_W1701
 62
     4
100
AcDbLine
 10
522.2829685638961
 20
155.0456778424928
 30
0.0
 11
522.2829685638961
 21
147.1456778424927
 31
0.0
  0
LINE
  5
24A7A
330
1F
100
AcDbEntity
  8
YKK_W1701
 62
     4
100
AcDbLine
 10
523.2829685638961
 20
155.0456778424928
 30
0.0
 11
522.2829685638961
 21
155.0456778424928
 31
0.0
  0
LINE
  5
24A7B
330
1F
100
AcDbEntity
  8
YKK_W1701
 62
     4
100
AcDbLine
 10
523.2829685638961
 20
146.1456778424927
 30
0.0
 11
571.2829685638961
 21
146.1456778424927
 31
0.0
  0
ELLIPSE
  5
24A7C
330
1F
100
AcDbEntity
  8
YKK_W1701
 62
     4
100
AcDbEllipse
 10
546.1855112745541
 20
160.645677842493
 30
0.0
 11
0.0000000000000124
 21
5.599999999999965
 31
0.0
210
0.0
220
0.0
230
-1.0
 40
0.0226644858934639
 41
3.141592653589686
 42
3.470650761590836
  0
LINE
  5
24A7D
330
1F
100
AcDbEntity
  8
YKK_W1701
 62
     4
100
AcDbLine
 10
522.2829685638961
 20
155.0456778424928
 30
0.0
 11
522.2829685638961
 21
155.3461338732022
 31
0.0
  0
LINE
  5
24A7E
330
1F
100
AcDbEntity
  8
YKK_W1101
 62
     4
100
AcDbLine
 10
319.2827015638961
 20
184.3452472993219
 30
0.0
 11
319.2827015638961
 21
194.8452472993219
 31
0.0
  0
LINE
  5
24A7F
330
1F
100
AcDbEntity
  8
YKK_W1101
 62
     4
100
AcDbLine
 10
319.2827015638961
 20
194.8452472993219
 30
0.0
 11
311.2827015638961
 21
194.8452472993219
 31
0.0
  0
LINE
  5
24A80
330
1F
100
AcDbEntity
  8
YKK_W1101
 62
     4
100
AcDbLine
 10
314.2827015638961
 20
184.3452472993219
 30
0.0
 11
319.2827015638961
 21
184.3452472993219
 31
0.0
  0
LINE
  5
24A81
330
1F
100
AcDbEntity
  8
YKK_W1101
 62
     4
100
AcDbLine
 10
311.2827015638961
 20
194.8452472993219
 30
0.0
 11
311.2827015638961
 21
188.845247299322
 31
0.0
  0
LINE
  5
24A82
330
1F
100
AcDbEntity
  8
YKK_W1101
 62
     4
100
AcDbLine
 10
311.2827015638961
 20
188.845247299322
 30
0.0
 11
314.2827015638961
 21
188.845247299322
 31
0.0
  0
LINE
  5
24A83
330
1F
100
AcDbEntity
  8
YKK_W1101
 62
     4
100
AcDbLine
 10
314.2827015638961
 20
188.845247299322
 30
0.0
 11
314.2827015638961
 21
184.3452472993219
 31
0.0
  0
LINE
  5
24A84
330
1F
100
AcDbEntity
  8
YKK_W1101
 62
     4
100
AcDbLine
 10
319.2826003174886
 20
194.8452472993219
 30
0.0
 11
314.2827015638961
 21
188.2827971321692
 31
0.0
  0
LINE
  5
24A85
330
1F
100
AcDbEntity
  8
YKK_W1101
 62
     4
100
AcDbLine
 10
319.2827015638961
 20
184.3452472993219
 30
0.0
 11
311.2827015638961
 21
194.8452472993219
 31
0.0
  0
LINE
  5
24A86
330
1F
100
AcDbEntity
  8
YKK_W1101
 62
     4
100
AcDbLine
 10
282.3826751522765
 20
169.5352930847626
 30
0.0
 11
282.3826751522765
 21
170.7156778424925
 31
0.0
  0
LINE
  5
24A87
330
1F
100
AcDbEntity
  8
YKK_W1101
 62
     4
100
AcDbLine
 10
278.3826751522765
 20
170.7156778424925
 30
0.0
 11
278.4846484700351
 21
169.5712996521788
 31
0.0
  0
LINE
  5
24A88
330
1F
100
AcDbEntity
  8
YKK_W1101
 62
     4
100
AcDbLine
 10
279.5826751522764
 20
170.7156778424925
 30
0.0
 11
279.480701834518
 21
169.5712996521788
 31
0.0
  0
LINE
  5
24A89
330
1F
100
AcDbEntity
  8
YKK_W1101
 62
     4
100
AcDbLine
 10
282.9674675034098
 20
167.9133088445062
 30
0.0
 11
283.3989233352981
 21
168.2656289665662
 31
0.0
  0
LINE
  5
24A8A
330
1F
100
AcDbEntity
  8
YKK_W1101
 62
     4
100
AcDbLine
 10
281.8468580192877
 20
169.0456778425025
 30
0.0
 11
277.5990584499929
 21
169.0456778424586
 31
0.0
  0
LINE
  5
24A8B
330
1F
100
AcDbEntity
  8
YKK_W1101
 62
     4
100
AcDbLine
 10
282.7777185935988
 20
167.8456778424918
 30
0.0
 11
277.5990584500004
 21
167.8456778424586
 31
0.0
  0
HATCH
  5
24A8C
330
1F
100
AcDbEntity
  8
YKK_W1101
 62
     4
100
AcDbHatch
 10
0.0
 20
0.0
 30
0.0
210
0.0
220
0.0
230
1.0
  2
ANSI31
 70
     0
 71
     0
 91
        1
 92
        7
 72
     1
 73
     1
 93
       25
 10
280.1826751522767
 20
171.7156778424925
 42
0.0
 10
282.4826751522765
 20
171.7156778424926
 42
-0.4142135623728456
 10
282.6826751522764
 20
171.9156778424924
 42
0.0
 10
283.2826751522765
 20
171.9156778424924
 42
-0.4142135623730951
 10
283.5826751522764
 20
171.6156778424924
 42
0.0
 10
283.5826751522764
 20
170.7156778424925
 42
0.0
 10
278.2826751522764
 20
170.7156778424925
 42
-0.4142135623730951
 10
277.7826751522765
 20
171.2156778424924
 42
0.0
 10
277.7826751522765
 20
173.1156778424924
 42
0.0
 10
276.8826751522765
 20
173.1156778424924
 42
-0.4142135623732062
 10
276.5826751522765
 20
173.4156778424924
 42
0.0
 10
276.5826751522765
 20
173.9156778424924
 42
-0.4142135623732062
 10
276.8826751522765
 20
174.2156778424925
 42
0.0
 10
277.3826751522765
 20
174.2156778424925
 42
-0.4142135623729288
 10
277.5826751522765
 20
174.0156778424924
 42
0.0
 10
279.6826751522766
 20
174.0156778424924
 42
-0.4142135623729288
 10
279.8826751522765
 20
174.2156778424925
 42
0.0
 10
280.4826751522766
 20
174.2156778424925
 42
-0.1989123673797769
 10
280.6948071866326
 20
174.1278098768484
 42
0.0
 10
281.1948071866325
 20
173.6278098768484
 42
-0.6681786379191037
 10
280.9826751522765
 20
173.1156778424924
 42
0.0
 10
280.6436523751393
 20
173.1156778424924
 42
-0.2537088048808245
 10
280.3922102535777
 20
173.2520414788561
 42
1.233669883891475
 10
280.0463115159124
 20
172.9061427411907
 42
-0.2537088048805372
 10
280.1826751522767
 20
172.6547006196297
 42
0.0
 97
        0
 75
     0
 76
     1
 52
180.0
 41
0.3
 77
     0
 78
     1
 53
315.0
 43
13.12760049445285
 44
341.5205901712357
 45
-0.6735192090801863
 46
-0.6735192090801866
 79
     0
 47
0.0179085410885119
 98
        1
 10
279.976035489583
 20
171.3726448458617
1001
ACAD
1010
0.0
1020
0.0
1030
0.0
  0
LINE
  5
24A8D
330
1F
100
AcDbEntity
  8
YKK_W1101
 62
     4
100
AcDbLine
 10
276.8826751522765
 20
174.2156778424925
 30
0.0
 11
277.3826751522765
 21
174.2156778424925
 31
0.0
  0
LINE
  5
24A8E
330
1F
100
AcDbEntity
  8
YKK_W1101
 62
     4
100
AcDbLine
 10
279.8826751522765
 20
174.2156778424925
 30
0.0
 11
280.4826751522766
 21
174.2156778424925
 31
0.0
  0
LINE
  5
24A8F
330
1F
100
AcDbEntity
  8
YKK_W1101
 62
     4
100
AcDbLine
 10
280.9826751522765
 20
173.1156778424924
 30
0.0
 11
280.6436523751393
 21
173.1156778424924
 31
0.0
  0
LINE
  5
24A90
330
1F
100
AcDbEntity
  8
YKK_W1101
 62
     4
100
AcDbLine
 10
280.1826751522767
 20
172.6547006196297
 30
0.0
 11
280.1826751522767
 21
171.7156778424925
 31
0.0
  0
LINE
  5
24A91
330
1F
100
AcDbEntity
  8
YKK_W1101
 62
     4
100
AcDbLine
 10
280.1826751522767
 20
171.7156778424925
 30
0.0
 11
282.4826751522765
 21
171.7156778424926
 31
0.0
  0
LINE
  5
24A92
330
1F
100
AcDbEntity
  8
YKK_W1101
 62
     4
100
AcDbLine
 10
282.6826751522764
 20
171.9156778424924
 30
0.0
 11
283.2826751522765
 21
171.9156778424924
 31
0.0
  0
LINE
  5
24A93
330
1F
100
AcDbEntity
  8
YKK_W1101
 62
     4
100
AcDbLine
 10
283.5826751522764
 20
170.7156778424925
 30
0.0
 11
278.2826751522764
 21
170.7156778424925
 31
0.0
  0
LINE
  5
24A94
330
1F
100
AcDbEntity
  8
YKK_W1101
 62
     4
100
AcDbLine
 10
277.7826751522765
 20
171.2156778424924
 30
0.0
 11
277.7826751522765
 21
173.1156778424924
 31
0.0
  0
LINE
  5
24A95
330
1F
100
AcDbEntity
  8
YKK_W1101
 62
     4
100
AcDbLine
 10
277.7826751522765
 20
173.1156778424924
 30
0.0
 11
276.8826751522765
 21
173.1156778424924
 31
0.0
  0
LINE
  5
24A96
330
1F
100
AcDbEntity
  8
YKK_W1101
 62
     4
100
AcDbLine
 10
276.5826751522765
 20
173.4156778424924
 30
0.0
 11
276.5826751522765
 21
173.9156778424924
 31
0.0
  0
LINE
  5
24A97
330
1F
100
AcDbEntity
  8
YKK_W1101
 62
     4
100
AcDbLine
 10
280.6948071866326
 20
174.1278098768484
 30
0.0
 11
281.1948071866325
 21
173.6278098768484
 31
0.0
  0
LINE
  5
24A98
330
1F
100
AcDbEntity
  8
YKK_W1101
 62
     4
100
AcDbLine
 10
277.5826751522765
 20
174.0156778424924
 30
0.0
 11
279.6826751522766
 21
174.0156778424924
 31
0.0
  0
LINE
  5
24A99
330
1F
100
AcDbEntity
  8
YKK_W1101
 62
     4
100
AcDbLine
 10
283.5826751522764
 20
171.6156778424924
 30
0.0
 11
283.5826751522764
 21
168.6529106298755
 31
0.0
  0
LINE
  5
24A9A
330
1F
100
AcDbEntity
  8
YKK_W1701
 62
     4
100
AcDbLine
 10
565.1830099755165
 20
169.5352930847628
 30
0.0
 11
565.1830099755165
 21
170.7156778424926
 31
0.0
  0
LINE
  5
24A9B
330
1F
100
AcDbEntity
  8
YKK_W1701
 62
     4
100
AcDbLine
 10
569.1830099755162
 20
170.7156778424926
 30
0.0
 11
569.081036657758
 21
169.5712996521789
 31
0.0
  0
LINE
  5
24A9C
330
1F
100
AcDbEntity
  8
YKK_W1701
 62
     4
100
AcDbLine
 10
567.9830099755162
 20
170.7156778424926
 30
0.0
 11
568.0849832932748
 21
169.5712996521789
 31
0.0
  0
LINE
  5
24A9D
330
1F
100
AcDbEntity
  8
YKK_W1701
 62
     4
100
AcDbLine
 10
564.5982176243832
 20
167.9133088445063
 30
0.0
 11
564.1667617924946
 21
168.2656289665663
 31
0.0
  0
LINE
  5
24A9E
330
1F
100
AcDbEntity
  8
YKK_W1701
 62
     4
100
AcDbLine
 10
565.7188271085052
 20
169.0456778425026
 30
0.0
 11
569.9666266778
 21
169.0456778424587
 31
0.0
  0
LINE
  5
24A9F
330
1F
100
AcDbEntity
  8
YKK_W1701
 62
     4
100
AcDbLine
 10
564.7879665341939
 20
167.8456778424919
 30
0.0
 11
569.9666266777922
 21
167.8456778424587
 31
0.0
  0
HATCH
  5
24AA0
330
1F
100
AcDbEntity
  8
YKK_W1701
 62
     4
100
AcDbHatch
 10
0.0
 20
0.0
 30
0.0
210
0.0
220
0.0
230
1.0
  2
ANSI31
 70
     0
 71
     0
 91
        1
 92
        7
 72
     1
 73
     1
 93
       25
 10
567.3830099755161
 20
171.7156778424926
 42
0.0
 10
565.0830099755161
 20
171.7156778424927
 42
0.4142135623728456
 10
564.8830099755163
 20
171.9156778424925
 42
0.0
 10
564.2830099755164
 20
171.9156778424925
 42
0.4142135623730951
 10
563.9830099755164
 20
171.6156778424926
 42
0.0
 10
563.9830099755164
 20
170.7156778424926
 42
0.0
 10
569.2830099755162
 20
170.7156778424926
 42
0.4142135623730951
 10
569.7830099755163
 20
171.2156778424926
 42
0.0
 10
569.7830099755163
 20
173.1156778424925
 42
0.0
 10
570.6830099755165
 20
173.1156778424925
 42
0.4142135623732062
 10
570.9830099755164
 20
173.4156778424925
 42
0.0
 10
570.9830099755164
 20
173.9156778424925
 42
0.4142135623732062
 10
570.6830099755165
 20
174.2156778424926
 42
0.0
 10
570.1830099755162
 20
174.2156778424926
 42
0.4142135623729288
 10
569.9830099755164
 20
174.0156778424925
 42
0.0
 10
567.8830099755162
 20
174.0156778424925
 42
0.4142135623729288
 10
567.6830099755163
 20
174.2156778424926
 42
0.0
 10
567.0830099755163
 20
174.2156778424926
 42
0.1989123673797769
 10
566.8708779411603
 20
174.1278098768485
 42
0.0
 10
566.3708779411603
 20
173.6278098768486
 42
0.6681786379191037
 10
566.5830099755163
 20
173.1156778424925
 42
0.0
 10
566.9220327526533
 20
173.1156778424925
 42
0.2537088048808245
 10
567.1734748742152
 20
173.2520414788562
 42
-1.233669883891475
 10
567.5193736118805
 20
172.9061427411908
 42
0.2537088048805372
 10
567.3830099755161
 20
172.6547006196298
 42
0.0
 97
        0
 75
     0
 76
     1
 52
180.0
 41
0.3
 77
     0
 78
     1
 53
225.0
 43
834.4380846333404
 44
341.5205901712358
 45
0.6735192090801863
 46
-0.6735192090801866
 79
     0
 47
0.0179085410885119
 98
        1
 10
567.5896496382096
 20
171.3726448458618
1001
ACAD
1010
0.0
1020
0.0
1030
0.0
  0
LINE
  5
24AA1
330
1F
100
AcDbEntity
  8
YKK_W1701
 62
     4
100
AcDbLine
 10
570.6830099755165
 20
174.2156778424926
 30
0.0
 11
570.1830099755162
 21
174.2156778424926
 31
0.0
  0
LINE
  5
24AA2
330
1F
100
AcDbEntity
  8
YKK_W1701
 62
     4
100
AcDbLine
 10
567.6830099755163
 20
174.2156778424926
 30
0.0
 11
567.0830099755163
 21
174.2156778424926
 31
0.0
  0
LINE
  5
24AA3
330
1F
100
AcDbEntity
  8
YKK_W1701
 62
     4
100
AcDbLine
 10
566.5830099755163
 20
173.1156778424925
 30
0.0
 11
566.9220327526533
 21
173.1156778424925
 31
0.0
  0
LINE
  5
24AA4
330
1F
100
AcDbEntity
  8
YKK_W1701
 62
     4
100
AcDbLine
 10
567.3830099755161
 20
172.6547006196298
 30
0.0
 11
567.3830099755161
 21
171.7156778424926
 31
0.0
  0
LINE
  5
24AA5
330
1F
100
AcDbEntity
  8
YKK_W1701
 62
     4
100
AcDbLine
 10
567.3830099755161
 20
171.7156778424926
 30
0.0
 11
565.0830099755161
 21
171.7156778424927
 31
0.0
  0
LINE
  5
24AA6
330
1F
100
AcDbEntity
  8
YKK_W1701
 62
     4
100
AcDbLine
 10
564.8830099755163
 20
171.9156778424925
 30
0.0
 11
564.2830099755164
 21
171.9156778424925
 31
0.0
  0
LINE
  5
24AA7
330
1F
100
AcDbEntity
  8
YKK_W1701
 62
     4
100
AcDbLine
 10
563.9830099755164
 20
170.7156778424926
 30
0.0
 11
569.2830099755162
 21
170.7156778424926
 31
0.0
  0
LINE
  5
24AA8
330
1F
100
AcDbEntity
  8
YKK_W1701
 62
     4
100
AcDbLine
 10
569.7830099755163
 20
171.2156778424926
 30
0.0
 11
569.7830099755163
 21
173.1156778424925
 31
0.0
  0
LINE
  5
24AA9
330
1F
100
AcDbEntity
  8
YKK_W1701
 62
     4
100
AcDbLine
 10
569.7830099755163
 20
173.1156778424925
 30
0.0
 11
570.6830099755165
 21
173.1156778424925
 31
0.0
  0
LINE
  5
24AAA
330
1F
100
AcDbEntity
  8
YKK_W1701
 62
     4
100
AcDbLine
 10
570.9830099755164
 20
173.4156778424925
 30
0.0
 11
570.9830099755164
 21
173.9156778424925
 31
0.0
  0
LINE
  5
24AAB
330
1F
100
AcDbEntity
  8
YKK_W1701
 62
     4
100
AcDbLine
 10
566.8708779411603
 20
174.1278098768485
 30
0.0
 11
566.3708779411603
 21
173.6278098768486
 31
0.0
  0
LINE
  5
24AAC
330
1F
100
AcDbEntity
  8
YKK_W1701
 62
     4
100
AcDbLine
 10
569.9830099755164
 20
174.0156778424925
 30
0.0
 11
567.8830099755162
 21
174.0156778424925
 31
0.0
  0
LINE
  5
24AAD
330
1F
100
AcDbEntity
  8
YKK_W1701
 62
     4
100
AcDbLine
 10
563.9830099755164
 20
171.6156778424926
 30
0.0
 11
563.9830099755164
 21
168.6529106298757
 31
0.0
  0
ARC
  5
24AAE
330
1F
100
AcDbEntity
  8
YKK_W1101
 62
     4
100
AcDbCircle
 10
289.0827015638964
 20
210.045677842493
 30
0.0
 40
0.2
100
AcDbArc
 50
90.0
 51
180.0
  0
ARC
  5
24AAF
330
1F
100
AcDbEntity
  8
YKK_W1101
 62
     4
100
AcDbCircle
 10
286.1827015638964
 20
209.9456778424931
 30
0.0
 40
0.2999999999999999
100
AcDbArc
 50
90.0
 51
180.0
  0
ARC
  5
24AB0
330
1F
100
AcDbEntity
  8
YKK_W1101
 62
     4
100
AcDbCircle
 10
290.1827015638963
 20
209.4456778424931
 30
0.0
 40
0.2999999999999999
100
AcDbArc
 50
270.0
 51
44.99999999999078
  0
ARC
  5
24AB1
330
1F
100
AcDbEntity
  8
YKK_W1101
 62
     4
100
AcDbCircle
 10
286.1827015638964
 20
209.4456778424931
 30
0.0
 40
0.2999999999999999
100
AcDbArc
 50
180.0
 51
270.0
  0
ARC
  5
24AB2
330
1F
100
AcDbEntity
  8
YKK_W1101
 62
     4
100
AcDbCircle
 10
289.6827015638964
 20
209.9456778424931
 30
0.0
 40
0.2999999999999999
100
AcDbArc
 50
44.99999999999078
 51
90.0
  0
ARC
  5
24AB3
330
1F
100
AcDbEntity
  8
YKK_W1101
 62
     4
100
AcDbCircle
 10
286.6827015638964
 20
210.045677842493
 30
0.0
 40
0.2
100
AcDbArc
 50
0.0
 51
90.0
  0
ARC
  5
24AB4
330
1F
100
AcDbEntity
  8
YKK_W1101
 62
     4
100
AcDbCircle
 10
289.3827015638963
 20
209.145677842493
 30
0.0
 40
0.25
100
AcDbArc
 50
33.05573115095895
 51
236.944268849032
  0
ARC
  5
24AB5
330
1F
100
AcDbEntity
  8
YKK_W1101
 62
     4
100
AcDbCircle
 10
289.0827015638964
 20
208.6847006196302
 30
0.0
 40
0.2999999999999999
100
AcDbArc
 50
0.0
 51
56.94426884903204
  0
ARC
  5
24AB6
330
1F
100
AcDbEntity
  8
YKK_W1101
 62
     4
100
AcDbCircle
 10
289.8436787867592
 20
209.4456778424931
 30
0.0
 40
0.2999999999999999
100
AcDbArc
 50
213.055731150977
 51
270.0
  0
ARC
  5
24AB7
330
1F
100
AcDbEntity
  8
YKK_W1101
 62
     4
100
AcDbCircle
 10
298.2806521280833
 20
208.745677842493
 30
0.0
 40
0.2999999999999999
100
AcDbArc
 50
281.7498139083411
 51
98.44935586536077
  0
ARC
  5
24AB8
330
1F
100
AcDbEntity
  8
YKK_W1101
 62
     4
100
AcDbCircle
 10
285.8827015638963
 20
207.3456778424928
 30
0.0
 40
0.2999999999999999
100
AcDbArc
 50
180.0
 51
270.0
  0
ARC
  5
24AB9
330
1F
100
AcDbEntity
  8
YKK_W1101
 62
     4
100
AcDbCircle
 10
285.8827015638963
 20
207.7456778424927
 30
0.0
 40
0.2999999999999999
100
AcDbArc
 50
90.0
 51
180.0
  0
ARC
  5
24ABA
330
1F
100
AcDbEntity
  8
YKK_W1101
 62
     4
100
AcDbCircle
 10
292.1806521280833
 20
208.1428301612532
 30
0.0
 40
0.2999999999999999
100
AcDbArc
 50
219.1975363279616
 51
338.4493558650713
  0
ARC
  5
24ABB
330
1F
100
AcDbEntity
  8
YKK_W1101
 62
     4
100
AcDbCircle
 10
292.7387080790367
 20
207.9224360696826
 30
0.0
 40
0.2999999999999999
100
AcDbArc
 50
98.44935586536077
 51
158.4493558650712
  0
ARC
  5
24ABC
330
1F
100
AcDbEntity
  8
YKK_W1101
 62
     4
100
AcDbCircle
 10
291.7156691292378
 20
207.7636325731919
 30
0.0
 40
0.2999999999999999
100
AcDbArc
 50
39.19753632794738
 51
99.1975363282939
  0
ARC
  5
24ABD
330
1F
100
AcDbEntity
  8
YKK_W1101
 62
     4
100
AcDbCircle
 10
276.2830835638967
 20
147.1456778424926
 30
0.0
 40
1.0
100
AcDbArc
 50
180.0
 51
270.0
  0
ARC
  5
24ABE
330
1F
100
AcDbEntity
  8
YKK_W1101
 62
     4
100
AcDbCircle
 10
324.2830835638968
 20
147.1456778424926
 30
0.0
 40
1.0
100
AcDbArc
 50
270.0
 51
359.9999938590595
  0
ARC
  5
24ABF
330
1F
100
AcDbEntity
  8
YKK_W1101
 62
     4
100
AcDbCircle
 10
283.0826751522764
 20
168.6529106298755
 30
0.0
 40
0.5
100
AcDbArc
 50
309.2345409803733
 51
359.9999938590595
  0
ARC
  5
24AC0
330
1F
100
AcDbEntity
  8
YKK_W1101
 62
     4
100
AcDbCircle
 10
282.3826751522765
 20
169.0156778424924
 30
0.0
 40
0.3
100
AcDbArc
 50
206.7436839495007
 51
59.99999999998492
  0
ARC
  5
24AC1
330
1F
100
AcDbEntity
  8
YKK_W1101
 62
     4
100
AcDbCircle
 10
281.8468580192909
 20
168.7456778425026
 30
0.0
 40
0.3
100
AcDbArc
 50
26.74368394950072
 51
90.00000000059925
  0
ARC
  5
24AC2
330
1F
100
AcDbEntity
  8
YKK_W1101
 62
     4
100
AcDbCircle
 10
282.6826751522767
 20
169.5352930847626
 30
0.0
 40
0.3
100
AcDbArc
 50
180.0
 51
239.9999999999704
  0
ARC
  5
24AC3
330
1F
100
AcDbEntity
  8
YKK_W1101
 62
     4
100
AcDbCircle
 10
278.9826751522766
 20
169.6156778424922
 30
0.0
 40
0.5
100
AcDbArc
 50
185.0920666226335
 51
354.9079333773665
  0
ARC
  5
24AC4
330
1F
100
AcDbEntity
  8
YKK_W1101
 62
     4
100
AcDbCircle
 10
277.5990584499968
 20
168.4456778424587
 30
0.0
 40
0.6
100
AcDbArc
 50
90.00000000036477
 51
270.0000000003778
  0
ARC
  5
24AC5
330
1F
100
AcDbEntity
  8
YKK_W1101
 62
     4
100
AcDbCircle
 10
282.7777185935969
 20
168.1456778424918
 30
0.0
 40
0.3
100
AcDbArc
 50
270.0000000003778
 51
309.2345409803733
  0
ARC
  5
24AC6
330
1F
100
AcDbEntity
  8
YKK_W1101
 62
     4
100
AcDbCircle
 10
279.8826751522765
 20
174.0156778424924
 30
0.0
 40
0.2
100
AcDbArc
 50
90.0
 51
180.0
  0
ARC
  5
24AC7
330
1F
100
AcDbEntity
  8
YKK_W1101
 62
     4
100
AcDbCircle
 10
276.8826751522765
 20
173.9156778424924
 30
0.0
 40
0.3
100
AcDbArc
 50
90.0
 51
180.0
  0
ARC
  5
24AC8
330
1F
100
AcDbEntity
  8
YKK_W1101
 62
     4
100
AcDbCircle
 10
280.9826751522765
 20
173.4156778424924
 30
0.0
 40
0.3
100
AcDbArc
 50
270.0
 51
44.99999999999078
  0
ARC
  5
24AC9
330
1F
100
AcDbEntity
  8
YKK_W1101
 62
     4
100
AcDbCircle
 10
282.6826751522764
 20
171.7156778424925
 30
0.0
 40
0.2
100
AcDbArc
 50
90.0
 51
180.0
  0
ARC
  5
24ACA
330
1F
100
AcDbEntity
  8
YKK_W1101
 62
     4
100
AcDbCircle
 10
283.2826751522765
 20
171.6156778424924
 30
0.0
 40
0.3
100
AcDbArc
 50
0.0
 51
90.0
  0
ARC
  5
24ACB
330
1F
100
AcDbEntity
  8
YKK_W1101
 62
     4
100
AcDbCircle
 10
278.2826751522764
 20
171.2156778424924
 30
0.0
 40
0.5
100
AcDbArc
 50
180.0
 51
270.0
  0
ARC
  5
24ACC
330
1F
100
AcDbEntity
  8
YKK_W1101
 62
     4
100
AcDbCircle
 10
276.8826751522765
 20
173.4156778424924
 30
0.0
 40
0.3
100
AcDbArc
 50
180.0
 51
270.0
  0
ARC
  5
24ACD
330
1F
100
AcDbEntity
  8
YKK_W1101
 62
     4
100
AcDbCircle
 10
280.4826751522766
 20
173.9156778424924
 30
0.0
 40
0.3
100
AcDbArc
 50
44.99999999999078
 51
90.0
  0
ARC
  5
24ACE
330
1F
100
AcDbEntity
  8
YKK_W1101
 62
     4
100
AcDbCircle
 10
277.3826751522765
 20
174.0156778424924
 30
0.0
 40
0.2
100
AcDbArc
 50
0.0
 51
90.0
  0
ARC
  5
24ACF
330
1F
100
AcDbEntity
  8
YKK_W1101
 62
     4
100
AcDbCircle
 10
280.1826751522767
 20
173.1156778424924
 30
0.0
 40
0.25
100
AcDbArc
 50
33.05573115095895
 51
236.9442688490411
  0
ARC
  5
24AD0
330
1F
100
AcDbEntity
  8
YKK_W1101
 62
     4
100
AcDbCircle
 10
279.8826751522765
 20
172.6547006196297
 30
0.0
 40
0.3
100
AcDbArc
 50
0.0
 51
56.94426884904106
  0
ARC
  5
24AD1
330
1F
100
AcDbEntity
  8
YKK_W1101
 62
     4
100
AcDbCircle
 10
280.6436523751393
 20
173.4156778424924
 30
0.0
 40
0.3
100
AcDbArc
 50
213.0557311509589
 51
270.0
  0
LINE
  5
24AD2
330
1F
100
AcDbEntity
  8
YKK_W1101
 62
     2
100
AcDbLine
 10
271.2827015638965
 20
197.7456778424927
 30
0.0
 11
299.2827015538962
 21
197.7456778424928
 31
0.0
  0
LINE
  5
24AD3
330
1F
100
AcDbEntity
  8
YKK_W1101
 62
     2
100
AcDbLine
 10
282.9827015638965
 20
171.9456778424926
 30
0.0
 11
299.2827015538962
 21
171.9456778424926
 31
0.0
  0
LINE
  5
24AD4
330
1F
100
AcDbEntity
  8
YKK_W1101
 62
     2
100
AcDbLine
 10
299.2827015538962
 20
175.8456778424927
 30
0.0
 11
271.2827015638965
 21
175.8456778424927
 31
0.0
  0
ARC
  5
24AD5
330
1F
100
AcDbEntity
  8
YKK_W1701
 62
     4
100
AcDbCircle
 10
558.482983563896
 20
210.0456778424931
 30
0.0
 40
0.2
100
AcDbArc
 50
0.0
 51
90.0
  0
ARC
  5
24AD6
330
1F
100
AcDbEntity
  8
YKK_W1701
 62
     4
100
AcDbCircle
 10
561.3829835638961
 20
209.9456778424929
 30
0.0
 40
0.2999999999999999
100
AcDbArc
 50
0.0
 51
90.0
  0
ARC
  5
24AD7
330
1F
100
AcDbEntity
  8
YKK_W1701
 62
     4
100
AcDbCircle
 10
557.3829835638961
 20
209.4456778424929
 30
0.0
 40
0.2999999999999999
100
AcDbArc
 50
135.0000000000092
 51
270.0
  0
ARC
  5
24AD8
330
1F
100
AcDbEntity
  8
YKK_W1701
 62
     4
100
AcDbCircle
 10
561.3829835638961
 20
209.4456778424929
 30
0.0
 40
0.2999999999999999
100
AcDbArc
 50
270.0
 51
359.9999938590595
  0
ARC
  5
24AD9
330
1F
100
AcDbEntity
  8
YKK_W1701
 62
     4
100
AcDbCircle
 10
557.8829835638961
 20
209.9456778424929
 30
0.0
 40
0.2999999999999999
100
AcDbArc
 50
90.0
 51
135.0000000000092
  0
ARC
  5
24ADA
330
1F
100
AcDbEntity
  8
YKK_W1701
 62
     4
100
AcDbCircle
 10
560.8829835638961
 20
210.0456778424931
 30
0.0
 40
0.2
100
AcDbArc
 50
90.0
 51
180.0
  0
ARC
  5
24ADB
330
1F
100
AcDbEntity
  8
YKK_W1701
 62
     4
100
AcDbCircle
 10
558.182983563896
 20
209.1456778424931
 30
0.0
 40
0.25
100
AcDbArc
 50
303.055731150968
 51
146.944268849041
  0
ARC
  5
24ADC
330
1F
100
AcDbEntity
  8
YKK_W1701
 62
     4
100
AcDbCircle
 10
558.482983563896
 20
208.6847006196302
 30
0.0
 40
0.2999999999999999
100
AcDbArc
 50
123.0557311509679
 51
180.0
  0
ARC
  5
24ADD
330
1F
100
AcDbEntity
  8
YKK_W1701
 62
     4
100
AcDbCircle
 10
557.722006341033
 20
209.4456778424929
 30
0.0
 40
0.2999999999999999
100
AcDbArc
 50
270.0
 51
326.944268849023
  0
ARC
  5
24ADE
330
1F
100
AcDbEntity
  8
YKK_W1701
 62
     4
100
AcDbCircle
 10
549.2850329997089
 20
208.7456778424929
 30
0.0
 40
0.2999999999999999
100
AcDbArc
 50
81.55064413463923
 51
258.2501860916525
  0
ARC
  5
24ADF
330
1F
100
AcDbEntity
  8
YKK_W1701
 62
     4
100
AcDbCircle
 10
561.682983563896
 20
207.3456778424929
 30
0.0
 40
0.2999999999999999
100
AcDbArc
 50
270.0
 51
359.9999938590595
  0
ARC
  5
24AE0
330
1F
100
AcDbEntity
  8
YKK_W1701
 62
     4
100
AcDbCircle
 10
561.682983563896
 20
207.7456778424928
 30
0.0
 40
0.2999999999999999
100
AcDbArc
 50
0.0
 51
90.0
  0
ARC
  5
24AE1
330
1F
100
AcDbEntity
  8
YKK_W1701
 62
     4
100
AcDbCircle
 10
555.385032999709
 20
208.1428301612533
 30
0.0
 40
0.2999999999999999
100
AcDbArc
 50
201.5506441349287
 51
320.8024636720384
  0
ARC
  5
24AE2
330
1F
100
AcDbEntity
  8
YKK_W1701
 62
     4
100
AcDbCircle
 10
554.8269770487557
 20
207.9224360696826
 30
0.0
 40
0.2999999999999999
100
AcDbArc
 50
21.55064413492874
 51
81.55064413463923
  0
ARC
  5
24AE3
330
1F
100
AcDbEntity
  8
YKK_W1701
 62
     4
100
AcDbCircle
 10
555.8500159985547
 20
207.763632573192
 30
0.0
 40
0.2999999999999999
100
AcDbArc
 50
80.80246367170609
 51
140.8024636720526
  0
ARC
  5
24AE4
330
1F
100
AcDbEntity
  8
YKK_W1701
 62
     4
100
AcDbCircle
 10
571.2829685638961
 20
147.1456778424927
 30
0.0
 40
1.0
100
AcDbArc
 50
270.0
 51
359.9999938590595
  0
ARC
  5
24AE5
330
1F
100
AcDbEntity
  8
YKK_W1701
 62
     4
100
AcDbCircle
 10
523.2829685638961
 20
147.1456778424927
 30
0.0
 40
1.0
100
AcDbArc
 50
180.0
 51
270.0
  0
ARC
  5
24AE6
330
1F
100
AcDbEntity
  8
YKK_W1701
 62
     4
100
AcDbCircle
 10
564.4830099755162
 20
168.6529106298757
 30
0.0
 40
0.5
100
AcDbArc
 50
180.0
 51
230.7654590196268
  0
ARC
  5
24AE7
330
1F
100
AcDbEntity
  8
YKK_W1701
 62
     4
100
AcDbCircle
 10
565.1830099755165
 20
169.0156778424925
 30
0.0
 40
0.3
100
AcDbArc
 50
120.000000000015
 51
333.2563160504993
  0
ARC
  5
24AE8
330
1F
100
AcDbEntity
  8
YKK_W1701
 62
     4
100
AcDbCircle
 10
565.7188271085018
 20
168.7456778425027
 30
0.0
 40
0.3
100
AcDbArc
 50
89.99999999940072
 51
153.2563160504993
  0
ARC
  5
24AE9
330
1F
100
AcDbEntity
  8
YKK_W1701
 62
     4
100
AcDbCircle
 10
564.883009975516
 20
169.5352930847628
 30
0.0
 40
0.3
100
AcDbArc
 50
300.0000000000296
 51
359.9999938590595
  0
ARC
  5
24AEA
330
1F
100
AcDbEntity
  8
YKK_W1701
 62
     4
100
AcDbCircle
 10
568.5830099755161
 20
169.6156778424923
 30
0.0
 40
0.5
100
AcDbArc
 50
185.0920666226335
 51
354.9079333773665
  0
ARC
  5
24AEB
330
1F
100
AcDbEntity
  8
YKK_W1701
 62
     4
100
AcDbCircle
 10
569.9666266777962
 20
168.4456778424588
 30
0.0
 40
0.6
100
AcDbArc
 50
269.9999999996222
 51
89.99999999963522
  0
ARC
  5
24AEC
330
1F
100
AcDbEntity
  8
YKK_W1701
 62
     4
100
AcDbCircle
 10
564.7879665341959
 20
168.145677842492
 30
0.0
 40
0.3
100
AcDbArc
 50
230.7654590196268
 51
269.9999999996222
  0
ARC
  5
24AED
330
1F
100
AcDbEntity
  8
YKK_W1701
 62
     4
100
AcDbCircle
 10
567.6830099755163
 20
174.0156778424925
 30
0.0
 40
0.2
100
AcDbArc
 50
0.0
 51
90.0
  0
ARC
  5
24AEE
330
1F
100
AcDbEntity
  8
YKK_W1701
 62
     4
100
AcDbCircle
 10
570.6830099755165
 20
173.9156778424925
 30
0.0
 40
0.3
100
AcDbArc
 50
0.0
 51
90.0
  0
ARC
  5
24AEF
330
1F
100
AcDbEntity
  8
YKK_W1701
 62
     4
100
AcDbCircle
 10
566.5830099755163
 20
173.4156778424925
 30
0.0
 40
0.3
100
AcDbArc
 50
135.0000000000092
 51
270.0
  0
ARC
  5
24AF0
330
1F
100
AcDbEntity
  8
YKK_W1701
 62
     4
100
AcDbCircle
 10
564.8830099755163
 20
171.7156778424926
 30
0.0
 40
0.2
100
AcDbArc
 50
0.0
 51
90.0
  0
ARC
  5
24AF1
330
1F
100
AcDbEntity
  8
YKK_W1701
 62
     4
100
AcDbCircle
 10
564.2830099755164
 20
171.6156778424926
 30
0.0
 40
0.3
100
AcDbArc
 50
90.0
 51
180.0
  0
ARC
  5
24AF2
330
1F
100
AcDbEntity
  8
YKK_W1701
 62
     4
100
AcDbCircle
 10
569.2830099755162
 20
171.2156778424926
 30
0.0
 40
0.5
100
AcDbArc
 50
270.0
 51
359.9999938590595
  0
ARC
  5
24AF3
330
1F
100
AcDbEntity
  8
YKK_W1701
 62
     4
100
AcDbCircle
 10
570.6830099755165
 20
173.4156778424925
 30
0.0
 40
0.3
100
AcDbArc
 50
270.0
 51
359.9999938590595
  0
ARC
  5
24AF4
330
1F
100
AcDbEntity
  8
YKK_W1701
 62
     4
100
AcDbCircle
 10
567.0830099755163
 20
173.9156778424925
 30
0.0
 40
0.3
100
AcDbArc
 50
90.0
 51
134.9999999999908
  0
ARC
  5
24AF5
330
1F
100
AcDbEntity
  8
YKK_W1701
 62
     4
100
AcDbCircle
 10
570.1830099755162
 20
174.0156778424925
 30
0.0
 40
0.2
100
AcDbArc
 50
90.0
 51
180.0
  0
ARC
  5
24AF6
330
1F
100
AcDbEntity
  8
YKK_W1701
 62
     4
100
AcDbCircle
 10
567.3830099755161
 20
173.1156778424925
 30
0.0
 40
0.25
100
AcDbArc
 50
303.055731150959
 51
146.944268849041
  0
ARC
  5
24AF7
330
1F
100
AcDbEntity
  8
YKK_W1701
 62
     4
100
AcDbCircle
 10
567.6830099755163
 20
172.6547006196298
 30
0.0
 40
0.3
100
AcDbArc
 50
123.0557311509589
 51
180.0
  0
ARC
  5
24AF8
330
1F
100
AcDbEntity
  8
YKK_W1701
 62
     4
100
AcDbCircle
 10
566.9220327526533
 20
173.4156778424925
 30
0.0
 40
0.3
100
AcDbArc
 50
270.0
 51
326.944268849041
  0
LINE
  5
24AF9
330
1F
100
AcDbEntity
  8
YKK_W1701
 62
     2
100
AcDbLine
 10
548.2829842614997
 20
197.7456778424929
 30
0.0
 11
576.2829842514996
 21
197.7456778424929
 31
0.0
  0
LINE
  5
24AFA
330
1F
100
AcDbEntity
  8
YKK_W1701
 62
     2
100
AcDbLine
 10
548.2829842614993
 20
171.9456778424927
 30
0.0
 11
564.5829842514996
 21
171.9456778424927
 31
0.0
  0
LINE
  5
24AFB
330
1F
100
AcDbEntity
  8
YKK_W1701
 62
     2
100
AcDbLine
 10
576.2829835638964
 20
175.8456778424928
 30
0.0
 11
548.2829842614993
 21
175.8456778424928
 31
0.0
  0
LINE
  5
24AFC
330
1F
100
AcDbEntity
  8
0
  6
ByBlock
 62
     0
 48
0.5
370
    -2
100
AcDbLine
 10
276.3127015638964
 20
174.2156778424928
 30
0.0
 11
281.7827015638965
 21
174.2156778424928
 31
0.0
  0
LINE
  5
24AFD
330
1F
100
AcDbEntity
  8
0
  6
ByBlock
 62
     0
 48
0.5
370
    -2
100
AcDbLine
 10
281.7827015638965
 20
174.2156778424928
 30
0.0
 11
281.7827015638965
 21
172.7456778424927
 31
0.0
  0
LINE
  5
24AFE
330
1F
100
AcDbEntity
  8
0
  6
ByBlock
 62
     0
 48
0.5
370
    -2
100
AcDbLine
 10
281.7827015638965
 20
172.7456778424927
 30
0.0
 11
280.4827015638966
 21
172.7456778424927
 31
0.0
  0
LINE
  5
24AFF
330
1F
100
AcDbEntity
  8
0
  6
ByBlock
 62
     0
 48
0.5
370
    -2
100
AcDbLine
 10
280.4827015638966
 20
172.7456778424927
 30
0.0
 11
280.4827015638966
 21
171.9456778424928
 31
0.0
  0
LINE
  5
24B00
330
1F
100
AcDbEntity
  8
0
  6
ByBlock
 62
     0
 48
0.5
370
    -2
100
AcDbLine
 10
280.4827015638966
 20
171.9456778424928
 30
0.0
 11
283.2827015638965
 21
171.9456778424928
 31
0.0
  0
LINE
  5
24B01
330
1F
100
AcDbEntity
  8
0
  6
ByBlock
 62
     0
 48
0.5
370
    -2
100
AcDbLine
 10
283.2827015638965
 20
171.9456778424928
 30
0.0
 11
283.2827015638965
 21
175.3456778424927
 31
0.0
  0
ARC
  5
24B02
330
1F
100
AcDbEntity
  8
0
  6
ByBlock
 62
     0
 48
0.5
370
    -2
100
AcDbCircle
 10
282.7827015638964
 20
175.3456778424927
 30
0.0
 40
0.5
100
AcDbArc
 50
0.0
 51
90.0
  0
LINE
  5
24B03
330
1F
100
AcDbEntity
  8
0
  6
ByBlock
 62
     0
 48
0.5
370
    -2
100
AcDbLine
 10
282.7827015638964
 20
175.8456778424927
 30
0.0
 11
276.1827015638965
 21
175.8456778424927
 31
0.0
  0
ARC
  5
24B04
330
1F
100
AcDbEntity
  8
0
  6
ByBlock
 62
     0
 48
0.5
370
    -2
100
AcDbCircle
 10
276.1827015638965
 20
174.3456778424927
 30
0.0
 40
1.5
100
AcDbArc
 50
90.0
 51
180.0
  0
LINE
  5
24B05
330
1F
100
AcDbEntity
  8
0
  6
ByBlock
 62
     0
 48
0.5
370
    -2
100
AcDbLine
 10
274.6827015638965
 20
174.3456778424927
 30
0.0
 11
274.6827015638965
 21
173.5756778424928
 31
0.0
  0
LINE
  5
24B06
330
1F
100
AcDbEntity
  8
0
  6
ByBlock
 62
     0
 48
0.5
370
    -2
100
AcDbLine
 10
274.6827015638965
 20
173.5756778424928
 30
0.0
 11
271.2827015638965
 21
173.5756778424928
 31
0.0
  0
LINE
  5
24B07
330
1F
100
AcDbEntity
  8
0
  6
ByBlock
 62
     0
 48
0.5
370
    -2
100
AcDbLine
 10
271.2827015638965
 20
173.5756778424928
 30
0.0
 11
271.2827015638965
 21
210.3156778424928
 31
0.0
  0
LINE
  5
24B08
330
1F
100
AcDbEntity
  8
0
  6
ByBlock
 62
     0
 48
0.5
370
    -2
100
AcDbLine
 10
271.2827015638965
 20
210.3156778424928
 30
0.0
 11
284.7827015638965
 21
210.3156778424928
 31
0.0
  0
LINE
  5
24B09
330
1F
100
AcDbEntity
  8
0
  6
ByBlock
 62
     0
 48
0.5
370
    -2
100
AcDbLine
 10
284.7827015638965
 20
210.3156778424928
 30
0.0
 11
284.7827015638965
 21
208.5456778424927
 31
0.0
  0
ARC
  5
24B0A
330
1F
100
AcDbEntity
  8
0
  6
ByBlock
 62
     0
 48
0.5
370
    -2
100
AcDbCircle
 10
285.2827015638965
 20
208.5456778424927
 30
0.0
 40
0.5
100
AcDbArc
 50
180.0
 51
270.0
  0
LINE
  5
24B0B
330
1F
100
AcDbEntity
  8
0
  6
ByBlock
 62
     0
 48
0.5
370
    -2
100
AcDbLine
 10
285.2827015638965
 20
208.0456778424927
 30
0.0
 11
286.6827015638964
 21
208.0456778424927
 31
0.0
  0
LINE
  5
24B0C
330
1F
100
AcDbEntity
  8
0
  6
ByBlock
 62
     0
 48
0.5
370
    -2
100
AcDbLine
 10
286.6827015638964
 20
208.0456778424927
 30
0.0
 11
286.6827015638964
 21
208.8456778424928
 31
0.0
  0
LINE
  5
24B0D
330
1F
100
AcDbEntity
  8
0
  6
ByBlock
 62
     0
 48
0.5
370
    -2
100
AcDbLine
 10
286.6827015638964
 20
208.8456778424928
 30
0.0
 11
285.5827015638967
 21
208.8456778424927
 31
0.0
  0
LINE
  5
24B0E
330
1F
100
AcDbEntity
  8
0
  6
ByBlock
 62
     0
 48
0.5
370
    -2
100
AcDbLine
 10
285.5827015638967
 20
208.8456778424927
 30
0.0
 11
285.5827015638967
 21
210.3156778424928
 31
0.0
  0
LINE
  5
24B0F
330
1F
100
AcDbEntity
  8
0
  6
ByBlock
 62
     0
 48
0.5
370
    -2
100
AcDbLine
 10
285.5827015638967
 20
210.3156778424928
 30
0.0
 11
290.7827015638964
 21
210.3156778424928
 31
0.0
  0
LINE
  5
24B10
330
1F
100
AcDbEntity
  8
0
  6
ByBlock
 62
     0
 48
0.5
370
    -2
100
AcDbLine
 10
290.7827015638964
 20
210.3156778424928
 30
0.0
 11
290.7827015638964
 21
208.8456778424927
 31
0.0
  0
LINE
  5
24B11
330
1F
100
AcDbEntity
  8
0
  6
ByBlock
 62
     0
 48
0.5
370
    -2
100
AcDbLine
 10
290.7827015638964
 20
208.8456778424927
 30
0.0
 11
289.6827015638964
 21
208.8456778424927
 31
0.0
  0
LINE
  5
24B12
330
1F
100
AcDbEntity
  8
0
  6
ByBlock
 62
     0
 48
0.5
370
    -2
100
AcDbLine
 10
289.6827015638964
 20
208.8456778424927
 30
0.0
 11
289.6827015638964
 21
208.0456778424927
 31
0.0
  0
LINE
  5
24B13
330
1F
100
AcDbEntity
  8
0
  6
ByBlock
 62
     0
 48
0.5
370
    -2
100
AcDbLine
 10
289.6827015638964
 20
208.0456778424927
 30
0.0
 11
292.2827015638965
 21
208.0456778424927
 31
0.0
  0
LINE
  5
24B14
330
1F
100
AcDbEntity
  8
0
  6
ByBlock
 62
     0
 48
0.5
370
    -2
100
AcDbLine
 10
292.2827015638965
 20
208.0456778424927
 30
0.0
 11
292.2827015638965
 21
211.9456778424928
 31
0.0
  0
LINE
  5
24B15
330
1F
100
AcDbEntity
  8
0
  6
ByBlock
 62
     0
 48
0.5
370
    -2
100
AcDbLine
 10
292.2827015638965
 20
211.9456778424928
 30
0.0
 11
271.2827015638965
 21
211.9456778424928
 31
0.0
  0
LINE
  5
24B16
330
1F
100
AcDbEntity
  8
0
  6
ByBlock
 62
     0
 48
0.5
370
    -2
100
AcDbLine
 10
271.2827015638965
 20
211.9456778424928
 30
0.0
 11
271.2827015638965
 21
213.9456778424928
 31
0.0
  0
LINE
  5
24B17
330
1F
100
AcDbEntity
  8
0
  6
ByBlock
 62
     0
 48
0.5
370
    -2
100
AcDbLine
 10
271.2827015638965
 20
213.9456778424928
 30
0.0
 11
246.7827015638966
 21
213.9456778424928
 31
0.0
  0
ARC
  5
24B18
330
1F
100
AcDbEntity
  8
0
  6
ByBlock
 62
     0
 48
0.5
370
    -2
100
AcDbCircle
 10
246.7827015638966
 20
213.4456778424926
 30
0.0
 40
0.5
100
AcDbArc
 50
90.0
 51
180.0
  0
LINE
  5
24B19
330
1F
100
AcDbEntity
  8
0
  6
ByBlock
 62
     0
 48
0.5
370
    -2
100
AcDbLine
 10
246.2827015638966
 20
213.4456778424926
 30
0.0
 11
246.2827015638966
 21
205.4456778424926
 31
0.0
  0
ARC
  5
24B1A
330
1F
100
AcDbEntity
  8
0
  6
ByBlock
 62
     0
 48
0.5
370
    -2
100
AcDbCircle
 10
246.7827015638966
 20
205.4456778424926
 30
0.0
 40
0.5
100
AcDbArc
 50
180.0
 51
270.0
  0
LINE
  5
24B1B
330
1F
100
AcDbEntity
  8
0
  6
ByBlock
 62
     0
 48
0.5
370
    -2
100
AcDbLine
 10
246.7827015638966
 20
204.9456778424928
 30
0.0
 11
247.2827015638964
 21
204.9456778424926
 31
0.0
  0
LINE
  5
24B1C
330
1F
100
AcDbEntity
  8
0
  6
ByBlock
 62
     0
 48
0.5
370
    -2
100
AcDbLine
 10
247.2827015638964
 20
204.9456778424926
 30
0.0
 11
247.9127015638965
 21
206.0368698512611
 31
0.0
  0
LINE
  5
24B1D
330
1F
100
AcDbEntity
  8
0
  6
ByBlock
 62
     0
 48
0.5
370
    -2
100
AcDbLine
 10
247.9127015638965
 20
206.0368698512611
 30
0.0
 11
247.9127015638965
 21
212.3156778424928
 31
0.0
  0
LINE
  5
24B1E
330
1F
100
AcDbEntity
  8
0
  6
ByBlock
 62
     0
 48
0.5
370
    -2
100
AcDbLine
 10
247.9127015638965
 20
212.3156778424928
 30
0.0
 11
269.6527015638965
 21
212.3156778424928
 31
0.0
  0
LINE
  5
24B1F
330
1F
100
AcDbEntity
  8
0
  6
ByBlock
 62
     0
 48
0.5
370
    -2
100
AcDbLine
 10
269.6527015638965
 20
212.3156778424928
 30
0.0
 11
269.6527015638965
 21
145.5756778424927
 31
0.0
  0
LINE
  5
24B20
330
1F
100
AcDbEntity
  8
0
  6
ByBlock
 62
     0
 48
0.5
370
    -2
100
AcDbLine
 10
269.6527015638965
 20
145.5756778424927
 30
0.0
 11
247.9127015638965
 21
145.5756778424927
 31
0.0
  0
LINE
  5
24B21
330
1F
100
AcDbEntity
  8
0
  6
ByBlock
 62
     0
 48
0.5
370
    -2
100
AcDbLine
 10
247.9127015638965
 20
145.5756778424927
 30
0.0
 11
247.9127015638965
 21
151.8544858337245
 31
0.0
  0
LINE
  5
24B22
330
1F
100
AcDbEntity
  8
0
  6
ByBlock
 62
     0
 48
0.5
370
    -2
100
AcDbLine
 10
247.9127015638965
 20
151.8544858337245
 30
0.0
 11
247.2827015638966
 21
152.9456778424928
 31
0.0
  0
LINE
  5
24B23
330
1F
100
AcDbEntity
  8
0
  6
ByBlock
 62
     0
 48
0.5
370
    -2
100
AcDbLine
 10
247.2827015638966
 20
152.9456778424928
 30
0.0
 11
246.7827015638966
 21
152.9456778424928
 31
0.0
  0
ARC
  5
24B24
330
1F
100
AcDbEntity
  8
0
  6
ByBlock
 62
     0
 48
0.5
370
    -2
100
AcDbCircle
 10
246.7827015638966
 20
152.4456778424928
 30
0.0
 40
0.5
100
AcDbArc
 50
90.0
 51
180.0
  0
LINE
  5
24B25
330
1F
100
AcDbEntity
  8
0
  6
ByBlock
 62
     0
 48
0.5
370
    -2
100
AcDbLine
 10
246.2827015638966
 20
152.4456778424928
 30
0.0
 11
246.2827015638966
 21
149.4039354119884
 31
0.0
  0
ARC
  5
24B26
330
1F
100
AcDbEntity
  8
0
  6
ByBlock
 62
     0
 48
0.5
370
    -2
100
AcDbCircle
 10
246.4827015638966
 20
149.4039354119884
 30
0.0
 40
0.2000000000000116
100
AcDbArc
 50
180.0
 51
246.4218215217989
  0
ARC
  5
24B27
330
1F
100
AcDbEntity
  8
0
  6
ByBlock
 62
     0
 48
0.5
370
    -2
100
AcDbCircle
 10
246.2827015638966
 20
148.9456778424928
 30
0.0
 40
0.2999999999999898
100
AcDbArc
 50
293.5781784782012
 51
66.42182152179883
  0
ARC
  5
24B28
330
1F
100
AcDbEntity
  8
0
  6
ByBlock
 62
     0
 48
0.5
370
    -2
100
AcDbCircle
 10
246.4827015638966
 20
148.4874202729971
 30
0.0
 40
0.2000000000000109
100
AcDbArc
 50
113.5781784782011
 51
180.0
  0
LINE
  5
24B29
330
1F
100
AcDbEntity
  8
0
  6
ByBlock
 62
     0
 48
0.5
370
    -2
100
AcDbLine
 10
246.2827015638966
 20
148.4874202729971
 30
0.0
 11
246.2827015638966
 21
148.4039354119883
 31
0.0
  0
ARC
  5
24B2A
330
1F
100
AcDbEntity
  8
0
  6
ByBlock
 62
     0
 48
0.5
370
    -2
100
AcDbCircle
 10
246.4827015638966
 20
148.4039354119883
 30
0.0
 40
0.2000000000000116
100
AcDbArc
 50
180.0
 51
246.4218215217989
  0
ARC
  5
24B2B
330
1F
100
AcDbEntity
  8
0
  6
ByBlock
 62
     0
 48
0.5
370
    -2
100
AcDbCircle
 10
246.2827015638966
 20
147.9456778424928
 30
0.0
 40
0.2999999999999898
100
AcDbArc
 50
293.5781784782012
 51
66.42182152179883
  0
ARC
  5
24B2C
330
1F
100
AcDbEntity
  8
0
  6
ByBlock
 62
     0
 48
0.5
370
    -2
100
AcDbCircle
 10
246.4827015638964
 20
147.4874202729973
 30
0.0
 40
0.1999999999999945
100
AcDbArc
 50
113.5781784782011
 51
180.0
  0
LINE
  5
24B2D
330
1F
100
AcDbEntity
  8
0
  6
ByBlock
 62
     0
 48
0.5
370
    -2
100
AcDbLine
 10
246.2827015638966
 20
147.4874202729973
 30
0.0
 11
246.2827015638966
 21
144.4456778424928
 31
0.0
  0
ARC
  5
24B2E
330
1F
100
AcDbEntity
  8
0
  6
ByBlock
 62
     0
 48
0.5
370
    -2
100
AcDbCircle
 10
246.7827015638966
 20
144.4456778424928
 30
0.0
 40
0.5
100
AcDbArc
 50
180.0
 51
270.0
  0
LINE
  5
24B2F
330
1F
100
AcDbEntity
  8
0
  6
ByBlock
 62
     0
 48
0.5
370
    -2
100
AcDbLine
 10
246.7827015638966
 20
143.9456778424928
 30
0.0
 11
255.2827015638966
 21
143.9456778424928
 31
0.0
  0
LINE
  5
24B30
330
1F
100
AcDbEntity
  8
0
  6
ByBlock
 62
     0
 48
0.5
370
    -2
100
AcDbLine
 10
255.2827015638966
 20
143.9456778424928
 30
0.0
 11
255.2827015638966
 21
124.8456778424928
 31
0.0
  0
LINE
  5
24B31
330
1F
100
AcDbEntity
  8
0
  6
ByBlock
 62
     0
 48
0.5
370
    -2
100
AcDbLine
 10
255.2827015638966
 20
124.8456778424928
 30
0.0
 11
253.7327015638966
 21
124.8456778424928
 31
0.0
  0
ARC
  5
24B32
330
1F
100
AcDbEntity
  8
0
  6
ByBlock
 62
     0
 48
0.5
370
    -2
100
AcDbCircle
 10
253.7327015638969
 20
124.3956778424929
 30
0.0
 40
0.450000000000003
100
AcDbArc
 50
90.00000000001303
 51
269.9999999999674
  0
LINE
  5
24B33
330
1F
100
AcDbEntity
  8
0
  6
ByBlock
 62
     0
 48
0.5
370
    -2
100
AcDbLine
 10
253.7327015638966
 20
123.9456778424928
 30
0.0
 11
256.2827015638966
 21
123.9456778424928
 31
0.0
  0
LINE
  5
24B34
330
1F
100
AcDbEntity
  8
0
  6
ByBlock
 62
     0
 48
0.5
370
    -2
100
AcDbLine
 10
256.2827015638966
 20
123.9456778424928
 30
0.0
 11
256.2827015638966
 21
143.9456778424928
 31
0.0
  0
LINE
  5
24B35
330
1F
100
AcDbEntity
  8
0
  6
ByBlock
 62
     0
 48
0.5
370
    -2
100
AcDbLine
 10
256.2827015638966
 20
143.9456778424928
 30
0.0
 11
271.2827015638965
 21
143.9456778424928
 31
0.0
  0
LINE
  5
24B36
330
1F
100
AcDbEntity
  8
0
  6
ByBlock
 62
     0
 48
0.5
370
    -2
100
AcDbLine
 10
271.2827015638965
 20
143.9456778424928
 30
0.0
 11
271.2827015638965
 21
171.9456778424928
 31
0.0
  0
LINE
  5
24B37
330
1F
100
AcDbEntity
  8
0
  6
ByBlock
 62
     0
 48
0.5
370
    -2
100
AcDbLine
 10
271.2827015638965
 20
171.9456778424928
 30
0.0
 11
277.4827015638966
 21
171.9456778424928
 31
0.0
  0
LINE
  5
24B38
330
1F
100
AcDbEntity
  8
0
  6
ByBlock
 62
     0
 48
0.5
370
    -2
100
AcDbLine
 10
277.4827015638966
 20
171.9456778424928
 30
0.0
 11
277.4827015638966
 21
172.7456778424927
 31
0.0
  0
LINE
  5
24B39
330
1F
100
AcDbEntity
  8
0
  6
ByBlock
 62
     0
 48
0.5
370
    -2
100
AcDbLine
 10
277.4827015638966
 20
172.7456778424927
 30
0.0
 11
276.3127015638964
 21
172.7456778424927
 31
0.0
  0
LINE
  5
24B3A
330
1F
100
AcDbEntity
  8
0
  6
ByBlock
 62
     0
 48
0.5
370
    -2
100
AcDbLine
 10
276.3127015638964
 20
172.7456778424927
 30
0.0
 11
276.3127015638964
 21
174.2156778424928
 31
0.0
  0
LINE
  5
24B3B
330
1F
100
AcDbEntity
  8
0
  6
ByBlock
 62
     0
 48
0.5
370
    -2
100
AcDbLine
 10
571.2529835638965
 20
174.2156778424929
 30
0.0
 11
565.7829835638964
 21
174.2156778424929
 31
0.0
  0
LINE
  5
24B3C
330
1F
100
AcDbEntity
  8
0
  6
ByBlock
 62
     0
 48
0.5
370
    -2
100
AcDbLine
 10
565.7829835638964
 20
174.2156778424929
 30
0.0
 11
565.7829835638964
 21
172.7456778424928
 31
0.0
  0
LINE
  5
24B3D
330
1F
100
AcDbEntity
  8
0
  6
ByBlock
 62
     0
 48
0.5
370
    -2
100
AcDbLine
 10
565.7829835638964
 20
172.7456778424928
 30
0.0
 11
567.0829835638963
 21
172.7456778424928
 31
0.0
  0
LINE
  5
24B3E
330
1F
100
AcDbEntity
  8
0
  6
ByBlock
 62
     0
 48
0.5
370
    -2
100
AcDbLine
 10
567.0829835638963
 20
172.7456778424928
 30
0.0
 11
567.0829835638963
 21
171.9456778424929
 31
0.0
  0
LINE
  5
24B3F
330
1F
100
AcDbEntity
  8
0
  6
ByBlock
 62
     0
 48
0.5
370
    -2
100
AcDbLine
 10
567.0829835638963
 20
171.9456778424929
 30
0.0
 11
564.2829835638964
 21
171.9456778424929
 31
0.0
  0
LINE
  5
24B40
330
1F
100
AcDbEntity
  8
0
  6
ByBlock
 62
     0
 48
0.5
370
    -2
100
AcDbLine
 10
564.2829835638964
 20
171.9456778424929
 30
0.0
 11
564.2829835638964
 21
175.3456778424928
 31
0.0
  0
ARC
  5
24B41
330
1F
100
AcDbEntity
  8
0
  6
ByBlock
 62
     0
 48
0.5
370
    -2
100
AcDbCircle
 10
564.7829835638964
 20
175.3456778424928
 30
0.0
 40
0.5
100
AcDbArc
 50
90.0
 51
180.0
  0
LINE
  5
24B42
330
1F
100
AcDbEntity
  8
0
  6
ByBlock
 62
     0
 48
0.5
370
    -2
100
AcDbLine
 10
564.7829835638964
 20
175.8456778424928
 30
0.0
 11
571.3829835638963
 21
175.8456778424928
 31
0.0
  0
ARC
  5
24B43
330
1F
100
AcDbEntity
  8
0
  6
ByBlock
 62
     0
 48
0.5
370
    -2
100
AcDbCircle
 10
571.3829835638963
 20
174.3456778424928
 30
0.0
 40
1.5
100
AcDbArc
 50
0.0
 51
90.0
  0
LINE
  5
24B44
330
1F
100
AcDbEntity
  8
0
  6
ByBlock
 62
     0
 48
0.5
370
    -2
100
AcDbLine
 10
572.8829835638963
 20
174.3456778424928
 30
0.0
 11
572.8829835638963
 21
173.5756778424929
 31
0.0
  0
LINE
  5
24B45
330
1F
100
AcDbEntity
  8
0
  6
ByBlock
 62
     0
 48
0.5
370
    -2
100
AcDbLine
 10
572.8829835638963
 20
173.5756778424929
 30
0.0
 11
576.2829835638964
 21
173.5756778424929
 31
0.0
  0
LINE
  5
24B46
330
1F
100
AcDbEntity
  8
0
  6
ByBlock
 62
     0
 48
0.5
370
    -2
100
AcDbLine
 10
576.2829835638964
 20
173.5756778424929
 30
0.0
 11
576.2829835638964
 21
210.315677842493
 31
0.0
  0
LINE
  5
24B47
330
1F
100
AcDbEntity
  8
0
  6
ByBlock
 62
     0
 48
0.5
370
    -2
100
AcDbLine
 10
576.2829835638964
 20
210.315677842493
 30
0.0
 11
562.7829835638964
 21
210.315677842493
 31
0.0
  0
LINE
  5
24B48
330
1F
100
AcDbEntity
  8
0
  6
ByBlock
 62
     0
 48
0.5
370
    -2
100
AcDbLine
 10
562.7829835638964
 20
210.315677842493
 30
0.0
 11
562.7829835638964
 21
208.5456778424929
 31
0.0
  0
ARC
  5
24B49
330
1F
100
AcDbEntity
  8
0
  6
ByBlock
 62
     0
 48
0.5
370
    -2
100
AcDbCircle
 10
562.2829835638964
 20
208.5456778424929
 30
0.0
 40
0.5
100
AcDbArc
 50
270.0
 51
0.0
  0
LINE
  5
24B4A
330
1F
100
AcDbEntity
  8
0
  6
ByBlock
 62
     0
 48
0.5
370
    -2
100
AcDbLine
 10
562.2829835638964
 20
208.0456778424929
 30
0.0
 11
560.8829835638963
 21
208.0456778424929
 31
0.0
  0
LINE
  5
24B4B
330
1F
100
AcDbEntity
  8
0
  6
ByBlock
 62
     0
 48
0.5
370
    -2
100
AcDbLine
 10
560.8829835638963
 20
208.0456778424929
 30
0.0
 11
560.8829835638963
 21
208.8456778424929
 31
0.0
  0
LINE
  5
24B4C
330
1F
100
AcDbEntity
  8
0
  6
ByBlock
 62
     0
 48
0.5
370
    -2
100
AcDbLine
 10
560.8829835638963
 20
208.8456778424929
 30
0.0
 11
561.9829835638959
 21
208.8456778424928
 31
0.0
  0
LINE
  5
24B4D
330
1F
100
AcDbEntity
  8
0
  6
ByBlock
 62
     0
 48
0.5
370
    -2
100
AcDbLine
 10
561.9829835638959
 20
208.8456778424928
 30
0.0
 11
561.9829835638959
 21
210.315677842493
 31
0.0
  0
LINE
  5
24B4E
330
1F
100
AcDbEntity
  8
0
  6
ByBlock
 62
     0
 48
0.5
370
    -2
100
AcDbLine
 10
561.9829835638959
 20
210.315677842493
 30
0.0
 11
556.7829835638964
 21
210.315677842493
 31
0.0
  0
LINE
  5
24B4F
330
1F
100
AcDbEntity
  8
0
  6
ByBlock
 62
     0
 48
0.5
370
    -2
100
AcDbLine
 10
556.7829835638964
 20
210.315677842493
 30
0.0
 11
556.7829835638964
 21
208.8456778424928
 31
0.0
  0
LINE
  5
24B50
330
1F
100
AcDbEntity
  8
0
  6
ByBlock
 62
     0
 48
0.5
370
    -2
100
AcDbLine
 10
556.7829835638964
 20
208.8456778424928
 30
0.0
 11
557.8829835638963
 21
208.8456778424928
 31
0.0
  0
LINE
  5
24B51
330
1F
100
AcDbEntity
  8
0
  6
ByBlock
 62
     0
 48
0.5
370
    -2
100
AcDbLine
 10
557.8829835638963
 20
208.8456778424928
 30
0.0
 11
557.8829835638963
 21
208.0456778424929
 31
0.0
  0
LINE
  5
24B52
330
1F
100
AcDbEntity
  8
0
  6
ByBlock
 62
     0
 48
0.5
370
    -2
100
AcDbLine
 10
557.8829835638963
 20
208.0456778424929
 30
0.0
 11
555.2829835638964
 21
208.0456778424929
 31
0.0
  0
LINE
  5
24B53
330
1F
100
AcDbEntity
  8
0
  6
ByBlock
 62
     0
 48
0.5
370
    -2
100
AcDbLine
 10
555.2829835638964
 20
208.0456778424929
 30
0.0
 11
555.2829835638964
 21
211.9456778424929
 31
0.0
  0
LINE
  5
24B54
330
1F
100
AcDbEntity
  8
0
  6
ByBlock
 62
     0
 48
0.5
370
    -2
100
AcDbLine
 10
555.2829835638964
 20
211.9456778424929
 30
0.0
 11
576.2829835638964
 21
211.9456778424929
 31
0.0
  0
LINE
  5
24B55
330
1F
100
AcDbEntity
  8
0
  6
ByBlock
 62
     0
 48
0.5
370
    -2
100
AcDbLine
 10
576.2829835638964
 20
211.9456778424929
 30
0.0
 11
576.2829835638964
 21
213.9456778424929
 31
0.0
  0
LINE
  5
24B56
330
1F
100
AcDbEntity
  8
0
  6
ByBlock
 62
     0
 48
0.5
370
    -2
100
AcDbLine
 10
576.2829835638964
 20
213.9456778424929
 30
0.0
 11
600.7829835638964
 21
213.9456778424929
 31
0.0
  0
ARC
  5
24B57
330
1F
100
AcDbEntity
  8
0
  6
ByBlock
 62
     0
 48
0.5
370
    -2
100
AcDbCircle
 10
600.7829835638964
 20
213.4456778424927
 30
0.0
 40
0.5
100
AcDbArc
 50
0.0
 51
90.0
  0
LINE
  5
24B58
330
1F
100
AcDbEntity
  8
0
  6
ByBlock
 62
     0
 48
0.5
370
    -2
100
AcDbLine
 10
601.2829835638964
 20
213.4456778424927
 30
0.0
 11
601.2829835638964
 21
205.4456778424927
 31
0.0
  0
ARC
  5
24B59
330
1F
100
AcDbEntity
  8
0
  6
ByBlock
 62
     0
 48
0.5
370
    -2
100
AcDbCircle
 10
600.7829835638964
 20
205.4456778424927
 30
0.0
 40
0.5
100
AcDbArc
 50
270.0
 51
0.0
  0
LINE
  5
24B5A
330
1F
100
AcDbEntity
  8
0
  6
ByBlock
 62
     0
 48
0.5
370
    -2
100
AcDbLine
 10
600.7829835638964
 20
204.945677842493
 30
0.0
 11
600.2829835638964
 21
204.9456778424927
 31
0.0
  0
LINE
  5
24B5B
330
1F
100
AcDbEntity
  8
0
  6
ByBlock
 62
     0
 48
0.5
370
    -2
100
AcDbLine
 10
600.2829835638964
 20
204.9456778424927
 30
0.0
 11
599.6529835638963
 21
206.0368698512613
 31
0.0
  0
LINE
  5
24B5C
330
1F
100
AcDbEntity
  8
0
  6
ByBlock
 62
     0
 48
0.5
370
    -2
100
AcDbLine
 10
599.6529835638963
 20
206.0368698512613
 30
0.0
 11
599.6529835638963
 21
212.315677842493
 31
0.0
  0
LINE
  5
24B5D
330
1F
100
AcDbEntity
  8
0
  6
ByBlock
 62
     0
 48
0.5
370
    -2
100
AcDbLine
 10
599.6529835638963
 20
212.315677842493
 30
0.0
 11
577.9129835638963
 21
212.315677842493
 31
0.0
  0
LINE
  5
24B5E
330
1F
100
AcDbEntity
  8
0
  6
ByBlock
 62
     0
 48
0.5
370
    -2
100
AcDbLine
 10
577.9129835638963
 20
212.315677842493
 30
0.0
 11
577.9129835638963
 21
145.5756778424928
 31
0.0
  0
LINE
  5
24B5F
330
1F
100
AcDbEntity
  8
0
  6
ByBlock
 62
     0
 48
0.5
370
    -2
100
AcDbLine
 10
577.9129835638963
 20
145.5756778424928
 30
0.0
 11
599.6529835638963
 21
145.5756778424928
 31
0.0
  0
LINE
  5
24B60
330
1F
100
AcDbEntity
  8
0
  6
ByBlock
 62
     0
 48
0.5
370
    -2
100
AcDbLine
 10
599.6529835638963
 20
145.5756778424928
 30
0.0
 11
599.6529835638963
 21
151.8544858337246
 31
0.0
  0
LINE
  5
24B61
330
1F
100
AcDbEntity
  8
0
  6
ByBlock
 62
     0
 48
0.5
370
    -2
100
AcDbLine
 10
599.6529835638963
 20
151.8544858337246
 30
0.0
 11
600.2829835638964
 21
152.9456778424929
 31
0.0
  0
LINE
  5
24B62
330
1F
100
AcDbEntity
  8
0
  6
ByBlock
 62
     0
 48
0.5
370
    -2
100
AcDbLine
 10
600.2829835638964
 20
152.9456778424929
 30
0.0
 11
600.7829835638964
 21
152.9456778424929
 31
0.0
  0
ARC
  5
24B63
330
1F
100
AcDbEntity
  8
0
  6
ByBlock
 62
     0
 48
0.5
370
    -2
100
AcDbCircle
 10
600.7829835638964
 20
152.4456778424929
 30
0.0
 40
0.5
100
AcDbArc
 50
0.0
 51
90.0
  0
LINE
  5
24B64
330
1F
100
AcDbEntity
  8
0
  6
ByBlock
 62
     0
 48
0.5
370
    -2
100
AcDbLine
 10
601.2829835638964
 20
152.4456778424929
 30
0.0
 11
601.2829835638964
 21
149.4039354119885
 31
0.0
  0
ARC
  5
24B65
330
1F
100
AcDbEntity
  8
0
  6
ByBlock
 62
     0
 48
0.5
370
    -2
100
AcDbCircle
 10
601.0829835638961
 20
149.4039354119885
 30
0.0
 40
0.2000000000000116
100
AcDbArc
 50
293.5781784782012
 51
0.0
  0
ARC
  5
24B66
330
1F
100
AcDbEntity
  8
0
  6
ByBlock
 62
     0
 48
0.5
370
    -2
100
AcDbCircle
 10
601.2829835638964
 20
148.9456778424929
 30
0.0
 40
0.2999999999999898
100
AcDbArc
 50
113.5781784782011
 51
246.4218215217989
  0
ARC
  5
24B67
330
1F
100
AcDbEntity
  8
0
  6
ByBlock
 62
     0
 48
0.5
370
    -2
100
AcDbCircle
 10
601.0829835638961
 20
148.4874202729972
 30
0.0
 40
0.2000000000000109
100
AcDbArc
 50
0.0
 51
66.42182152179883
  0
LINE
  5
24B68
330
1F
100
AcDbEntity
  8
0
  6
ByBlock
 62
     0
 48
0.5
370
    -2
100
AcDbLine
 10
601.2829835638964
 20
148.4874202729972
 30
0.0
 11
601.2829835638964
 21
148.4039354119884
 31
0.0
  0
ARC
  5
24B69
330
1F
100
AcDbEntity
  8
0
  6
ByBlock
 62
     0
 48
0.5
370
    -2
100
AcDbCircle
 10
601.0829835638961
 20
148.4039354119884
 30
0.0
 40
0.2000000000000116
100
AcDbArc
 50
293.5781784782012
 51
0.0
  0
ARC
  5
24B6A
330
1F
100
AcDbEntity
  8
0
  6
ByBlock
 62
     0
 48
0.5
370
    -2
100
AcDbCircle
 10
601.2829835638964
 20
147.9456778424929
 30
0.0
 40
0.2999999999999898
100
AcDbArc
 50
113.5781784782011
 51
246.4218215217989
  0
ARC
  5
24B6B
330
1F
100
AcDbEntity
  8
0
  6
ByBlock
 62
     0
 48
0.5
370
    -2
100
AcDbCircle
 10
601.0829835638964
 20
147.4874202729974
 30
0.0
 40
0.1999999999999945
100
AcDbArc
 50
0.0
 51
66.42182152179883
  0
LINE
  5
24B6C
330
1F
100
AcDbEntity
  8
0
  6
ByBlock
 62
     0
 48
0.5
370
    -2
100
AcDbLine
 10
601.2829835638964
 20
147.4874202729974
 30
0.0
 11
601.2829835638964
 21
144.4456778424929
 31
0.0
  0
ARC
  5
24B6D
330
1F
100
AcDbEntity
  8
0
  6
ByBlock
 62
     0
 48
0.5
370
    -2
100
AcDbCircle
 10
600.7829835638964
 20
144.4456778424929
 30
0.0
 40
0.5
100
AcDbArc
 50
270.0
 51
0.0
  0
LINE
  5
24B6E
330
1F
100
AcDbEntity
  8
0
  6
ByBlock
 62
     0
 48
0.5
370
    -2
100
AcDbLine
 10
600.7829835638964
 20
143.9456778424929
 30
0.0
 11
592.2829835638964
 21
143.9456778424929
 31
0.0
  0
LINE
  5
24B6F
330
1F
100
AcDbEntity
  8
0
  6
ByBlock
 62
     0
 48
0.5
370
    -2
100
AcDbLine
 10
592.2829835638964
 20
143.9456778424929
 30
0.0
 11
592.2829835638964
 21
124.8456778424929
 31
0.0
  0
LINE
  5
24B70
330
1F
100
AcDbEntity
  8
0
  6
ByBlock
 62
     0
 48
0.5
370
    -2
100
AcDbLine
 10
592.2829835638964
 20
124.8456778424929
 30
0.0
 11
593.8329835638963
 21
124.8456778424929
 31
0.0
  0
ARC
  5
24B71
330
1F
100
AcDbEntity
  8
0
  6
ByBlock
 62
     0
 48
0.5
370
    -2
100
AcDbCircle
 10
593.8329835638961
 20
124.395677842493
 30
0.0
 40
0.450000000000003
100
AcDbArc
 50
270.0000000000326
 51
89.99999999998697
  0
LINE
  5
24B72
330
1F
100
AcDbEntity
  8
0
  6
ByBlock
 62
     0
 48
0.5
370
    -2
100
AcDbLine
 10
593.8329835638963
 20
123.9456778424929
 30
0.0
 11
591.2829835638964
 21
123.9456778424929
 31
0.0
  0
LINE
  5
24B73
330
1F
100
AcDbEntity
  8
0
  6
ByBlock
 62
     0
 48
0.5
370
    -2
100
AcDbLine
 10
591.2829835638964
 20
123.9456778424929
 30
0.0
 11
591.2829835638964
 21
143.9456778424929
 31
0.0
  0
LINE
  5
24B74
330
1F
100
AcDbEntity
  8
0
  6
ByBlock
 62
     0
 48
0.5
370
    -2
100
AcDbLine
 10
591.2829835638964
 20
143.9456778424929
 30
0.0
 11
576.2829835638964
 21
143.9456778424929
 31
0.0
  0
LINE
  5
24B75
330
1F
100
AcDbEntity
  8
0
  6
ByBlock
 62
     0
 48
0.5
370
    -2
100
AcDbLine
 10
576.2829835638964
 20
143.9456778424929
 30
0.0
 11
576.2829835638964
 21
171.9456778424929
 31
0.0
  0
LINE
  5
24B76
330
1F
100
AcDbEntity
  8
0
  6
ByBlock
 62
     0
 48
0.5
370
    -2
100
AcDbLine
 10
576.2829835638964
 20
171.9456778424929
 30
0.0
 11
570.0829835638963
 21
171.9456778424929
 31
0.0
  0
LINE
  5
24B77
330
1F
100
AcDbEntity
  8
0
  6
ByBlock
 62
     0
 48
0.5
370
    -2
100
AcDbLine
 10
570.0829835638963
 20
171.9456778424929
 30
0.0
 11
570.0829835638963
 21
172.7456778424928
 31
0.0
  0
LINE
  5
24B78
330
1F
100
AcDbEntity
  8
0
  6
ByBlock
 62
     0
 48
0.5
370
    -2
100
AcDbLine
 10
570.0829835638963
 20
172.7456778424928
 30
0.0
 11
571.2529835638965
 21
172.7456778424928
 31
0.0
  0
LINE
  5
24B79
330
1F
100
AcDbEntity
  8
0
  6
ByBlock
 62
     0
 48
0.5
370
    -2
100
AcDbLine
 10
571.2529835638965
 20
172.7456778424928
 30
0.0
 11
571.2529835638965
 21
174.2156778424929
 31
0.0
  0
LINE
  5
24B7A
330
1F
100
AcDbEntity
  8
0
  6
HIDDEN
 62
   130
 48
10.0
100
AcDbLine
 10
243.9810165638967
 20
168.9457168424926
 30
0.0
 11
234.9827715638964
 21
168.9459608424929
 31
0.0
  0
LINE
  5
24B7B
330
1F
100
AcDbEntity
  8
0
  6
HIDDEN
 62
   130
 48
10.0
100
AcDbLine
 10
243.9829545638963
 20
188.9455028424927
 30
0.0
 11
234.9837015638966
 21
188.9457018424927
 31
0.0
  0
LINE
  5
24B7C
330
1F
100
AcDbEntity
  8
0
  6
HIDDEN
 62
   130
 48
10.0
100
AcDbLine
 10
234.9827715638964
 20
168.9459608424929
 30
0.0
 11
234.9831985638964
 21
188.9457168424928
 31
0.0
  0
LINE
  5
24B7D
330
1F
100
AcDbEntity
  8
0
  6
HIDDEN
 62
   130
 48
10.0
100
AcDbLine
 10
243.9817185638962
 20
149.4454728424928
 30
0.0
 11
243.987455574282
 21
208.4453966488581
 31
0.0
  0
LINE
  5
24B7E
330
1F
100
AcDbEntity
  8
0
  6
HIDDEN
 62
   130
 48
10.0
100
AcDbLine
 10
246.2818895638966
 20
149.4452288424928
 30
0.0
 11
246.2818895638966
 21
208.4461268424924
 31
0.0
  0
LINE
  5
24B7F
330
1F
100
AcDbEntity
  8
0
  6
HIDDEN
 62
   130
 48
10.0
100
AcDbLine
 10
247.8554515638964
 20
149.4459608424927
 30
0.0
 11
247.8557725638964
 21
154.9464488424928
 31
0.0
  0
LINE
  5
24B80
330
1F
100
AcDbEntity
  8
0
  6
HIDDEN
 62
   130
 48
10.0
100
AcDbLine
 10
250.1558055638966
 20
155.8231578424928
 30
0.0
 11
250.1558515638965
 21
149.4457168424928
 31
0.0
  0
LINE
  5
24B81
330
1F
100
AcDbEntity
  8
0
  6
HIDDEN
 62
   130
 48
10.0
100
AcDbLine
 10
247.8557115638964
 20
154.9462048424928
 30
0.0
 11
246.3557725638964
 21
155.5521618424927
 31
0.0
  0
LINE
  5
24B82
330
1F
100
AcDbEntity
  8
0
  6
HIDDEN
 62
   130
 48
10.0
100
AcDbLine
 10
249.5303935638963
 20
156.7501598424928
 30
0.0
 11
246.3558335638966
 21
158.0328748424927
 31
0.0
  0
LINE
  5
24B83
330
1F
100
AcDbEntity
  8
0
  6
HIDDEN
 62
   130
 48
10.0
100
AcDbLine
 10
246.3557725638964
 20
155.5521618424927
 30
0.0
 11
244.0556315638964
 21
156.4818498424927
 31
0.0
  0
ARC
  5
24B84
330
1F
100
AcDbEntity
  8
0
  6
HIDDEN
 62
   130
 48
10.0
100
AcDbCircle
 10
249.1556985638963
 20
155.8229138424929
 30
0.0
 40
1.0
100
AcDbArc
 50
0.0
 51
67.99664899999896
  0
LINE
  5
24B85
330
1F
100
AcDbEntity
  8
0
  6
HIDDEN
 62
   130
 48
10.0
100
AcDbLine
 10
246.2818895638966
 20
149.4452288424928
 30
0.0
 11
243.9817795638965
 21
149.4459608424927
 31
0.0
  0
LINE
  5
24B86
330
1F
100
AcDbEntity
  8
0
  6
HIDDEN
 62
   130
 48
10.0
100
AcDbLine
 10
250.1554855638963
 20
149.4454728424928
 30
0.0
 11
247.8556195638964
 21
149.4457168424928
 31
0.0
  0
LINE
  5
24B87
330
1F
100
AcDbEntity
  8
0
  6
HIDDEN
 62
   130
 48
10.0
100
AcDbLine
 10
603.5846685638963
 20
168.9457168424927
 30
0.0
 11
612.5829135638963
 21
168.945960842493
 31
0.0
  0
LINE
  5
24B88
330
1F
100
AcDbEntity
  8
0
  6
HIDDEN
 62
   130
 48
10.0
100
AcDbLine
 10
603.5827305638965
 20
188.9455028424928
 30
0.0
 11
612.5819835638964
 21
188.9457018424929
 31
0.0
  0
LINE
  5
24B89
330
1F
100
AcDbEntity
  8
0
  6
HIDDEN
 62
   130
 48
10.0
100
AcDbLine
 10
612.5829135638963
 20
168.945960842493
 30
0.0
 11
612.5824865638963
 21
188.9457168424929
 31
0.0
  0
LINE
  5
24B8A
330
1F
100
AcDbEntity
  8
0
  6
HIDDEN
 62
   130
 48
10.0
100
AcDbLine
 10
603.5839665638962
 20
149.4454728424929
 30
0.0
 11
603.5782295638965
 21
208.445289842493
 31
0.0
  0
LINE
  5
24B8B
330
1F
100
AcDbEntity
  8
0
  6
HIDDEN
 62
   130
 48
10.0
100
AcDbLine
 10
601.2837955638961
 20
149.4452288424929
 30
0.0
 11
601.2825755638963
 21
208.4453198424927
 31
0.0
  0
LINE
  5
24B8C
330
1F
100
AcDbEntity
  8
0
  6
HIDDEN
 62
   130
 48
10.0
100
AcDbLine
 10
599.7066625638962
 20
208.4451068424929
 30
0.0
 11
599.7072885638964
 21
202.945273842493
 31
0.0
  0
LINE
  5
24B8D
330
1F
100
AcDbEntity
  8
0
  6
HIDDEN
 62
   130
 48
10.0
100
AcDbLine
 10
597.4071475638965
 20
202.0682448424929
 30
0.0
 11
597.4065075638963
 21
208.4448618424927
 31
0.0
  0
LINE
  5
24B8E
330
1F
100
AcDbEntity
  8
0
  6
HIDDEN
 62
   130
 48
10.0
100
AcDbLine
 10
601.2810185638962
 20
208.445350842493
 30
0.0
 11
603.5781375638963
 21
208.4455948424928
 31
0.0
  0
LINE
  5
24B8F
330
1F
100
AcDbEntity
  8
0
  6
HIDDEN
 62
   130
 48
10.0
100
AcDbLine
 10
597.4074985638964
 20
208.444953842493
 30
0.0
 11
599.7074255638964
 21
208.4452128424929
 31
0.0
  0
LINE
  5
24B90
330
1F
100
AcDbEntity
  8
0
  6
HIDDEN
 62
   130
 48
10.0
100
AcDbLine
 10
598.0327585638964
 20
201.1411508424929
 30
0.0
 11
601.2073955638962
 21
199.8586808424929
 31
0.0
  0
LINE
  5
24B91
330
1F
100
AcDbEntity
  8
0
  6
HIDDEN
 62
   130
 48
10.0
100
AcDbLine
 10
599.7075175638964
 20
202.945350842493
 30
0.0
 11
601.2073645638964
 21
202.3393328424928
 31
0.0
  0
LINE
  5
24B92
330
1F
100
AcDbEntity
  8
0
  6
HIDDEN
 62
   130
 48
10.0
100
AcDbLine
 10
601.2073645638964
 20
202.3393328424928
 30
0.0
 11
603.5073065638963
 21
201.410132842493
 31
0.0
  0
ARC
  5
24B93
330
1F
100
AcDbEntity
  8
0
  6
HIDDEN
 62
   130
 48
10.0
100
AcDbCircle
 10
598.4073615638964
 20
202.0684278424929
 30
0.0
 40
1.0
100
AcDbArc
 50
180.0
 51
248.0021669999991
  0
LINE
  5
24B94
330
1F
100
AcDbEntity
  8
0
  6
HIDDEN
 62
   130
 48
10.0
100
AcDbLine
 10
599.7102335638963
 20
149.4459608424928
 30
0.0
 11
599.7099125638964
 21
154.9464488424929
 31
0.0
  0
LINE
  5
24B95
330
1F
100
AcDbEntity
  8
0
  6
HIDDEN
 62
   130
 48
10.0
100
AcDbLine
 10
597.4098795638964
 20
155.8231578424929
 30
0.0
 11
597.4098335638963
 21
149.4457168424929
 31
0.0
  0
LINE
  5
24B96
330
1F
100
AcDbEntity
  8
0
  6
HIDDEN
 62
   130
 48
10.0
100
AcDbLine
 10
599.7099735638961
 20
154.9462048424929
 30
0.0
 11
601.2099125638961
 21
155.5521618424928
 31
0.0
  0
LINE
  5
24B97
330
1F
100
AcDbEntity
  8
0
  6
HIDDEN
 62
   130
 48
10.0
100
AcDbLine
 10
598.0352915638962
 20
156.7501598424929
 30
0.0
 11
601.2098515638964
 21
158.0328748424928
 31
0.0
  0
LINE
  5
24B98
330
1F
100
AcDbEntity
  8
0
  6
HIDDEN
 62
   130
 48
10.0
100
AcDbLine
 10
601.2099125638961
 20
155.5521618424928
 30
0.0
 11
603.5100535638963
 21
156.4818498424928
 31
0.0
  0
ARC
  5
24B99
330
1F
100
AcDbEntity
  8
0
  6
HIDDEN
 62
   130
 48
10.0
100
AcDbCircle
 10
598.4099865638962
 20
155.822913842493
 30
0.0
 40
1.0
100
AcDbArc
 50
112.003351000001
 51
180.0
  0
LINE
  5
24B9A
330
1F
100
AcDbEntity
  8
0
  6
HIDDEN
 62
   130
 48
10.0
100
AcDbLine
 10
601.2837955638961
 20
149.4452288424929
 30
0.0
 11
603.5839055638963
 21
149.4459608424928
 31
0.0
  0
LINE
  5
24B9B
330
1F
100
AcDbEntity
  8
0
  6
HIDDEN
 62
   130
 48
10.0
100
AcDbLine
 10
597.4101995638963
 20
149.4454728424929
 30
0.0
 11
599.7100655638961
 21
149.4457168424929
 31
0.0
  0
LINE
  5
24B9C
330
1F
100
AcDbEntity
  8
003
100
AcDbLine
 10
545.2829835638965
 20
276.9457637344614
 30
0.0
 11
426.1329835638963
 21
276.9457637344614
 31
0.0
  0
LINE
  5
24B9D
330
1F
100
AcDbEntity
  8
007
100
AcDbLine
 10
519.8832655638971
 20
274.045750448146
 30
0.0
 11
542.183265563897
 21
274.045750448146
 31
0.0
  0
LINE
  5
24B9E
330
1F
100
AcDbEntity
  8
007
100
AcDbLine
 10
520.383265563897
 20
272.545750448146
 30
0.0
 11
541.683265563897
 21
272.545750448146
 31
0.0
  0
LINE
  5
24B9F
330
1F
100
AcDbEntity
  8
007
100
AcDbLine
 10
520.383265563897
 20
277.045750448146
 30
0.0
 11
541.683265563897
 21
277.045750448146
 31
0.0
  0
LINE
  5
24BA0
330
1F
100
AcDbEntity
  8
007
100
AcDbLine
 10
518.8832655638971
 20
277.345750448146
 30
0.0
 11
547.183265563897
 21
277.345750448146
 31
0.0
  0
LINE
  5
24BA1
330
1F
100
AcDbEntity
  8
007
100
AcDbLine
 10
518.8832655638971
 20
287.345750448146
 30
0.0
 11
544.183265563897
 21
287.345750448146
 31
0.0
  0
LINE
  5
24BA2
330
1F
100
AcDbEntity
  8
007
100
AcDbLine
 10
542.183265563897
 20
273.045750448146
 30
0.0
 11
542.183265563897
 21
276.545750448146
 31
0.0
  0
ARC
  5
24BA3
330
1F
100
AcDbEntity
  8
007
100
AcDbCircle
 10
541.683265563897
 20
276.545750448146
 30
0.0
 40
0.5
100
AcDbArc
 50
0.0
 51
90.0
  0
LINE
  5
24BA4
330
1F
100
AcDbEntity
  8
007
100
AcDbLine
 10
547.183265563897
 20
277.345750448146
 30
0.0
 11
547.183265563897
 21
284.345750448146
 31
0.0
  0
ARC
  5
24BA5
330
1F
100
AcDbEntity
  8
007
100
AcDbCircle
 10
544.183265563897
 20
284.345750448146
 30
0.0
 40
3.0
100
AcDbArc
 50
0.0
 51
90.0
  0
ARC
  5
24BA6
330
1F
100
AcDbEntity
  8
007
100
AcDbCircle
 10
541.683265563897
 20
273.045750448146
 30
0.0
 40
0.5
100
AcDbArc
 50
270.0
 51
0.0
  0
LINE
  5
24BA7
330
1F
100
AcDbEntity
  8
007
100
AcDbLine
 10
426.1329835638963
 20
286.8457504481461
 30
0.0
 11
518.8832655638971
 21
286.8457504481458
 31
0.0
  0
LINE
  5
24BA8
330
1F
100
AcDbEntity
  8
007
100
AcDbLine
 10
518.8832655638971
 20
274.045850448146
 30
0.0
 11
426.1329835638963
 21
274.045850448146
 31
0.0
  0
LINE
  5
24BA9
330
1F
100
AcDbEntity
  8
007
100
AcDbLine
 10
518.8832655638971
 20
273.1457504481459
 30
0.0
 11
426.1329835638963
 21
273.1457504481459
 31
0.0
  0
LINE
  5
24BAA
330
1F
100
AcDbEntity
  8
007
100
AcDbLine
 10
518.8832655638971
 20
277.345750448146
 30
0.0
 11
426.1329835638963
 21
277.3457504481458
 31
0.0
  0
LINE
  5
24BAB
330
1F
100
AcDbEntity
  8
007
100
AcDbLine
 10
519.8832655638971
 20
273.045750448146
 30
0.0
 11
519.8832655638971
 21
276.545750448146
 31
0.0
  0
LINE
  5
24BAC
330
1F
100
AcDbEntity
  8
007
100
AcDbLine
 10
518.8832655638971
 20
273.1457504481459
 30
0.0
 11
518.8832655638971
 21
287.345750448146
 31
0.0
  0
LINE
  5
24BAD
330
1F
100
AcDbEntity
  8
007
100
AcDbLine
 10
518.8832655638971
 20
276.1457504481459
 30
0.0
 11
519.8832655638971
 21
276.1457504481459
 31
0.0
  0
ARC
  5
24BAE
330
1F
100
AcDbEntity
  8
007
100
AcDbCircle
 10
520.383265563897
 20
276.545750448146
 30
0.0
 40
0.5
100
AcDbArc
 50
90.0
 51
180.0
  0
ARC
  5
24BAF
330
1F
100
AcDbEntity
  8
007
100
AcDbCircle
 10
520.383265563897
 20
273.045750448146
 30
0.0
 40
0.5
100
AcDbArc
 50
180.0
 51
270.0
  0
LWPOLYLINE
  5
24BB0
330
1F
100
AcDbEntity
  8
Defpoints
100
AcDbPolyline
 90
        4
 70
     1
 43
0.0
 10
469.1824521023184
 20
186.6055634136601
 10
485.4065220353848
 20
186.6055634136601
 10
485.4065220353848
 20
172.2749913957896
 10
469.1824521023184
 20
172.2749913957896
  0
LINE
  5
24BB1
330
1F
100
AcDbEntity
  8
0
  6
HIDDEN
 62
   130
 48
10.0
100
AcDbLine
 10
247.8554515638964
 20
208.4453948424925
 30
0.0
 11
247.8557725638964
 21
202.9449068424924
 31
0.0
  0
LINE
  5
24BB2
330
1F
100
AcDbEntity
  8
0
  6
HIDDEN
 62
   130
 48
10.0
100
AcDbLine
 10
250.1558055638966
 20
202.0681978424924
 30
0.0
 11
250.1558515638965
 21
208.4456388424924
 31
0.0
  0
LINE
  5
24BB3
330
1F
100
AcDbEntity
  8
0
  6
HIDDEN
 62
   130
 48
10.0
100
AcDbLine
 10
247.8557115638964
 20
202.9451508424925
 30
0.0
 11
246.3557725638964
 21
202.3391938424925
 31
0.0
  0
LINE
  5
24BB4
330
1F
100
AcDbEntity
  8
0
  6
HIDDEN
 62
   130
 48
10.0
100
AcDbLine
 10
249.5303935638963
 20
201.1411958424924
 30
0.0
 11
246.3558335638966
 21
199.8584808424925
 31
0.0
  0
LINE
  5
24BB5
330
1F
100
AcDbEntity
  8
0
  6
HIDDEN
 62
   130
 48
10.0
100
AcDbLine
 10
246.3557725638964
 20
202.3391938424925
 30
0.0
 11
244.0556315638964
 21
201.4095058424925
 31
0.0
  0
ARC
  5
24BB6
330
1F
100
AcDbEntity
  8
0
  6
HIDDEN
 62
   130
 48
10.0
100
AcDbCircle
 10
249.1556985638963
 20
202.0684418424923
 30
0.0
 40
1.0
100
AcDbArc
 50
292.003351000001
 51
0.0
  0
LINE
  5
24BB7
330
1F
100
AcDbEntity
  8
0
  6
HIDDEN
 62
   130
 48
10.0
100
AcDbLine
 10
246.2818895638966
 20
208.4461268424924
 30
0.0
 11
243.9817795638965
 21
208.4453948424925
 31
0.0
  0
LINE
  5
24BB8
330
1F
100
AcDbEntity
  8
0
  6
HIDDEN
 62
   130
 48
10.0
100
AcDbLine
 10
250.1554855638963
 20
208.4458828424924
 30
0.0
 11
247.8556195638964
 21
208.4456388424924
 31
0.0
  0
LINE
  5
24BB9
330
1F
100
AcDbEntity
  8
003
100
AcDbLine
 10
310.2826946194425
 20
211.945729234563
 30
0.0
 11
313.2826946194425
 21
211.945729234563
 31
0.0
  0
LINE
  5
24BBA
330
1F
100
AcDbEntity
  8
003
100
AcDbLine
 10
272.2827015638966
 20
211.9457637344612
 30
0.0
 11
421.4327015638968
 21
211.9457215937534
 31
0.0
  0
LINE
  5
24BBB
330
1F
100
AcDbEntity
  8
003
100
AcDbLine
 10
426.4327015638967
 20
211.9457201810578
 30
0.0
 11
576.2829835638964
 21
211.9456778424929
 31
0.0
  0
TEXT
  5
24BBC
330
1F
100
AcDbEntity
  8
0
100
AcDbText
 10
93.40000000000001
 20
537.0
 30
0.0
 40
6.0
  1
みらんちゃん固定型
  7
AT_VECTOR
 72
     1
 11
125.0
 21
540.0
 31
0.0
100
AcDbText
 73
     2
  0
TEXT
  5
24BBD
330
1F
100
AcDbEntity
  8
0
100
AcDbText
 10
93.19999999999998
 20
549.0
 30
0.0
 40
6.0
  1
内倒し窓専用面格子
  7
AT_VECTOR
 72
     1
 11
125.0
 21
552.0
 31
0.0
100
AcDbText
 73
     2
  0
MTEXT
  5
24BBE
102
{ACAD_REACTORS
330
24BBF
102
}
330
1F
100
AcDbEntity
  8
003
 62
     7
100
AcDbMText
 10
373.5892011999768
 20
258.0980250169995
 30
0.0
 40
6.0
 41
0.0
 71
     7
 72
     1
  1
羽根固定
  7
DIM
 73
     1
 44
1.0
1001
ACAD
1000
MTEXTBEGIN
1070
    73
1070
     1
1070
    44
1040
1.0
1070
    74
1070
     0
1000
MTEXTEND
  0
LEADER
  5
24BBF
330
1F
100
AcDbEntity
  8
003
100
AcDbLeader
  3
DIM
 73
     0
 74
     0
 40
6.000000000000001
 41
20.4
 76
     3
 10
365.4296359325925
 20
248.7029127676767
 30
0.0
 10
369.6992059804267
 20
256.0980250169995
 30
0.0
 10
371.5892011999768
 20
256.0980250169995
 30
0.0
340
24BBE
1001
ACAD
1000
DSTYLE
1002
{
1070
   147
1040
1.0
1070
    77
1070
     1
1002
}
  0
ENDSEC
  0
SECTION
  2
OBJECTS
  0
DICTIONARY
  5
C
330
0
100
AcDbDictionary
281
     1
  3
ACAD_2007HEADERVARS_RT
350
24CFD
  3
ACAD_COLOR
350
E400
  3
ACAD_GROUP
350
D
  3
ACAD_LAYOUT
350
1A
  3
ACAD_MATERIAL
350
E3D6
  3
ACAD_MLEADERSTYLE
350
E425
  3
ACAD_MLINESTYLE
350
17
  3
ACAD_PLOTSETTINGS
350
19
  3
ACAD_PLOTSTYLENAME
350
E
  3
ACAD_SCALELIST
350
E403
  3
ACAD_TABLESTYLE
350
E401
  3
ACAD_VISUALSTYLE
350
E3EF
  3
AcadDim
350
164A0
  3
ACDB_RECOMPOSE_DATA
350
103AB
  3
AcDbVariableDictionary
350
103AC
  3
DWGPROPS
350
24CFC
  0
DICTIONARY
  5
162EC
330
8
100
AcDbDictionary
280
     1
281
     1
  0
DICTIONARY
  5
2859
330
2
100
AcDbDictionary
280
     1
281
     1
  3
ACAD_LAYERFILTERS
360
128C4
  3
ACAD_LAYERSTATES
360
285A
  3
ACLYDICTIONARY
360
128C3
  0
DICTIONARY
  5
F074
330
10
100
AcDbDictionary
280
     1
281
     1
  3
ADSK_XREC_LAYER_RECONCILED
360
F075
  0
DICTIONARY
  5
F07A
330
33
100
AcDbDictionary
280
     1
281
     1
  3
ADSK_XREC_LAYER_RECONCILED
360
F07B
  0
DICTIONARY
  5
F080
330
1A4
100
AcDbDictionary
280
     1
281
     1
  3
ADSK_XREC_LAYER_RECONCILED
360
F081
  0
DICTIONARY
  5
F082
330
1A5
100
AcDbDictionary
280
     1
281
     1
  3
ADSK_XREC_LAYER_RECONCILED
360
F083
  0
DICTIONARY
  5
F088
330
2B1
100
AcDbDictionary
280
     1
281
     1
  3
ADSK_XREC_LAYER_RECONCILED
360
F089
  0
DICTIONARY
  5
F144
330
1F
100
AcDbDictionary
280
     1
281
     1
  3
ACAD_SORTENTS
360
F145
  0
DICTIONARY
  5
24CFD
102
{ACAD_REACTORS
330
C
102
}
330
C
100
AcDbDictionary
281
     1
  3
DIMTFILL
350
24CFE
  3
DIMTFILLCLR
350
24CFF
  0
DICTIONARY
  5
E400
102
{ACAD_REACTORS
330
C
102
}
330
C
100
AcDbDictionary
281
     1
  0
DICTIONARY
  5
D
102
{ACAD_REACTORS
330
C
102
}
330
C
100
AcDbDictionary
281
     1
  0
DICTIONARY
  5
1A
102
{ACAD_REACTORS
330
C
102
}
330
C
100
AcDbDictionary
281
     1
  3
Model
350
22
  3
ﾚｲｱｳﾄ1
350
1E
  3
ﾚｲｱｳﾄ2
350
26
  0
DICTIONARY
  5
E3D6
102
{ACAD_REACTORS
330
C
102
}
330
C
100
AcDbDictionary
281
     1
  3
ByBlock
350
E3DF
  3
ByLayer
350
E3D7
  3
Global
350
E3E7
  0
DICTIONARY
  5
E425
102
{ACAD_REACTORS
330
C
102
}
330
C
100
AcDbDictionary
281
     1
  3
Standard
350
E426
  0
DICTIONARY
  5
17
102
{ACAD_REACTORS
330
C
102
}
330
C
100
AcDbDictionary
281
     1
  3
Standard
350
18
  0
DICTIONARY
  5
19
102
{ACAD_REACTORS
330
C
102
}
330
C
100
AcDbDictionary
281
     1
  0
ACDBDICTIONARYWDFLT
  5
E
102
{ACAD_REACTORS
330
C
102
}
330
C
100
AcDbDictionary
281
     1
  3
Normal
350
F
100
AcDbDictionaryWithDefault
340
F
  0
DICTIONARY
  5
E403
102
{ACAD_REACTORS
330
C
102
}
330
C
100
AcDbDictionary
281
     1
  3
A0
350
E404
  3
A1
350
E405
  3
A2
350
E406
  3
A3
350
E407
  3
A4
350
E408
  3
A5
350
E409
  3
A6
350
E40A
  3
A7
350
E40B
  3
A8
350
E40C
  3
A9
350
E40D
  3
B0
350
E40E
  3
B1
350
E40F
  3
B2
350
E410
  3
B3
350
E411
  3
B4
350
E412
  3
B5
350
E413
  3
B6
350
E414
  3
B7
350
E415
  3
B8
350
E416
  3
B9
350
E417
  3
C0
350
E418
  3
C1
350
E419
  3
C2
350
E41A
  3
C3
350
E41B
  3
C4
350
E41C
  3
C5
350
E41D
  3
C6
350
E41E
  3
C7
350
E41F
  3
C8
350
E420
  3
C9
350
E421
  3
D0
350
E422
  3
D1
350
E423
  3
D2
350
E424
  0
DICTIONARY
  5
E401
102
{ACAD_REACTORS
330
C
102
}
330
C
100
AcDbDictionary
281
     1
  3
Standard
350
E402
  0
DICTIONARY
  5
E3EF
102
{ACAD_REACTORS
330
C
102
}
330
C
100
AcDbDictionary
281
     1
  3
2dWireframe
350
E3F5
  3
3D Hidden
350
E3F7
  3
3dWireframe
350
E3F6
  3
Basic
350
E3F4
  3
Brighten
350
E3FB
  3
ColorChange
350
E3FF
  3
Conceptual
350
E3F8
  3
Dim
350
E3FA
  3
Facepattern
350
E3FE
  3
Flat
350
E3F0
  3
FlatWithEdges
350
E3F1
  3
Gouraud
350
E3F2
  3
GouraudWithEdges
350
E3F3
  3
Linepattern
350
E3FD
  3
Realistic
350
E3F9
  3
Thicken
350
E3FC
  0
XRECORD
  5
164A0
102
{ACAD_REACTORS
330
C
102
}
330
C
100
AcDbXrecord
280
     1
 90
   990106
  3

 60
     0
 61
     0
 62
     4
 63
     4
 64
     1
 65
     0
 66
     0
 67
     3
 68
     1
 69
     0
 70
     0
 71
     0
 72
     0
 40
0.0
170
     2
340
0
  0
XRECORD
  5
103AB
102
{ACAD_REACTORS
330
C
102
}
330
C
100
AcDbXrecord
280
     1
 90
        1
330
E402
  0
DICTIONARY
  5
103AC
102
{ACAD_REACTORS
330
C
102
}
330
C
100
AcDbDictionary
281
     1
  3
CANNOSCALE
350
103B0
  3
CMLEADERSTYLE
350
103AE
  3
CTABLESTYLE
350
103AD
  3
DIMASSOC
350
16336
  3
INDEXCTL
350
16335
  3
LIGHTINGUNITS
350
103B1
  3
MSLTSCALE
350
103AF
  3
SORTENTS
350
16334
  0
XRECORD
  5
24CFC
102
{ACAD_REACTORS
330
C
102
}
330
C
100
AcDbXrecord
280
     1
  1
DWGPROPS COOKIE
  2

  3

  4

  6

  7

  8
koba
  9

300
=
301
=
302
=
303
=
304
=
305
=
306
=
307
=
308
=
309
=
 40
0.509700474537037
 41
2452888.42884919
 42
2455959.426129514
  1

 90
        0
  0
DICTIONARY
  5
128C4
102
{ACAD_REACTORS
330
2859
102
}
330
2859
100
AcDbDictionary
281
     1
  0
DICTIONARY
  5
285A
102
{ACAD_REACTORS
330
2859
102
}
330
2859
100
AcDbDictionary
281
     1
  0
DICTIONARY
  5
128C3
102
{ACAD_REACTORS
330
2859
102
}
330
2859
100
AcDbDictionary
281
     1
1001
ACAD
1000
<All
  0
XRECORD
  5
F075
102
{ACAD_REACTORS
330
F074
102
}
330
F074
100
AcDbXrecord
280
     1
290
     1
  0
XRECORD
  5
F07B
102
{ACAD_REACTORS
330
F07A
102
}
330
F07A
100
AcDbXrecord
280
     1
290
     1
  0
XRECORD
  5
F081
102
{ACAD_REACTORS
330
F080
102
}
330
F080
100
AcDbXrecord
280
     1
290
     1
  0
XRECORD
  5
F083
102
{ACAD_REACTORS
330
F082
102
}
330
F082
100
AcDbXrecord
280
     1
290
     1
  0
XRECORD
  5
F089
102
{ACAD_REACTORS
330
F088
102
}
330
F088
100
AcDbXrecord
280
     1
290
     1
  0
SORTENTSTABLE
  5
F145
102
{ACAD_REACTORS
330
F144
102
}
330
F144
100
AcDbSortentsTable
330
1F
331
12869
  5
12869
331
F806
  5
F85B
331
127F3
  5
127F3
331
12832
  5
12832
331
12871
  5
12871
331
1283A
  5
1283A
331
12879
  5
12879
331
12803
  5
12803
331
12842
  5
12842
331
12881
  5
12881
331
1280B
  5
1280B
331
1284A
  5
1284A
331
12813
  5
12813
331
12852
  5
12852
331
12891
  5
12891
331
1281B
  5
1281B
331
1285A
  5
1285A
331
12899
  5
12899
331
127EE
  5
127EE
331
12823
  5
12823
331
12862
  5
12862
331
1282B
  5
1282B
331
1286A
  5
1286A
331
127F4
  5
127F4
331
12833
  5
12833
331
12872
  5
12872
331
1283B
  5
1283B
331
1287A
  5
1287A
331
12804
  5
12804
331
12843
  5
12843
331
12882
  5
12882
331
1280C
  5
1280C
331
1284B
  5
1284B
331
1288A
  5
1288A
331
12814
  5
12814
331
12853
  5
12853
331
12892
  5
12892
331
1281C
  5
1281C
331
1285B
  5
1285B
331
1289A
  5
1289A
331
127EF
  5
127EF
331
12824
  5
12824
331
12863
  5
12863
331
128A2
  5
128A2
331
1282C
  5
1282C
331
1286B
  5
1286B
331
127F5
  5
127F5
331
12834
  5
12834
331
12873
  5
12873
331
127FD
  5
127FD
331
1283C
  5
1283C
331
1287B
  5
1287B
331
12805
  5
12805
331
12844
  5
12844
331
12883
  5
12883
331
1280D
  5
1280D
331
1284C
  5
1284C
331
1288B
  5
1288B
331
12815
  5
12815
331
12854
  5
12854
331
12893
  5
12893
331
1281D
  5
1281D
331
1285C
  5
1285C
331
1289B
  5
1289B
331
12825
  5
12825
331
12864
  5
12864
331
128A3
  5
128A3
331
1282D
  5
1282D
331
1286C
  5
1286C
331
127F6
  5
127F6
331
12835
  5
12835
331
12874
  5
12874
331
127FE
  5
127FE
331
1283D
  5
1283D
331
1287C
  5
1287C
331
12806
  5
12806
331
12845
  5
12845
331
12884
  5
12884
331
1280E
  5
1280E
331
1284D
  5
1284D
331
1288C
  5
1288C
331
12816
  5
12816
331
12855
  5
12855
331
12894
  5
12894
331
F7F2
  5
F806
331
127E9
  5
127E9
331
1281E
  5
1281E
331
1285D
  5
1285D
331
1289C
  5
1289C
331
12826
  5
12826
331
12865
  5
12865
331
128A4
  5
128A4
331
1282E
  5
1282E
331
127F7
  5
127F7
331
12836
  5
12836
331
1286D
  5
1286D
331
127FF
  5
127FF
331
1283E
  5
1283E
331
12875
  5
12875
331
1270A
  5
1270A
331
12807
  5
12807
331
12846
  5
12846
331
1287D
  5
1287D
331
1280F
  5
1280F
331
1284E
  5
1284E
331
12885
  5
12885
331
12817
  5
12817
331
12856
  5
12856
331
1288D
  5
1288D
331
127EA
  5
127EA
331
1281F
  5
1281F
331
1285E
  5
1285E
331
12895
  5
12895
331
12827
  5
12827
331
12866
  5
12866
331
1289D
  5
1289D
331
1282F
  5
1282F
331
127F0
  5
127F0
331
127F8
  5
127F8
331
12837
  5
12837
331
1286E
  5
1286E
331
12800
  5
12800
331
1283F
  5
1283F
331
12876
  5
12876
331
12808
  5
12808
331
12847
  5
12847
331
1287E
  5
1287E
331
1284F
  5
1284F
331
12886
  5
12886
331
12810
  5
12810
331
12818
  5
12818
331
12857
  5
12857
331
1288E
  5
1288E
331
127EB
  5
127EB
331
12820
  5
12820
331
1285F
  5
1285F
331
12896
  5
12896
331
12828
  5
12828
331
12867
  5
12867
331
127F1
  5
127F1
331
12830
  5
12830
331
1286F
  5
1286F
331
127F9
  5
127F9
331
12838
  5
12838
331
12877
  5
12877
331
12801
  5
12801
331
12840
  5
12840
331
1287F
  5
1287F
331
12809
  5
12809
331
12848
  5
12848
331
12887
  5
12887
331
12811
  5
12811
331
12850
  5
12850
331
1288F
  5
1288F
331
12819
  5
12819
331
12858
  5
12858
331
12897
  5
12897
331
127EC
  5
127EC
331
12821
  5
12821
331
12860
  5
12860
331
12829
  5
12829
331
12868
  5
12868
331
127F2
  5
127F2
331
12831
  5
12831
331
12870
  5
12870
331
127FA
  5
127FA
331
12839
  5
12839
331
12878
  5
12878
331
12802
  5
12802
331
12841
  5
12841
331
12880
  5
12880
331
1280A
  5
1280A
331
12849
  5
12849
331
12888
  5
12888
331
12812
  5
12812
331
12851
  5
12851
331
12890
  5
12890
331
1281A
  5
1281A
331
12859
  5
12859
331
12898
  5
12898
331
127ED
  5
127ED
331
12822
  5
12822
331
12861
  5
12861
331
1282A
  5
1282A
  0
XRECORD
  5
24CFE
102
{ACAD_REACTORS
330
24CFD
102
}
330
24CFD
100
AcDbXrecord
280
     1
 70
     1
  0
XRECORD
  5
24CFF
102
{ACAD_REACTORS
330
24CFD
102
}
330
24CFD
100
AcDbXrecord
280
     1
1004
1800000001000000000000C0000000000000000000000000
  0
LAYOUT
  5
22
102
{ACAD_XDICTIONARY
360
24D02
102
}
102
{ACAD_REACTORS
330
1A
102
}
330
1A
100
AcDbPlotSettings
  1

  2
Brother HL-2170W series
  4
A4
  6

 40
5.027082920074462
 41
5.027085781097412
 42
5.027069091796875
 43
5.027069091796875
 44
209.9733276367187
 45
296.9259948730469
 46
2.459475103511039
 47
0.0
 48
20.0000000000001
 49
21.0
140
809.9999999999996
141
558.0
142
1.0
143
2.753842970434391
 70
 11956
 72
     1
 73
     1
 74
     4
  7
EPSON.ctb
 75
     0
147
0.3631289113925984
148
-20.0000000000001
149
-21.0
100
AcDbLayout
  1
Model
 70
     1
 71
     0
 10
0.0
 20
0.0
 11
12.0
 21
9.0
 12
0.0
 22
0.0
 32
0.0
 14
0.0
 24
0.0
 34
0.0
 15
0.0
 25
0.0
 35
0.0
146
0.0
 13
0.0
 23
0.0
 33
0.0
 16
1.0
 26
0.0
 36
0.0
 17
0.0
 27
1.0
 37
0.0
 76
     0
330
1F
331
E3D4
1001
ACAD_PSEXT
1000
Brother HL-2170W series
1000
Brother HL-2170W series
1000
USB002
1000

1070
     0
  0
LAYOUT
  5
1E
102
{ACAD_XDICTIONARY
360
24D00
102
}
102
{ACAD_REACTORS
330
1A
102
}
330
1A
100
AcDbPlotSettings
  1

  2
C:\PROGRAM FILES\AUTOCAD LT 2000I\plotters\HP DesignJet 430 A3.pc3
  4

  6

 40
0.0
 41
0.0
 42
0.0
 43
0.0
 44
0.0
 45
0.0
 46
0.0
 47
0.0
 48
0.0
 49
0.0
140
0.0
141
0.0
142
1.0
143
1.0
 70
   688
 72
     0
 73
     0
 74
     5
  7
EPSON.ctb
 75
    16
147
1.0
148
0.0
149
0.0
100
AcDbLayout
  1
ﾚｲｱｳﾄ1
 70
     1
 71
     1
 10
0.0
 20
0.0
 11
420.0
 21
297.0
 12
0.0
 22
0.0
 32
0.0
 14
1.000000000000000E+20
 24
1.000000000000000E+20
 34
1.000000000000000E+20
 15
-1.000000000000000E+20
 25
-1.000000000000000E+20
 35
-1.000000000000000E+20
146
0.0
 13
0.0
 23
0.0
 33
0.0
 16
1.0
 26
0.0
 36
0.0
 17
0.0
 27
1.0
 37
0.0
 76
     0
330
1B
  0
LAYOUT
  5
26
102
{ACAD_XDICTIONARY
360
24D04
102
}
102
{ACAD_REACTORS
330
1A
102
}
330
1A
100
AcDbPlotSettings
  1

  2
C:\PROGRAM FILES\AUTOCAD LT 2000I\plotters\HP DesignJet 430 A3.pc3
  4

  6

 40
0.0
 41
0.0
 42
0.0
 43
0.0
 44
0.0
 45
0.0
 46
0.0
 47
0.0
 48
0.0
 49
0.0
140
0.0
141
0.0
142
1.0
143
1.0
 70
   688
 72
     0
 73
     0
 74
     5
  7
EPSON.ctb
 75
    16
147
1.0
148
0.0
149
0.0
100
AcDbLayout
  1
ﾚｲｱｳﾄ2
 70
     1
 71
     2
 10
0.0
 20
0.0
 11
12.0
 21
9.0
 12
0.0
 22
0.0
 32
0.0
 14
0.0
 24
0.0
 34
0.0
 15
0.0
 25
0.0
 35
0.0
146
0.0
 13
0.0
 23
0.0
 33
0.0
 16
1.0
 26
0.0
 36
0.0
 17
0.0
 27
1.0
 37
0.0
 76
     0
330
23
  0
MATERIAL
  5
E3DF
102
{ACAD_XDICTIONARY
360
E3E0
102
}
102
{ACAD_REACTORS
330
E3D6
102
}
330
E3D6
100
AcDbMaterial
  1
ByBlock
 72
     0
 43
0.0008202099737533
 43
0.0
 43
0.0
 43
0.0
 43
0.0
 43
0.0008202099737533
 43
0.0
 43
0.0
 43
0.0
 43
0.0
 43
1.0
 43
0.0
 43
0.0
 43
0.0
 43
0.0
 43
1.0
 77
     0
 47
0.0008202099737533
 47
0.0
 47
0.0
 47
0.0
 47
0.0
 47
0.0008202099737533
 47
0.0
 47
0.0
 47
0.0
 47
0.0
 47
1.0
 47
0.0
 47
0.0
 47
0.0
 47
0.0
 47
1.0
171
     0
 49
0.0008202099737533
 49
0.0
 49
0.0
 49
0.0
 49
0.0
 49
0.0008202099737533
 49
0.0
 49
0.0
 49
0.0
 49
0.0
 49
1.0
 49
0.0
 49
0.0
 49
0.0
 49
0.0
 49
1.0
175
     0
142
0.0008202099737533
142
0.0
142
0.0
142
0.0
142
0.0
142
0.0008202099737533
142
0.0
142
0.0
142
0.0
142
0.0
142
1.0
142
0.0
142
0.0
142
0.0
142
0.0
142
1.0
179
     0
144
0.0008202099737533
144
0.0
144
0.0
144
0.0
144
0.0
144
0.0008202099737533
144
0.0
144
0.0
144
0.0
144
0.0
144
1.0
144
0.0
144
0.0
144
0.0
144
0.0
144
1.0
147
0.0008202099737533
147
0.0
147
0.0
147
0.0
147
0.0
147
0.0008202099737533
147
0.0
147
0.0
147
0.0
147
0.0
147
1.0
147
0.0
147
0.0
147
0.0
147
0.0
147
1.0
  0
MATERIAL
  5
E3D7
102
{ACAD_XDICTIONARY
360
E3D8
102
}
102
{ACAD_REACTORS
330
E3D6
102
}
330
E3D6
100
AcDbMaterial
  1
ByLayer
 72
     0
 43
0.0008202099737533
 43
0.0
 43
0.0
 43
0.0
 43
0.0
 43
0.0008202099737533
 43
0.0
 43
0.0
 43
0.0
 43
0.0
 43
1.0
 43
0.0
 43
0.0
 43
0.0
 43
0.0
 43
1.0
 77
     0
 47
0.0008202099737533
 47
0.0
 47
0.0
 47
0.0
 47
0.0
 47
0.0008202099737533
 47
0.0
 47
0.0
 47
0.0
 47
0.0
 47
1.0
 47
0.0
 47
0.0
 47
0.0
 47
0.0
 47
1.0
171
     0
 49
0.0008202099737533
 49
0.0
 49
0.0
 49
0.0
 49
0.0
 49
0.0008202099737533
 49
0.0
 49
0.0
 49
0.0
 49
0.0
 49
1.0
 49
0.0
 49
0.0
 49
0.0
 49
0.0
 49
1.0
175
     0
142
0.0008202099737533
142
0.0
142
0.0
142
0.0
142
0.0
142
0.0008202099737533
142
0.0
142
0.0
142
0.0
142
0.0
142
1.0
142
0.0
142
0.0
142
0.0
142
0.0
142
1.0
179
     0
144
0.0008202099737533
144
0.0
144
0.0
144
0.0
144
0.0
144
0.0008202099737533
144
0.0
144
0.0
144
0.0
144
0.0
144
1.0
144
0.0
144
0.0
144
0.0
144
0.0
144
1.0
147
0.0008202099737533
147
0.0
147
0.0
147
0.0
147
0.0
147
0.0008202099737533
147
0.0
147
0.0
147
0.0
147
0.0
147
1.0
147
0.0
147
0.0
147
0.0
147
0.0
147
1.0
  0
MATERIAL
  5
E3E7
102
{ACAD_XDICTIONARY
360
E3E8
102
}
102
{ACAD_REACTORS
330
E3D6
102
}
330
E3D6
100
AcDbMaterial
  1
Global
 72
     0
 43
0.0008202099737533
 43
0.0
 43
0.0
 43
0.0
 43
0.0
 43
0.0008202099737533
 43
0.0
 43
0.0
 43
0.0
 43
0.0
 43
1.0
 43
0.0
 43
0.0
 43
0.0
 43
0.0
 43
1.0
 77
     0
 47
0.0008202099737533
 47
0.0
 47
0.0
 47
0.0
 47
0.0
 47
0.0008202099737533
 47
0.0
 47
0.0
 47
0.0
 47
0.0
 47
1.0
 47
0.0
 47
0.0
 47
0.0
 47
0.0
 47
1.0
171
     0
 49
0.0008202099737533
 49
0.0
 49
0.0
 49
0.0
 49
0.0
 49
0.0008202099737533
 49
0.0
 49
0.0
 49
0.0
 49
0.0
 49
1.0
 49
0.0
 49
0.0
 49
0.0
 49
0.0
 49
1.0
175
     0
142
0.0008202099737533
142
0.0
142
0.0
142
0.0
142
0.0
142
0.0008202099737533
142
0.0
142
0.0
142
0.0
142
0.0
142
1.0
142
0.0
142
0.0
142
0.0
142
0.0
142
1.0
179
     0
144
0.0008202099737533
144
0.0
144
0.0
144
0.0
144
0.0
144
0.0008202099737533
144
0.0
144
0.0
144
0.0
144
0.0
144
1.0
144
0.0
144
0.0
144
0.0
144
0.0
144
1.0
147
0.0008202099737533
147
0.0
147
0.0
147
0.0
147
0.0
147
0.0008202099737533
147
0.0
147
0.0
147
0.0
147
0.0
147
1.0
147
0.0
147
0.0
147
0.0
147
0.0
147
1.0
  0
MLEADERSTYLE
  5
E426
102
{ACAD_REACTORS
330
E425
102
}
330
E425
100
AcDbMLeaderStyle
170
     2
171
     1
172
     0
 90
        2
 40
0.0
 41
0.0
173
     1
 91
-1023410172
340
15
 92
       20
290
     1
 42
0.09
291
     1
 43
-0.36
  3
Standard
341
2B
 44
3.0
300

342
34
174
     6
178
     6
175
     1
176
     0
 93
-1023410169
 45
6.0
292
     0
297
     0
 46
0.18
 94
-1056964608
 47
1.0
 49
1.0
140
1.0
293
     1
141
0.0
294
     1
177
     0
142
1.0
295
     0
296
     0
143
0.125
1001
ACAD_MLEADERVER
1070
     2
  0
MLINESTYLE
  5
18
102
{ACAD_REACTORS
330
17
102
}
330
17
100
AcDbMlineStyle
  2
STANDARD
 70
     0
  3

 62
   256
 51
90.0
 52
90.0
 71
     2
 49
0.5
 62
   256
  6
BYLAYER
 49
-0.5
 62
   256
  6
BYLAYER
  0
ACDBPLACEHOLDER
  5
F
102
{ACAD_REACTORS
330
E
102
}
330
E
  0
SCALE
  5
E404
102
{ACAD_REACTORS
330
E403
102
}
330
E403
100
AcDbScale
 70
     0
300
1:1
140
1.0
141
1.0
290
     1
  0
SCALE
  5
E405
102
{ACAD_REACTORS
330
E403
102
}
330
E403
100
AcDbScale
 70
     0
300
1:2
140
1.0
141
2.0
290
     0
  0
SCALE
  5
E406
102
{ACAD_REACTORS
330
E403
102
}
330
E403
100
AcDbScale
 70
     0
300
1:4
140
1.0
141
4.0
290
     0
  0
SCALE
  5
E407
102
{ACAD_REACTORS
330
E403
102
}
330
E403
100
AcDbScale
 70
     0
300
1:5
140
1.0
141
5.0
290
     0
  0
SCALE
  5
E408
102
{ACAD_REACTORS
330
E403
102
}
330
E403
100
AcDbScale
 70
     0
300
1:8
140
1.0
141
8.0
290
     0
  0
SCALE
  5
E409
102
{ACAD_REACTORS
330
E403
102
}
330
E403
100
AcDbScale
 70
     0
300
1:10
140
1.0
141
10.0
290
     0
  0
SCALE
  5
E40A
102
{ACAD_REACTORS
330
E403
102
}
330
E403
100
AcDbScale
 70
     0
300
1:16
140
1.0
141
16.0
290
     0
  0
SCALE
  5
E40B
102
{ACAD_REACTORS
330
E403
102
}
330
E403
100
AcDbScale
 70
     0
300
1:20
140
1.0
141
20.0
290
     0
  0
SCALE
  5
E40C
102
{ACAD_REACTORS
330
E403
102
}
330
E403
100
AcDbScale
 70
     0
300
1:30
140
1.0
141
30.0
290
     0
  0
SCALE
  5
E40D
102
{ACAD_REACTORS
330
E403
102
}
330
E403
100
AcDbScale
 70
     0
300
1:40
140
1.0
141
40.0
290
     0
  0
SCALE
  5
E40E
102
{ACAD_REACTORS
330
E403
102
}
330
E403
100
AcDbScale
 70
     0
300
1:50
140
1.0
141
50.0
290
     0
  0
SCALE
  5
E40F
102
{ACAD_REACTORS
330
E403
102
}
330
E403
100
AcDbScale
 70
     0
300
1:100
140
1.0
141
100.0
290
     0
  0
SCALE
  5
E410
102
{ACAD_REACTORS
330
E403
102
}
330
E403
100
AcDbScale
 70
     0
300
2:1
140
2.0
141
1.0
290
     0
  0
SCALE
  5
E411
102
{ACAD_REACTORS
330
E403
102
}
330
E403
100
AcDbScale
 70
     0
300
4:1
140
4.0
141
1.0
290
     0
  0
SCALE
  5
E412
102
{ACAD_REACTORS
330
E403
102
}
330
E403
100
AcDbScale
 70
     0
300
8:1
140
8.0
141
1.0
290
     0
  0
SCALE
  5
E413
102
{ACAD_REACTORS
330
E403
102
}
330
E403
100
AcDbScale
 70
     0
300
10:1
140
10.0
141
1.0
290
     0
  0
SCALE
  5
E414
102
{ACAD_REACTORS
330
E403
102
}
330
E403
100
AcDbScale
 70
     0
300
100:1
140
100.0
141
1.0
290
     0
  0
SCALE
  5
E415
102
{ACAD_REACTORS
330
E403
102
}
330
E403
100
AcDbScale
 70
     0
300
1/128" = 1'-0"
140
0.0078125
141
12.0
290
     0
  0
SCALE
  5
E416
102
{ACAD_REACTORS
330
E403
102
}
330
E403
100
AcDbScale
 70
     0
300
1/64" = 1'-0"
140
0.015625
141
12.0
290
     0
  0
SCALE
  5
E417
102
{ACAD_REACTORS
330
E403
102
}
330
E403
100
AcDbScale
 70
     0
300
1/32" = 1'-0"
140
0.03125
141
12.0
290
     0
  0
SCALE
  5
E418
102
{ACAD_REACTORS
330
E403
102
}
330
E403
100
AcDbScale
 70
     0
300
1/16" = 1'-0"
140
0.0625
141
12.0
290
     0
  0
SCALE
  5
E419
102
{ACAD_REACTORS
330
E403
102
}
330
E403
100
AcDbScale
 70
     0
300
3/32" = 1'-0"
140
0.09375
141
12.0
290
     0
  0
SCALE
  5
E41A
102
{ACAD_REACTORS
330
E403
102
}
330
E403
100
AcDbScale
 70
     0
300
1/8" = 1'-0"
140
0.125
141
12.0
290
     0
  0
SCALE
  5
E41B
102
{ACAD_REACTORS
330
E403
102
}
330
E403
100
AcDbScale
 70
     0
300
3/16" = 1'-0"
140
0.1875
141
12.0
290
     0
  0
SCALE
  5
E41C
102
{ACAD_REACTORS
330
E403
102
}
330
E403
100
AcDbScale
 70
     0
300
1/4" = 1'-0"
140
0.25
141
12.0
290
     0
  0
SCALE
  5
E41D
102
{ACAD_REACTORS
330
E403
102
}
330
E403
100
AcDbScale
 70
     0
300
3/8" = 1'-0"
140
0.375
141
12.0
290
     0
  0
SCALE
  5
E41E
102
{ACAD_REACTORS
330
E403
102
}
330
E403
100
AcDbScale
 70
     0
300
1/2" = 1'-0"
140
0.5
141
12.0
290
     0
  0
SCALE
  5
E41F
102
{ACAD_REACTORS
330
E403
102
}
330
E403
100
AcDbScale
 70
     0
300
3/4" = 1'-0"
140
0.75
141
12.0
290
     0
  0
SCALE
  5
E420
102
{ACAD_REACTORS
330
E403
102
}
330
E403
100
AcDbScale
 70
     0
300
1" = 1'-0"
140
1.0
141
12.0
290
     0
  0
SCALE
  5
E421
102
{ACAD_REACTORS
330
E403
102
}
330
E403
100
AcDbScale
 70
     0
300
1-1/2" = 1'-0"
140
1.5
141
12.0
290
     0
  0
SCALE
  5
E422
102
{ACAD_REACTORS
330
E403
102
}
330
E403
100
AcDbScale
 70
     0
300
3" = 1'-0"
140
3.0
141
12.0
290
     0
  0
SCALE
  5
E423
102
{ACAD_REACTORS
330
E403
102
}
330
E403
100
AcDbScale
 70
     0
300
6" = 1'-0"
140
6.0
141
12.0
290
     0
  0
SCALE
  5
E424
102
{ACAD_REACTORS
330
E403
102
}
330
E403
100
AcDbScale
 70
     0
300
1'-0" = 1'-0"
140
12.0
141
12.0
290
     0
  0
TABLESTYLE
  5
E402
102
{ACAD_XDICTIONARY
360
103A9
102
}
102
{ACAD_REACTORS
330
E401
102
}
330
E401
100
AcDbTableStyle
  3
Standard
 70
     0
 71
     0
 40
0.06
 41
0.06
280
     0
281
     0
  7
Standard
140
0.18
170
     2
 62
     0
 63
     7
283
     0
274
    -2
284
     1
 64
     0
275
    -2
285
     1
 65
     0
276
    -2
286
     1
 66
     0
277
    -2
287
     1
 67
     0
278
    -2
288
     1
 68
     0
279
    -2
289
     1
 69
     0
  7
Standard
140
0.25
170
     5
 62
     0
 63
     7
283
     0
274
    -2
284
     1
 64
     0
275
    -2
285
     1
 65
     0
276
    -2
286
     1
 66
     0
277
    -2
287
     1
 67
     0
278
    -2
288
     1
 68
     0
279
    -2
289
     1
 69
     0
  7
Standard
140
0.18
170
     5
 62
     0
 63
     7
283
     0
274
    -2
284
     1
 64
     0
275
    -2
285
     1
 65
     0
276
    -2
286
     1
 66
     0
277
    -2
287
     1
 67
     0
278
    -2
288
     1
 68
     0
279
    -2
289
     1
 69
     0
  0
VISUALSTYLE
  5
E3F5
102
{ACAD_REACTORS
330
E3EF
102
}
330
E3EF
100
AcDbVisualStyle
  2
2dWireframe
 70
     4
 71
     0
 72
     2
 73
     0
 90
        0
 40
-0.6
 41
-30.0
 62
     5
 63
     7
 74
     1
 91
        4
 64
     7
 65
   257
 75
     1
175
     1
 42
1.0
 92
        0
 66
   257
 43
1.0
 76
     1
 77
     6
 78
     2
 67
     7
 79
     5
170
     0
171
     0
290
     0
174
     0
 93
        1
 44
0.0
173
     0
291
     0
 45
0.0
1001
ACAD
1000
AcDbSavedByObjectVersion
1070
     0
  0
VISUALSTYLE
  5
E3F7
102
{ACAD_REACTORS
330
E3EF
102
}
330
E3EF
100
AcDbVisualStyle
  2
3D Hidden
 70
     6
 71
     1
 72
     2
 73
     2
 90
        0
 40
-0.6
 41
-30.0
 62
     5
 63
     7
 74
     2
 91
        2
 64
     7
 65
   257
 75
     2
175
     1
 42
40.0
 92
        0
 66
   257
 43
1.0
 76
     1
 77
     6
 78
     2
 67
     7
 79
     3
170
     0
171
     0
290
     0
174
     0
 93
        1
 44
0.0
173
     0
291
     0
 45
0.0
1001
ACAD
1000
AcDbSavedByObjectVersion
1070
     0
  0
VISUALSTYLE
  5
E3F6
102
{ACAD_REACTORS
330
E3EF
102
}
330
E3EF
100
AcDbVisualStyle
  2
3dWireframe
 70
     5
 71
     0
 72
     2
 73
     0
 90
        0
 40
-0.6
 41
-30.0
 62
     5
 63
     7
 74
     1
 91
        4
 64
     7
 65
   257
 75
     1
175
     1
 42
1.0
 92
        0
 66
   257
 43
1.0
 76
     1
 77
     6
 78
     2
 67
     7
 79
     5
170
     0
171
     0
290
     0
174
     0
 93
        1
 44
0.0
173
     0
291
     0
 45
0.0
1001
ACAD
1000
AcDbSavedByObjectVersion
1070
     0
  0
VISUALSTYLE
  5
E3F4
102
{ACAD_REACTORS
330
E3EF
102
}
330
E3EF
100
AcDbVisualStyle
  2
Basic
 70
     7
 71
     1
 72
     0
 73
     1
 90
        0
 40
-0.6
 41
-30.0
 62
     5
 63
     7
 74
     0
 91
        4
 64
     7
 65
   257
 75
     1
175
     1
 42
1.0
 92
        8
 66
     7
 43
1.0
 76
     1
 77
     6
 78
     2
 67
     7
 79
     5
170
     0
171
     0
290
     0
174
     0
 93
        1
 44
0.0
173
     0
291
     1
 45
0.0
1001
ACAD
1000
AcDbSavedByObjectVersion
1070
     0
  0
VISUALSTYLE
  5
E3FB
102
{ACAD_REACTORS
330
E3EF
102
}
330
E3EF
100
AcDbVisualStyle
  2
Brighten
 70
    12
 71
     2
 72
     2
 73
     0
 90
        0
 40
-0.6
 41
-30.0
 62
     5
 63
     7
 74
     1
 91
        4
 64
     7
 65
   257
 75
     1
175
     1
 42
1.0
 92
        8
 66
     7
 43
1.0
 76
     1
 77
     6
 78
     2
 67
     7
 79
     5
170
     0
171
     0
290
     0
174
     0
 93
        1
 44
50.0
173
     0
291
     1
 45
0.0
1001
ACAD
1000
AcDbSavedByObjectVersion
1070
     0
  0
VISUALSTYLE
  5
E3FF
102
{ACAD_REACTORS
330
E3EF
102
}
330
E3EF
100
AcDbVisualStyle
  2
ColorChange
 70
    16
 71
     2
 72
     2
 73
     3
 90
        0
 40
-0.6
 41
-30.0
 62
     5
 63
     8
 74
     1
 91
        4
 64
     7
 65
   257
 75
     1
175
     1
 42
1.0
 92
        8
 66
     8
 43
1.0
 76
     1
 77
     6
 78
     2
 67
     7
 79
     5
170
     0
171
     0
290
     0
174
     0
 93
        1
 44
0.0
173
     0
291
     1
 45
0.0
1001
ACAD
1000
AcDbSavedByObjectVersion
1070
     0
  0
VISUALSTYLE
  5
E3F8
102
{ACAD_REACTORS
330
E3EF
102
}
330
E3EF
100
AcDbVisualStyle
  2
Conceptual
 70
     9
 71
     3
 72
     2
 73
     0
 90
        0
 40
-0.6
 41
-30.0
 62
     5
 63
     7
 74
     2
 91
        2
 64
     7
 65
   257
 75
     1
175
     1
 42
40.0
 92
        8
 66
     7
 43
1.0
 76
     1
 77
     6
 78
     2
 67
     7
 79
     3
170
     0
171
     0
290
     0
174
     0
 93
        1
 44
0.0
173
     0
291
     0
 45
0.0
1001
ACAD
1000
AcDbSavedByObjectVersion
1070
     0
  0
VISUALSTYLE
  5
E3FA
102
{ACAD_REACTORS
330
E3EF
102
}
330
E3EF
100
AcDbVisualStyle
  2
Dim
 70
    11
 71
     2
 72
     2
 73
     0
 90
        0
 40
-0.6
 41
-30.0
 62
     5
 63
     7
 74
     1
 91
        4
 64
     7
 65
   257
 75
     1
175
     1
 42
1.0
 92
        8
 66
     7
 43
1.0
 76
     1
 77
     6
 78
     2
 67
     7
 79
     5
170
     0
171
     0
290
     0
174
     0
 93
        1
 44
-50.0
173
     0
291
     1
 45
0.0
1001
ACAD
1000
AcDbSavedByObjectVersion
1070
     0
  0
VISUALSTYLE
  5
E3FE
102
{ACAD_REACTORS
330
E3EF
102
}
330
E3EF
100
AcDbVisualStyle
  2
Facepattern
 70
    15
 71
     2
 72
     2
 73
     0
 90
        0
 40
-0.6
 41
-30.0
 62
     5
 63
     7
 74
     1
 91
        4
 64
     7
 65
   257
 75
     1
175
     1
 42
1.0
 92
        8
 66
     7
 43
1.0
 76
     1
 77
     6
 78
     2
 67
     7
 79
     5
170
     0
171
     0
290
     0
174
     0
 93
        1
 44
0.0
173
     0
291
     1
 45
0.0
1001
ACAD
1000
AcDbSavedByObjectVersion
1070
     0
  0
VISUALSTYLE
  5
E3F0
102
{ACAD_REACTORS
330
E3EF
102
}
330
E3EF
100
AcDbVisualStyle
  2
Flat
 70
     0
 71
     2
 72
     1
 73
     1
 90
        2
 40
-0.6
 41
30.0
 62
     5
 63
     7
 74
     0
 91
        4
 64
     7
 65
   257
 75
     1
175
     1
 42
1.0
 92
        8
 66
     7
 43
1.0
 76
     1
 77
     6
 78
     2
 67
     7
 79
     5
170
     0
171
     0
290
     0
174
     0
 93
       13
 44
0.0
173
     0
291
     1
 45
0.0
1001
ACAD
1000
AcDbSavedByObjectVersion
1070
     0
  0
VISUALSTYLE
  5
E3F1
102
{ACAD_REACTORS
330
E3EF
102
}
330
E3EF
100
AcDbVisualStyle
  2
FlatWithEdges
 70
     1
 71
     2
 72
     1
 73
     1
 90
        2
 40
-0.6
 41
30.0
 62
     5
 63
     7
 74
     1
 91
        4
 64
     7
 65
   257
 75
     1
175
     1
 42
1.0
 92
        0
 66
   257
 43
1.0
 76
     1
 77
     6
 78
     2
 67
     7
 79
     5
170
     0
171
     0
290
     0
174
     0
 93
       13
 44
0.0
173
     0
291
     1
 45
0.0
1001
ACAD
1000
AcDbSavedByObjectVersion
1070
     0
  0
VISUALSTYLE
  5
E3F2
102
{ACAD_REACTORS
330
E3EF
102
}
330
E3EF
100
AcDbVisualStyle
  2
Gouraud
 70
     2
 71
     2
 72
     2
 73
     1
 90
        2
 40
-0.6
 41
30.0
 62
     5
 63
     7
 74
     0
 91
        4
 64
     7
 65
   257
 75
     1
175
     1
 42
1.0
 92
        0
 66
     7
 43
1.0
 76
     1
 77
     6
 78
     2
 67
     7
 79
     5
170
     0
171
     0
290
     0
174
     0
 93
       13
 44
0.0
173
     0
291
     1
 45
0.0
1001
ACAD
1000
AcDbSavedByObjectVersion
1070
     0
  0
VISUALSTYLE
  5
E3F3
102
{ACAD_REACTORS
330
E3EF
102
}
330
E3EF
100
AcDbVisualStyle
  2
GouraudWithEdges
 70
     3
 71
     2
 72
     2
 73
     1
 90
        2
 40
-0.6
 41
30.0
 62
     5
 63
     7
 74
     1
 91
        4
 64
     7
 65
   257
 75
     1
175
     1
 42
1.0
 92
        0
 66
   257
 43
1.0
 76
     1
 77
     6
 78
     2
 67
     7
 79
     5
170
     0
171
     0
290
     0
174
     0
 93
       13
 44
0.0
173
     0
291
     1
 45
0.0
1001
ACAD
1000
AcDbSavedByObjectVersion
1070
     0
  0
VISUALSTYLE
  5
E3FD
102
{ACAD_REACTORS
330
E3EF
102
}
330
E3EF
100
AcDbVisualStyle
  2
Linepattern
 70
    14
 71
     2
 72
     2
 73
     0
 90
        0
 40
-0.6
 41
-30.0
 62
     5
 63
     7
 74
     1
 91
        4
 64
     7
 65
   257
 75
     7
175
     7
 42
1.0
 92
        8
 66
     7
 43
1.0
 76
     1
 77
     6
 78
     2
 67
     7
 79
     5
170
     0
171
     0
290
     0
174
     0
 93
        1
 44
0.0
173
     0
291
     1
 45
0.0
1001
ACAD
1000
AcDbSavedByObjectVersion
1070
     0
  0
VISUALSTYLE
  5
E3F9
102
{ACAD_REACTORS
330
E3EF
102
}
330
E3EF
100
AcDbVisualStyle
  2
Realistic
 70
     8
 71
     2
 72
     2
 73
     0
 90
        0
 40
-0.6
 41
-30.0
 62
     5
 63
     7
 74
     1
 91
        0
 64
     7
 65
   257
 75
     1
175
     1
 42
1.0
 92
        8
 66
     8
 43
1.0
 76
     1
 77
     6
 78
     2
 67
     7
 79
     5
170
     0
171
     0
290
     0
174
     0
 93
       13
 44
0.0
173
     0
291
     0
 45
0.0
1001
ACAD
1000
AcDbSavedByObjectVersion
1070
     0
  0
VISUALSTYLE
  5
E3FC
102
{ACAD_REACTORS
330
E3EF
102
}
330
E3EF
100
AcDbVisualStyle
  2
Thicken
 70
    13
 71
     2
 72
     2
 73
     0
 90
        0
 40
-0.6
 41
-30.0
 62
     5
 63
     7
 74
     1
 91
        4
 64
     7
 65
   257
 75
     1
175
     1
 42
1.0
 92
       12
 66
     7
 43
1.0
 76
     1
 77
     6
 78
     2
 67
     7
 79
     5
170
     0
171
     0
290
     0
174
     0
 93
        1
 44
0.0
173
     0
291
     1
 45
0.0
1001
ACAD
1000
AcDbSavedByObjectVersion
1070
     0
  0
DICTIONARYVAR
  5
103B0
102
{ACAD_REACTORS
330
103AC
102
}
330
103AC
100
DictionaryVariables
280
     0
  1
1:1
  0
DICTIONARYVAR
  5
103AE
102
{ACAD_REACTORS
330
103AC
102
}
330
103AC
100
DictionaryVariables
280
     0
  1
STANDARD
  0
DICTIONARYVAR
  5
103AD
102
{ACAD_REACTORS
330
103AC
102
}
330
103AC
100
DictionaryVariables
280
     0
  1
STANDARD
  0
DICTIONARYVAR
  5
16336
102
{ACAD_REACTORS
330
103AC
102
}
330
103AC
100
DictionaryVariables
280
     0
  1
1
  0
DICTIONARYVAR
  5
16335
102
{ACAD_REACTORS
330
103AC
102
}
330
103AC
100
DictionaryVariables
280
     0
  1
0
  0
DICTIONARYVAR
  5
103B1
102
{ACAD_REACTORS
330
103AC
102
}
330
103AC
100
DictionaryVariables
280
     0
  1
0
  0
DICTIONARYVAR
  5
103AF
102
{ACAD_REACTORS
330
103AC
102
}
330
103AC
100
DictionaryVariables
280
     0
  1
0
  0
DICTIONARYVAR
  5
16334
102
{ACAD_REACTORS
330
103AC
102
}
330
103AC
100
DictionaryVariables
280
     0
  1
127
  0
DICTIONARY
  5
24D02
330
22
100
AcDbDictionary
280
     1
281
     1
  3
ACAD_XREC_ROUNDTRIP
360
24D03
  0
DICTIONARY
  5
24D00
330
1E
100
AcDbDictionary
280
     1
281
     1
  3
ACAD_XREC_ROUNDTRIP
360
24D01
  0
DICTIONARY
  5
24D04
330
26
100
AcDbDictionary
280
     1
281
     1
  3
ACAD_XREC_ROUNDTRIP
360
24D05
  0
DICTIONARY
  5
E3E0
330
E3DF
100
AcDbDictionary
280
     1
281
     1
  3
ACAD_XREC_ROUNDTRIP
360
24D07
  3
BUMPTILE
360
E3E2
  3
DIFFUSETILE
360
E3E1
  3
OPACITYTILE
360
E3E5
  3
REFLECTIONTILE
360
E3E4
  3
REFRACTIONTILE
360
E3E6
  3
SPECULARTILE
360
E3E3
  0
DICTIONARY
  5
E3D8
330
E3D7
100
AcDbDictionary
280
     1
281
     1
  3
ACAD_XREC_ROUNDTRIP
360
24D06
  3
BUMPTILE
360
E3DA
  3
DIFFUSETILE
360
E3D9
  3
OPACITYTILE
360
E3DD
  3
REFLECTIONTILE
360
E3DC
  3
REFRACTIONTILE
360
E3DE
  3
SPECULARTILE
360
E3DB
  0
DICTIONARY
  5
E3E8
330
E3E7
100
AcDbDictionary
280
     1
281
     1
  3
ACAD_XREC_ROUNDTRIP
360
24D08
  3
BUMPTILE
360
E3EA
  3
DIFFUSETILE
360
E3E9
  3
OPACITYTILE
360
E3ED
  3
REFLECTIONTILE
360
E3EC
  3
REFRACTIONTILE
360
E3EE
  3
SPECULARTILE
360
E3EB
  0
DICTIONARY
  5
103A9
330
E402
100
AcDbDictionary
280
     1
281
     1
  3
ACAD_ROUNDTRIP_2008_TABLESTYLE_CELLSTYLEMAP
360
24CFB
  3
ACAD_XREC_ROUNDTRIP
360
24D09
  0
XRECORD
  5
24D03
102
{ACAD_REACTORS
330
24D02
102
}
330
24D02
100
AcDbXrecord
280
     1
102
SHADEPLOT
 70
     0
102
SHADEPLOTRESLEVEL
 70
     2
102
SHADEPLOTCUSTOMDPI
 70
   300
  0
XRECORD
  5
24D01
102
{ACAD_REACTORS
330
24D00
102
}
330
24D00
100
AcDbXrecord
280
     1
102
SHADEPLOT
 70
     0
102
SHADEPLOTRESLEVEL
 70
     2
102
SHADEPLOTCUSTOMDPI
 70
   300
  0
XRECORD
  5
24D05
102
{ACAD_REACTORS
330
24D04
102
}
330
24D04
100
AcDbXrecord
280
     1
102
SHADEPLOT
 70
     0
102
SHADEPLOTRESLEVEL
 70
     2
102
SHADEPLOTCUSTOMDPI
 70
   300
  0
XRECORD
  5
24D07
102
{ACAD_REACTORS
330
E3E0
102
}
330
E3E0
100
AcDbXrecord
280
     1
102
MATERIAL
148
0.0
149
0.0
149
0.0
 93
        0
 94
      127
282
     0
 72
     0
 77
     0
171
     0
175
     0
179
     0
273
     0
  0
XRECORD
  5
E3E2
102
{ACAD_REACTORS
330
E3E0
102
}
330
E3E0
100
AcDbXrecord
280
     1
270
     1
271
     1
  0
XRECORD
  5
E3E1
102
{ACAD_REACTORS
330
E3E0
102
}
330
E3E0
100
AcDbXrecord
280
     1
270
     1
271
     1
  0
XRECORD
  5
E3E5
102
{ACAD_REACTORS
330
E3E0
102
}
330
E3E0
100
AcDbXrecord
280
     1
270
     1
271
     1
  0
XRECORD
  5
E3E4
102
{ACAD_REACTORS
330
E3E0
102
}
330
E3E0
100
AcDbXrecord
280
     1
270
     1
271
     1
  0
XRECORD
  5
E3E6
102
{ACAD_REACTORS
330
E3E0
102
}
330
E3E0
100
AcDbXrecord
280
     1
270
     1
271
     1
  0
XRECORD
  5
E3E3
102
{ACAD_REACTORS
330
E3E0
102
}
330
E3E0
100
AcDbXrecord
280
     1
270
     1
271
     1
  0
XRECORD
  5
24D06
102
{ACAD_REACTORS
330
E3D8
102
}
330
E3D8
100
AcDbXrecord
280
     1
102
MATERIAL
148
0.0
149
0.0
149
0.0
 93
        0
 94
      127
282
     0
 72
     0
 77
     0
171
     0
175
     0
179
     0
273
     0
  0
XRECORD
  5
E3DA
102
{ACAD_REACTORS
330
E3D8
102
}
330
E3D8
100
AcDbXrecord
280
     1
270
     1
271
     1
  0
XRECORD
  5
E3D9
102
{ACAD_REACTORS
330
E3D8
102
}
330
E3D8
100
AcDbXrecord
280
     1
270
     1
271
     1
  0
XRECORD
  5
E3DD
102
{ACAD_REACTORS
330
E3D8
102
}
330
E3D8
100
AcDbXrecord
280
     1
270
     1
271
     1
  0
XRECORD
  5
E3DC
102
{ACAD_REACTORS
330
E3D8
102
}
330
E3D8
100
AcDbXrecord
280
     1
270
     1
271
     1
  0
XRECORD
  5
E3DE
102
{ACAD_REACTORS
330
E3D8
102
}
330
E3D8
100
AcDbXrecord
280
     1
270
     1
271
     1
  0
XRECORD
  5
E3DB
102
{ACAD_REACTORS
330
E3D8
102
}
330
E3D8
100
AcDbXrecord
280
     1
270
     1
271
     1
  0
XRECORD
  5
24D08
102
{ACAD_REACTORS
330
E3E8
102
}
330
E3E8
100
AcDbXrecord
280
     1
102
MATERIAL
148
0.0
149
0.0
149
0.0
 93
        0
 94
      127
282
     0
 72
     0
 77
     0
171
     0
175
     0
179
     0
273
     0
  0
XRECORD
  5
E3EA
102
{ACAD_REACTORS
330
E3E8
102
}
330
E3E8
100
AcDbXrecord
280
     1
270
     1
271
     1
  0
XRECORD
  5
E3E9
102
{ACAD_REACTORS
330
E3E8
102
}
330
E3E8
100
AcDbXrecord
280
     1
270
     1
271
     1
  0
XRECORD
  5
E3ED
102
{ACAD_REACTORS
330
E3E8
102
}
330
E3E8
100
AcDbXrecord
280
     1
270
     1
271
     1
  0
XRECORD
  5
E3EC
102
{ACAD_REACTORS
330
E3E8
102
}
330
E3E8
100
AcDbXrecord
280
     1
270
     1
271
     1
  0
XRECORD
  5
E3EE
102
{ACAD_REACTORS
330
E3E8
102
}
330
E3E8
100
AcDbXrecord
280
     1
270
     1
271
     1
  0
XRECORD
  5
E3EB
102
{ACAD_REACTORS
330
E3E8
102
}
330
E3E8
100
AcDbXrecord
280
     1
270
     1
271
     1
  0
CELLSTYLEMAP
  5
24CFB
102
{ACAD_REACTORS
330
103A9
102
}
330
103A9
100
AcDbCellStyleMap
 90
        3
300
CELLSTYLE
  1
TABLEFORMAT_BEGIN
 90
        5
170
     1
 91
        0
 92
    32768
 62
   257
 93
        1
300
CONTENTFORMAT
  1
CONTENTFORMAT_BEGIN
 90
        0
 91
        0
 92
      512
 93
        0
300

 40
0.0
140
1.0
 94
        5
 62
     0
340
11
144
0.25
309
CONTENTFORMAT_END
171
     0
 94
        0
309
TABLEFORMAT_END
  1
CELLSTYLE_BEGIN
 90
        1
 91
        1
300
_TITLE
309
CELLSTYLE_END
300
CELLSTYLE
  1
TABLEFORMAT_BEGIN
 90
        5
170
     1
 91
        0
 92
        0
 62
   257
 93
        1
300
CONTENTFORMAT
  1
CONTENTFORMAT_BEGIN
 90
        0
 91
        0
 92
      512
 93
        0
300

 40
0.0
140
1.0
 94
        5
 62
     0
340
11
144
0.18
309
CONTENTFORMAT_END
171
     0
 94
        0
309
TABLEFORMAT_END
  1
CELLSTYLE_BEGIN
 90
        2
 91
        1
300
_HEADER
309
CELLSTYLE_END
300
CELLSTYLE
  1
TABLEFORMAT_BEGIN
 90
        5
170
     1
 91
        0
 92
        0
 62
   257
 93
        1
300
CONTENTFORMAT
  1
CONTENTFORMAT_BEGIN
 90
        0
 91
        0
 92
      512
 93
        0
300

 40
0.0
140
1.0
 94
        2
 62
     0
340
11
144
0.18
309
CONTENTFORMAT_END
171
     0
 94
        0
309
TABLEFORMAT_END
  1
CELLSTYLE_BEGIN
 90
        3
 91
        2
300
_DATA
309
CELLSTYLE_END
  0
XRECORD
  5
24D09
102
{ACAD_REACTORS
330
103A9
102
}
330
103A9
100
AcDbXrecord
280
     1
102
ACAD_ROUNDTRIP_PRE2007_TABLESTYLE
 90
      512
 91
        0
  1

 92
      512
 93
        0
  2

 94
      512
 95
        0
  3

  0
ENDSEC
  0
EOF
